osu file format v14

[General]
AudioFilename: audio.mp3
AudioLeadIn: 0
PreviewTime: 95679
Countdown: 1
SampleSet: Soft
StackLeniency: 0.7
Mode: 0
LetterboxInBreaks: 0
WidescreenStoryboard: 1

[Editor]
Bookmarks: 95905
DistanceSpacing: 1.4
BeatDivisor: 4
GridSize: 4
TimelineZoom: 1

[Metadata]
Title:ama no jaku
TitleUnicode:天ノ弱
Artist:Akie
ArtistUnicode:秋絵
Creator:z406607505
Version:Hard
Source:Akie
Tags:Akie ama no jaku
BeatmapID:1513527
BeatmapSetID:714452

[Difficulty]
HPDrainRate:5.5
CircleSize:4
OverallDifficulty:5.5
ApproachRate:7
SliderMultiplier:1.80000000596046
SliderTickRate:2

[Events]
//Background and Video events
0,0,"f23793d138b5b535b8c61c38715359761c7dc7fb.jpg",0,0
//Break Periods
2,44225,55871
//Storyboard Layer 0 (Background)
//Storyboard Layer 1 (Fail)
//Storyboard Layer 2 (Pass)
//Storyboard Layer 3 (Foreground)
//Storyboard Sound Samples

[TimingPoints]
1844.87218045113,451.127819548872,4,2,1,40,1,8
12220,-133.333333333333,4,2,1,40,0,8
15378,-100,4,2,1,40,0,8
39739,-133.333333333333,4,2,1,40,0,8
41995,-100,4,2,1,40,0,8
84799,-83.3333333333333,4,2,1,40,0,8
95679,-83.3333333333333,4,2,1,40,0,1
123649,-100,4,2,1,40,0,0
152378,-100,4,2,1,40,0,8
206882,451.127819548872,4,2,0,60,1,1
206882,-83.3333333333333,4,2,1,40,0,1
240942,451.127819548872,4,2,0,60,1,1
240942,-83.3333333333333,4,2,0,60,0,1
249062,-100,4,2,1,40,0,0

[Colours]
Combo1 : 128,255,255
Combo2 : 0,202,0
Combo3 : 18,124,255
Combo4 : 242,24,57
Combo5 : 255,192,0

[HitObjects]
74,122,1844,5,0,0:0:0:0:
76,132,2070,2,0,P|91:178|152:188,1,90.000000298023,2|2,0:0|0:0,0:0:0:0:
234,196,2521,1,2,0:0:0:0:
226,196,2972,1,0,0:0:0:0:
184,76,3423,5,0,0:0:0:0:
178,80,3649,2,0,P|146:108|134:164,1,90.000000298023,2|2,0:0|0:0,0:0:0:0:
129,260,4100,1,2,0:0:0:0:
129,250,4777,1,2,0:0:0:0:
298,182,5228,5,2,0:0:0:0:
364,199,5453,2,0,P|349:238|300:247,1,90.000000298023,0|0,2:2|2:2,2:2:0:0:
232,165,5905,2,0,P|246:126|296:117,1,90.000000298023,0|0,2:2|2:2,2:2:0:0:
298,182,6356,1,2,0:0:0:0:
289,187,6581,1,0,0:0:0:0:
282,193,6807,1,2,0:0:0:0:
316,296,7032,1,0,0:0:0:0:
370,223,7258,2,2,P|433:210|461:131,2,135.000000447034,0|2|0,0:0|0:0|0:0,0:0:0:0:
196,93,8386,1,0,0:0:0:0:
112,275,8837,5,2,0:0:0:0:
112,261,9062,2,0,P|135:218|182:212,1,90.000000298023
255,279,9514,1,2,0:0:0:0:
255,290,9739,2,0,P|232:333|185:339,1,90.000000298023
132,336,10190,1,2,0:0:0:0:
12,116,10641,1,2,0:0:0:0:
452,124,11318,1,2,0:0:0:0:
95,299,12220,6,0,P|137:307|165:269,1,67.500002798438,2|0,0:0|0:0,0:0:0:0:
160,288,12671,1,2,0:0:0:0:
115,207,12897,2,0,B|128:158|101:108|115:67,1,135.000005596876
120,68,13574,1,0,0:0:0:0:
265,171,14025,1,2,0:0:0:0:
449,327,15378,6,0,P|405:307|397:263,1,90.000000298023,0|2,0:0|0:0,0:0:0:0:
341,176,15829,1,0,0:0:0:0:
294,273,16055,2,0,P|274:317|230:325,1,90.000000298023,0|2,0:0|0:0,0:0:0:0:
129,309,16506,2,0,B|111:274|70:278|54:248,1,90.000000298023,0|2,0:0|0:0,0:0:0:0:
147,193,16957,2,0,P|164:236|212:250,2,90.000000298023,0|2|0,0:0|0:0|0:0,0:0:0:0:
255,194,17634,2,0,P|238:151|190:137,2,90.000000298023,0|2|0,0:0|0:0|0:0,0:0:0:0:
120,196,18762,6,0,L|72:188,2,45.0000001490115,2|2|2,0:0|0:0|0:0,0:0:0:0:
192,224,19213,1,0,0:0:0:0:
197,226,19438,2,0,P|229:256|229:311,1,90.000000298023,0|2,0:0|0:0,0:0:0:0:
328,304,19889,1,2,0:0:0:0:
339,299,20115,1,0,0:0:0:0:
348,296,20341,6,0,B|377:293|393:250|432:236,1,90.000000298023,0|2,0:0|0:0,0:0:0:0:
387,173,20792,2,0,L|280:134,2,90.000000298023,0|2|0,0:0|0:0|0:0,0:0:0:0:
457,157,21468,1,2,0:0:0:0:
432,134,21694,1,0,0:0:0:0:
402,105,21920,1,2,0:0:0:0:
212,96,22371,6,0,L|136:150,1,90.000000298023
40,194,22822,1,2,0:0:0:0:
122,249,23047,2,0,P|98:269|95:332,1,90.000000298023,0|2,0:0|0:0,0:0:0:0:
162,314,23499,2,0,P|186:294|189:231,1,90.000000298023,0|2,0:0|0:0,0:0:0:0:
264,231,23950,2,0,L|341:276,2,90.000000298023,0|2|0,0:0|0:0|0:0,0:0:0:0:
388,256,24626,2,0,B|416:208|368:140|396:64,1,180.000000596046
112,96,25529,6,0,L|72:176,1,90.000000298023,0|2,0:0|0:0,0:0:0:0:
123,225,25980,1,2,0:0:0:0:
52,244,26205,2,0,P|52:325|144:326,1,180.000000596046,2|2,0:0|0:0,0:0:0:0:
191,289,26882,1,0,0:0:0:0:
252,326,27108,2,0,P|333:326|334:234,1,180.000000596046,2|2,0:0|0:0,0:0:0:0:
397,193,27784,1,0,0:0:0:0:
451,143,28010,2,0,B|403:99|403:99|288:100,1,180.000000596046,0|2,0:0|0:0,0:0:0:0:
288,276,28686,1,4,3:3:0:0:
154,104,29138,6,2,B|154:51|154:51|121:15,1,90.000000298023
28,88,29589,2,0,L|33:185,1,90.000000298023
128,244,30040,2,0,P|158:325|267:323,2,180.000000596046,0|2|0,0:0|0:0|0:0,0:0:0:0:
144,128,31168,1,0,0:0:0:0:
152,128,31393,2,0,P|196:136|225:181,2,90.000000298023,2|0|2,0:0|0:0|0:0,0:0:0:0:
392,128,32295,1,4,3:3:0:0:
245,286,32747,6,0,P|291:290|325:254,1,90.000000298023,0|2,0:0|0:0,0:0:0:0:
429,261,33198,1,0,0:0:0:0:
434,152,33423,2,0,P|421:108|382:96,1,90.000000298023,0|2,0:0|0:0,0:0:0:0:
208,48,33874,6,0,B|160:60|80:32|28:48,1,180.000000596046,0|2,0:0|0:0,0:0:0:0:
28,116,34438,1,0,0:0:0:0:
36,116,34551,2,0,P|83:116|124:156,2,90.000000298023,2|2|0,0:0|0:0|0:0,0:0:0:0:
184,144,35228,1,0,0:0:0:0:
188,152,35453,1,2,0:0:0:0:
192,160,35679,1,2,0:0:0:0:
240,332,36130,6,0,P|280:304|332:304,1,90.000000298023,0|2,0:0|0:0,0:0:0:0:
388,216,36581,2,0,P|428:184|477:182,2,90.000000298023,0|2|0,0:0|0:0|0:0,0:0:0:0:
335,204,37258,1,2,0:0:0:0:
335,198,37371,1,0,0:0:0:0:
339,194,37483,1,2,0:0:0:0:
446,72,37709,6,0,P|408:41|362:44,1,90.000000298023,0|2,0:0|0:0,0:0:0:0:
263,66,38160,2,0,L|166:66,2,90.000000298023,0|2|0,0:0|0:0|0:0,0:0:0:0:
226,167,38837,1,4,0:0:0:0:
8,288,39739,6,0,P|0:220|12:148,1,135.000000447035,2|0,0:0|0:0,0:0:0:0:
136,192,40416,2,0,L|224:192,1,67.500002798438,0|2,0:0|0:0,0:0:0:0:
252,112,40867,1,0,0:0:0:0:
344,92,41092,2,0,L|427:92,2,67.500002798438,0|2|0,0:0|0:0|0:0,0:0:0:0:
284,312,41995,5,0,0:0:0:0:
268,312,42220,2,0,P|229:329|175:300,1,90.000000298023,2|0,0:0|0:0,0:0:0:0:
76,250,42671,2,0,P|62:211|82:163,2,90.000000298023,0|2|0,0:0|0:0|0:0,0:0:0:0:
185,187,43348,1,2,0:0:0:0:
128,74,43574,2,0,P|215:49|300:76,1,180.000000596046,0|4,0:0|3:3,0:0:0:0:
120,80,57108,5,0,0:0:0:0:
81,199,57333,2,0,P|64:236|59:295,1,90.000000298023,0|2,0:0|0:0,0:0:0:0:
148,196,57784,1,0,0:0:0:0:
208,228,58010,2,0,P|208:276|184:328,1,90.000000298023,0|2,0:0|0:0,0:0:0:0:
305,342,58461,1,0,0:0:0:0:
336,219,58686,1,0,0:0:0:0:
430,302,58912,2,8,P|462:242|422:170,2,135.000000447035,2|0|2,0:0|0:0|0:0,0:0:0:0:
328,72,60040,1,0,0:0:0:0:
80,83,60491,6,8,P|124:68|182:83,2,90.000000298023,2|2|2,0:0|0:0|0:0,0:0:0:0:
139,194,61168,2,0,P|116:232|63:250,2,90.000000298023,0|0|2,0:0|0:0|0:0,0:0:0:0:
361,75,62070,2,2,L|361:123,4,45.0000001490115
281,117,62747,1,0,0:0:0:0:
168,173,62972,1,0,0:0:0:0:
289,208,63198,2,0,B|323:217|359:201|395:208,2,90.000000298023
128,324,64100,6,0,P|86:315|37:323,1,90.000000298023,2|2,0:0|0:0,0:0:0:0:
34,177,64551,2,0,P|46:213|34:269,1,90.000000298023
75,124,65002,2,0,P|119:134|166:124,2,90.000000298023
142,230,65679,5,0,0:0:0:0:
264,197,65905,2,0,P|252:233|264:283,1,90.000000298023,0|2,0:0|0:0,0:0:0:0:
389,281,66356,2,0,L|389:167,2,90.000000298023,0|2|0,0:0|0:0|0:0,0:0:0:0:
140,180,67483,6,0,P|200:152|232:152,1,90.000000298023,0|2,0:0|0:0,0:0:0:0:
377,185,67935,2,0,P|446:203|473:201,1,90.000000298023,0|2,0:0|0:0,0:0:0:0:
349,290,68386,2,0,B|268:352|170:294,1,180.000000596046,2|0,0:0|0:0,0:0:0:0:
72,235,69062,5,0,0:0:0:0:
67,226,69288,2,0,P|63:179|90:141,1,90.000000298023
204,102,69739,1,0,0:0:0:0:
325,70,69965,1,0,0:0:0:0:
335,71,70190,2,0,P|373:90|401:136,2,90.000000298023,2|0|0,0:0|0:0|0:0,0:0:0:0:
240,192,70867,6,0,P|279:167|286:121,1,90.000000298023
164,146,71318,1,2,0:0:0:0:
75,56,71544,1,0,0:0:0:0:
37,176,71769,1,2,0:0:0:0:
128,89,71995,2,0,L|206:35,2,90.000000298023
37,176,72671,1,2,0:0:0:0:
128,89,72897,2,0,L|214:29,2,90.000000298023
37,176,73574,1,0,0:0:0:0:
412,217,74250,6,0,P|392:300|308:290,1,180.000000596046
188,292,74927,1,2,0:0:0:0:
188,164,75153,2,0,P|236:128|296:128,2,90.000000298023
324,120,75829,1,0,0:0:0:0:
436,180,76055,2,0,L|424:272,2,90.000000298023
308,176,76732,2,0,L|320:268,2,90.000000298023
368,288,77408,1,0,0:0:0:0:
144,84,77859,6,0,B|80:148|80:148|156:224|156:224,1,180.000000596046,0|2,0:0|0:0,0:0:0:0:
248,140,78536,1,0,0:0:0:0:
348,64,78762,1,2,0:0:0:0:
252,144,78987,2,0,L|316:244,2,90.000000298023,0|0|2,0:0|0:0|0:0,0:0:0:0:
124,140,79664,2,0,B|100:188|144:252|124:332,2,180.000000596046
344,72,81468,5,0,0:0:0:0:
380,112,81694,2,8,P|380:160|424:184,2,90.000000298023,2|2|2,0:0|0:0|0:0,0:0:0:0:
344,72,82371,1,0,0:0:0:0:
228,120,82596,1,0,0:0:0:0:
112,176,82822,2,0,P|164:244|248:220,2,180.000000596046
104,52,83950,1,2,0:0:0:0:
120,304,84401,1,4,3:3:0:0:
312,316,84852,6,0,L|432:312,1,107.999997061729
360,188,85303,1,2,0:0:0:0:
496,160,85529,2,0,L|440:44,2,107.999997061729,0|2|0,0:0|0:0|0:0,0:0:0:0:
368,108,86205,5,2,0:0:0:0:
264,200,86431,2,0,L|264:308,1,107.999997061729
264,168,86882,1,0,0:0:0:0:
160,72,87108,2,0,P|120:108|36:124,1,107.999997061729,2|0,0:0|0:0,0:0:0:0:
40,256,87559,1,0,0:0:0:0:
44,260,87671,1,0,0:0:0:0:
48,264,87784,1,0,0:0:0:0:
152,192,88010,2,0,B|328:192|120:280|348:280,2,215.999994123458,2|0|0,0:0|0:0|0:0,0:0:0:0:
96,192,89138,1,0,0:0:0:0:
360,92,89589,6,0,P|256:116|144:88,1,215.999994123458,2|0,0:0|0:0,0:0:0:0:
256,184,90265,1,0,0:0:0:0:
256,48,90491,1,0,0:0:0:0:
256,40,90604,1,0,0:0:0:0:
256,32,90717,1,0,0:0:0:0:
256,252,91168,5,0,0:0:0:0:
360,92,91393,2,0,P|452:52|496:148,1,215.999994123458
428,120,92070,2,0,P|340:164|296:64,1,215.999994123458,2|0,0:0|0:0,0:0:0:0:
360,92,92747,1,0,0:0:0:0:
124,280,93198,2,0,P|116:248|120:164,6,107.999997061729,0|2|0|2|0|2|0,0:0|0:0|0:0|0:0|0:0|0:0|0:0,0:0:0:0:
252,200,94777,1,4,3:3:0:0:
192,96,95679,5,2,0:0:0:0:
408,252,96130,1,2,0:0:0:0:
404,256,96581,2,0,P|336:332|236:280,1,215.999994123458,2|0,0:0|0:0,0:0:0:0:
104,232,97258,2,0,P|148:208|192:244,1,107.999997061729,0|2,0:0|0:0,0:0:0:0:
316,152,97709,2,0,L|232:252,2,107.999997061729,0|2|0,0:0|0:0|0:0,0:0:0:0:
190,238,98386,2,0,P|152:264|104:232,1,107.999997061729
384,304,99062,5,0,0:0:0:0:
380,300,99175,1,0,0:0:0:0:
376,296,99288,1,0,0:0:0:0:
464,200,99514,2,0,L|492:72,1,107.999997061729,2|0,0:0|0:0,0:0:0:0:
392,216,99965,2,0,L|420:88,1,107.999997061729,2|0,0:0|0:0,0:0:0:0:
323,231,100416,1,0,0:0:0:0:
324,224,100529,1,0,0:0:0:0:
324,216,100641,1,0,0:0:0:0:
324,208,100754,1,0,0:0:0:0:
324,200,100867,1,0,0:0:0:0:
188,144,101092,6,0,P|240:160|312:124,2,107.999997061729
112,272,101769,1,2,0:0:0:0:
240,76,101995,1,2,0:0:0:0:
368,272,102220,1,4,3:3:0:0:
140,76,102671,6,0,P|120:128|120:188,2,107.999997061729,0|2|0,0:0|0:0|0:0,0:0:0:0:
180,224,103348,1,0,0:0:0:0:
272,104,103574,2,0,P|272:152|248:216,1,107.999997061729,0|2,0:0|0:0,0:0:0:0:
212,64,104025,1,4,3:3:0:0:
180,224,104250,1,0,0:0:0:0:
448,84,104702,6,0,P|396:72|316:68,1,107.999997061729,0|2,0:0|0:0,0:0:0:0:
472,148,105153,2,0,P|460:196|404:272,1,107.999997061729,0|2,0:0|0:0,0:0:0:0:
276,192,105604,1,0,0:0:0:0:
476,108,105829,1,2,0:0:0:0:
408,216,106280,5,0,0:0:0:0:
408,224,106506,2,0,P|344:324|240:328,1,215.999994123458,2|2,0:0|0:0,0:0:0:0:
304,52,107408,1,0,0:0:0:0:
296,64,107520,1,0,0:0:0:0:
288,76,107634,1,0,0:0:0:0:
152,252,107859,1,2,0:0:0:0:
144,260,108085,2,0,P|164:208|136:152,1,107.999997061729
92,112,108536,1,2,0:0:0:0:
96,104,108762,2,0,P|148:84|204:112,2,107.999997061729
272,56,109664,5,0,0:0:0:0:
424,56,109889,2,2,L|308:56,1,107.999997061729
468,60,110341,2,0,P|464:112|404:128,1,107.999997061729,2|0,0:0|0:0,0:0:0:0:
272,56,110792,1,0,0:0:0:0:
272,208,111017,2,0,L|272:96,1,107.999997061729
148,72,111468,5,2,0:0:0:0:
232,204,111694,1,2,0:0:0:0:
320,68,111920,2,0,P|404:52|356:124,1,215.999994123458,4|2,3:3|0:0,0:0:0:0:
148,72,112596,1,0,0:0:0:0:
176,320,113047,6,0,P|124:332|68:288,1,107.999997061729
244,316,113499,1,2,0:0:0:0:
304,284,113724,2,0,P|360:272|412:292,2,107.999997061729
240,180,114401,1,0,0:0:0:0:
124,84,114626,2,0,P|132:140|192:188,1,107.999997061729,2|0,0:0|0:0,0:0:0:0:
316,180,115077,1,0,0:0:0:0:
432,84,115303,2,0,P|424:140|364:188,1,107.999997061729,2|0,0:0|0:0,0:0:0:0:
240,240,115754,5,0,0:0:0:0:
232,240,115867,1,0,0:0:0:0:
224,240,115980,1,2,0:0:0:0:
92,240,116205,2,0,P|72:192|96:144,1,107.999997061729
176,64,116656,2,0,L|56:52,2,107.999997061729,2|0|0,0:0|0:0|0:0,0:0:0:0:
84,184,117333,1,0,0:0:0:0:
84,184,117559,6,0,L|108:296,1,107.999997061729,0|2,0:0|0:0,0:0:0:0:
252,336,118010,1,0,0:0:0:0:
260,184,118235,1,2,0:0:0:0:
256,260,118461,1,0,0:0:0:0:
392,292,118686,2,0,L|452:148,1,107.999997061729,0|2,0:0|0:0,0:0:0:0:
264,108,119138,1,4,3:3:0:0:
252,336,119363,1,2,0:0:0:0:
260,220,119589,1,0,0:0:0:0:
48,164,120491,6,0,B|76:108|156:132|180:72,2,161.999995592594,0|2|0,0:0|0:0|0:0,0:0:0:0:
200,164,121393,2,0,L|332:164,2,107.999997061729,0|2|0,0:0|0:0|0:0,0:0:0:0:
352,164,122070,1,0,0:0:0:0:
200,164,122295,2,0,P|216:112|268:96,1,107.999997061729
200,232,122747,2,0,L|324:232,2,107.999997061729,2|0|0,0:0|0:0|0:0,0:0:0:0:
352,232,123423,1,4,3:0:0:0:
160,168,123874,6,0,P|196:144|236:176,1,90.000000298023
348,116,124326,1,2,0:0:0:0:
352,120,124551,2,0,P|396:192|332:256,1,180.000000596046
224,300,125228,1,2,0:0:0:0:
216,300,125453,1,0,0:0:0:0:
208,300,125679,2,0,L|88:300,1,90.000000298023,2|0,0:0|0:0,0:0:0:0:
60,192,126130,2,0,P|60:140|108:140,1,90.000000298023
148,96,126581,2,0,P|196:96|196:40,1,90.000000298023,0|2,0:0|0:0,0:0:0:0:
432,156,127483,5,2,0:0:0:0:
428,160,127709,2,0,L|356:220,1,90.000000298023
256,292,128160,1,2,0:0:0:0:
152,220,128386,2,0,L|72:160,2,90.000000298023
256,148,129062,1,2,0:0:0:0:
260,144,129175,1,0,0:0:0:0:
264,140,129288,1,0,0:0:0:0:
388,152,129514,2,0,P|420:232|336:296,1,180.000000596046,0|2,0:0|0:0,0:0:0:0:
236,300,130190,2,0,L|148:284,2,90.000000298023
148,208,130867,5,2,0:0:0:0:
144,204,131092,2,0,P|104:164|104:124,1,90.000000298023
228,144,131544,1,2,0:0:0:0:
296,40,131769,2,0,B|416:40|416:40|464:96,1,180.000000596046
248,140,132446,1,0,0:0:0:0:
248,280,132671,1,0,0:0:0:0:
353,210,132897,2,0,B|473:210|473:210|521:266,1,180.000000596046
344,300,133574,1,0,0:0:0:0:
32,196,134476,5,0,0:0:0:0:
96,220,134589,1,2,0:0:0:0:
156,252,134702,2,0,L|220:316,1,90.000000298023
344,288,135153,1,0,0:0:0:0:
288,184,135378,1,0,0:0:0:0:
412,184,135604,1,2,0:0:0:0:
348,72,135829,2,0,P|264:44|164:84,1,180.000000596046,0|2,0:0|0:0,0:0:0:0:
56,168,136506,1,0,0:0:0:0:
52,172,136732,1,2,0:0:0:0:
48,176,136957,2,8,P|48:264|112:328,1,180.000000596046,0|2,0:0|0:0,0:0:0:0:
292,316,137972,5,0,0:0:0:0:
296,312,138085,1,0,0:0:0:0:
300,308,138311,2,0,P|340:280|392:276,1,90.000000298023,0|2,0:0|0:0,0:0:0:0:
488,208,138762,2,0,L|380:208,1,90.000000298023
436,88,139213,2,0,P|396:108|396:156,1,90.000000298023,2|0,0:0|0:0,0:0:0:0:
328,172,139551,1,2,0:0:0:0:
324,176,139664,2,0,L|260:268,2,90.000000298023,0|0|2,0:0|0:0|0:0,0:0:0:0:
388,168,140228,1,0,0:0:0:0:
388,176,140341,1,0,0:0:0:0:
388,184,140453,1,0,0:0:0:0:
388,280,140566,2,0,L|388:176,1,90.000000298023,4|0,0:0|0:0,0:0:0:0:
88,208,141243,6,0,B|56:176|56:176|56:128,1,90.000000298023,0|2,0:0|0:0,0:0:0:0:
172,84,141694,2,0,B|204:116|204:116|204:164,1,90.000000298023,0|2,0:0|0:0,0:0:0:0:
128,144,142145,1,2,0:0:0:0:
132,152,142371,2,0,L|172:244,1,90.000000298023
272,164,142822,2,0,L|272:32,2,90.000000298023
204,292,143499,2,0,B|152:284|80:312|12:292,1,180.000000596046,0|2,0:0|0:0,0:0:0:0:
488,292,144401,1,4,3:3:0:0:
224,36,144852,6,0,P|224:80|268:124,1,90.000000298023,0|2,0:0|0:0,0:0:0:0:
376,116,145303,2,0,P|376:72|412:36,1,90.000000298023,2|0,0:0|0:0,0:0:0:0:
452,156,145754,2,0,B|468:172|436:244|456:264,2,90.000000298023,0|2|0,0:0|0:0|0:0,0:0:0:0:
452,284,146431,1,2,0:0:0:0:
328,268,146656,2,0,P|368:248|368:192,2,90.000000298023
272,152,147333,1,2,0:0:0:0:
344,48,147559,2,0,P|256:24|160:56,1,180.000000596046,0|2,0:0|0:0,0:0:0:0:
32,156,148461,6,0,P|-4:236|48:316,1,180.000000596046,0|2,0:0|0:0,0:0:0:0:
128,224,149138,2,0,P|160:192|204:192,1,90.000000298023,0|2,0:0|0:0,0:0:0:0:
204,316,149589,1,2,0:0:0:0:
328,316,149814,2,0,P|364:296|364:248,1,90.000000298023,0|2,0:0|0:0,0:0:0:0:
256,188,150265,1,0,0:0:0:0:
360,116,150491,2,0,P|340:76|292:76,1,90.000000298023
464,188,150942,1,2,0:0:0:0:
212,188,151393,1,0,0:0:0:0:
428,320,151844,6,0,L|340:232,1,90.000000298023
260,332,152295,2,0,P|220:312|220:260,2,90.000000298023,0|2|0,0:0|0:0|0:0,0:0:0:0:
244,208,152972,1,2,0:0:0:0:
120,180,153198,2,0,P|144:156|200:156,1,90.000000298023,0|2,0:0|0:0,0:0:0:0:
116,252,153649,1,0,0:0:0:0:
24,336,153874,2,0,L|128:336,1,90.000000298023,0|2,0:0|0:0,0:0:0:0:
236,308,154326,6,0,B|296:288|340:244|360:176,1,180.000000596046
360,60,155002,1,0,0:0:0:0:
468,124,155228,1,2,0:0:0:0:
352,60,155453,2,0,L|232:60,2,90.000000298023
412,176,156130,1,0,0:0:0:0:
412,176,156356,2,0,P|380:96|280:96,1,180.000000596046,2|0,0:0|0:0,0:0:0:0:
172,56,157032,1,0,0:0:0:0:
164,56,157258,2,0,L|56:56,2,90.000000298023,0|2|0,0:0|0:0|0:0,0:0:0:0:
164,136,157935,1,4,3:3:0:0:
240,296,158611,5,0,0:0:0:0:
116,280,158837,2,0,L|48:208,1,90.000000298023
180,204,159288,2,0,L|100:120,1,90.000000298023,0|2,0:0|0:0,0:0:0:0:
228,80,159739,2,0,B|288:36|288:36|412:36,1,180.000000596046,0|2,0:0|0:0,0:0:0:0:
468,136,160416,2,0,B|448:128|424:136|424:136|380:152|344:136|344:136|312:128|284:136,1,180.000000596046
244,312,161318,5,0,0:0:0:0:
364,272,161544,2,0,P|328:308|284:308,1,90.000000298023,2|0,0:0|0:0,0:0:0:0:
164,312,161995,2,0,P|88:272|88:184,1,180.000000596046,0|2,0:0|0:0,0:0:0:0:
172,92,162671,2,0,B|276:92,2,90.000000298023,0|2|0,0:0|0:0|0:0,0:0:0:0:
256,188,163348,1,0,0:0:0:0:
348,276,163574,2,0,L|444:276,1,90.000000298023,0|2,0:0|0:0,0:0:0:0:
472,156,164025,1,0,0:0:0:0:
376,72,164250,1,2,0:0:0:0:
252,68,164476,1,4,3:3:0:0:
32,60,165604,6,0,P|-16:132|48:216,1,180.000000596046,0|2,0:0|0:0,0:0:0:0:
152,208,166280,2,0,P|176:248|152:288,1,90.000000298023
276,236,166732,1,2,0:0:0:0:
184,148,166957,2,0,B|236:128|312:172|368:148,2,180.000000596046,0|0|2,0:0|0:0|0:0,0:0:0:0:
436,148,168085,1,0,0:0:0:0:
436,156,168311,2,0,P|436:200|388:248,1,90.000000298023,0|2,0:0|0:0,0:0:0:0:
192,80,168987,5,0,0:0:0:0:
188,88,169213,2,0,L|96:180,2,90.000000298023,0|2|0,0:0|0:0|0:0,0:0:0:0:
256,88,169889,2,0,L|328:160,2,90.000000298023,0|2|0,0:0|0:0|0:0,0:0:0:0:
380,88,170566,1,0,0:0:0:0:
380,212,170791,1,2,0:0:0:0:
380,340,171017,1,0,0:0:0:0:
256,268,171242,2,0,L|160:268,1,90.000000298023,0|2,0:0|0:0,0:0:0:0:
448,264,171694,2,0,L|520:192,1,90.000000298023,2|0,0:0|0:0,0:0:0:0:
136,148,172596,5,0,0:0:0:0:
120,156,172709,1,0,0:0:0:0:
112,168,172822,1,2,0:0:0:0:
104,244,173047,2,0,B|84:264|136:316|108:344,1,90.000000298023,2|0,0:0|0:0,0:0:0:0:
240,324,173499,2,0,B|260:304|208:252|236:224,2,90.000000298023,2|0|0,0:0|0:0|0:0,0:0:0:0:
364,320,174175,1,2,0:0:0:0:
360,192,174401,1,2,0:0:0:0:
468,260,174626,2,0,L|468:148,2,90.000000298023
360,192,175303,1,2,0:0:0:0:
300,224,175529,6,0,P|240:164|240:72,1,180.000000596046,0|2,0:0|0:0,0:0:0:0:
112,72,176205,2,0,B|112:112|112:112|60:168,1,90.000000298023,0|2,0:0|0:0,0:0:0:0:
148,176,176656,1,2,0:0:0:0:
464,184,177220,1,2,0:0:0:0:
368,264,177671,2,0,L|320:148,1,90.000000298023,0|2,0:0|0:0,0:0:0:0:
148,176,178235,1,6,3:3:0:0:
264,272,179138,6,0,P|200:328|116:272,2,180.000000596046
224,224,180153,1,0,0:0:0:0:
220,220,180265,1,0,0:0:0:0:
216,216,180378,1,0,0:0:0:0:
212,212,180491,1,0,0:0:0:0:
208,208,180604,1,0,0:0:0:0:
152,176,180717,6,0,P|136:128|164:88,2,90.000000298023,2|0|2,0:0|0:0|0:0,0:0:0:0:
200,60,181393,1,0,0:0:0:0:
452,64,181844,1,2,0:0:0:0:
200,60,182295,1,0,0:0:0:0:
44,172,182747,6,0,L|40:288,1,90.000000298023,0|2,0:0|0:0,0:0:0:0:
152,200,183198,2,0,L|244:292,1,90.000000298023,0|2,0:0|0:0,0:0:0:0:
108,284,183536,1,0,0:0:0:0:
100,284,183649,1,0,0:0:0:0:
284,260,183874,1,0,0:0:0:0:
288,264,184100,2,0,P|340:272|392:236,2,90.000000298023
364,212,184777,1,2,0:0:0:0:
364,204,185002,2,0,L|368:88,2,90.000000298023,0|2|0,0:0|0:0|0:0,0:0:0:0:
404,136,186130,5,2,0:0:0:0:
296,68,186356,2,0,P|260:92|212:56,1,90.000000298023,0|2,0:0|0:0,0:0:0:0:
96,52,186807,1,0,0:0:0:0:
36,164,187032,2,0,P|44:216|80:248,1,90.000000298023,0|2,0:0|0:0,0:0:0:0:
132,244,187371,1,0,0:0:0:0:
192,264,187483,2,0,P|232:248|256:200,1,90.000000298023,0|2,0:0|0:0,0:0:0:0:
468,192,188160,6,0,P|448:108|352:88,1,180.000000596046,0|2,0:0|0:0,0:0:0:0:
324,204,188837,1,2,0:0:0:0:
216,140,189062,1,0,0:0:0:0:
212,144,189288,2,0,P|172:156|116:136,1,90.000000298023
372,204,189965,6,0,P|336:240|264:240,1,90.000000298023
188,184,190416,2,0,P|184:228|136:268,1,90.000000298023
64,112,190867,1,4,3:3:0:0:
460,112,191318,1,6,3:3:0:0:
64,112,191769,1,4,3:3:0:0:
460,112,192220,1,6,3:3:0:0:
52,232,193123,6,0,P|56:184|112:160,1,90.000000298023,0|2,0:0|0:0,0:0:0:0:
144,272,193574,2,0,P|176:236|236:252,1,90.000000298023,0|2,0:0|0:0,0:0:0:0:
320,284,194025,2,0,P|376:348|456:312,1,180.000000596046,0|2,0:0|0:0,0:0:0:0:
412,196,194702,2,0,B|416:160|440:148|440:112,1,90.000000298023
316,100,195153,2,0,P|252:44|180:100,1,180.000000596046,0|2,0:0|0:0,0:0:0:0:
64,132,195829,1,0,0:0:0:0:
344,252,196506,6,0,P|320:320|248:312,2,135.000000447034,2|0|0,0:0|0:0|0:0,0:0:0:0:
220,264,197408,2,0,L|96:292,2,90.000000298023
112,200,198085,1,2,0:0:0:0:
132,76,198311,1,0,0:0:0:0:
248,128,198536,2,2,P|224:168|256:208,1,90.000000298023
352,264,198987,2,0,P|400:192|356:104,2,180.000000596046
128,152,200341,5,0,0:0:0:0:
436,64,201017,1,0,0:0:0:0:
436,64,201243,2,0,P|480:140|416:232,2,180.000000596046
168,192,202596,5,2,0:0:0:0:
112,248,204401,5,2,0:0:0:0:
228,300,204626,2,0,L|348:308,2,90.000000298023
80,96,205529,2,0,L|188:88,1,90.000000298023
296,188,205980,1,0,0:0:0:0:
392,104,206882,5,2,0:0:0:0:
436,248,207107,2,0,P|408:284|340:268,2,107.999997061729,0|2|0,0:0|0:0|0:0,0:0:0:0:
288,288,207784,2,0,P|192:316|160:204,1,215.999994123458,0|6,0:0|3:3,0:0:0:0:
168,76,208460,1,0,0:0:0:0:
176,72,208686,2,0,L|288:68,1,107.999997061729
436,60,209137,2,2,P|488:88|488:144,1,107.999997061729
376,228,209588,2,0,P|376:284|324:328,1,107.999997061729,0|2,0:0|0:0,0:0:0:0:
120,272,210265,6,0,P|84:232|24:248,2,107.999997061729,0|2|0,0:0|0:0|0:0,0:0:0:0:
260,332,210942,2,0,P|308:352|364:308,1,107.999997061729,0|2,0:0|0:0,0:0:0:0:
428,196,211393,2,0,L|440:88,2,107.999997061729,0|2|0,0:0|0:0|0:0,0:0:0:0:
188,192,212069,5,0,0:0:0:0:
180,188,212182,1,0,0:0:0:0:
172,184,212295,1,0,0:0:0:0:
388,188,212521,1,0,0:0:0:0:
380,188,212746,2,0,P|332:176|308:124,1,107.999997061729,0|2,0:0|0:0,0:0:0:0:
92,100,213197,2,0,L|200:88,2,107.999997061729,0|2|0,0:0|0:0|0:0,0:0:0:0:
300,48,213874,6,0,P|352:44|384:92,1,107.999997061729,0|2,0:0|0:0,0:0:0:0:
496,188,214325,1,2,0:0:0:0:
364,264,214551,2,0,P|384:304|364:360,1,107.999997061729
244,268,215002,1,2,0:0:0:0:
188,112,215227,2,0,L|300:108,1,107.999997061729,0|2,0:0|0:0,0:0:0:0:
140,64,215678,1,0,0:0:0:0:
36,176,215904,6,0,L|24:284,1,107.999997061729,0|2,0:0|0:0,0:0:0:0:
172,248,216355,1,0,0:0:0:0:
316,300,216581,2,0,P|372:316|424:272,2,107.999997061729,2|0|0,0:0|0:0|0:0,0:0:0:0:
452,236,217257,1,2,0:0:0:0:
452,228,217483,2,0,P|436:184|380:168,1,107.999997061729
228,168,217934,5,0,0:0:0:0:
224,16,218160,1,0,0:0:0:0:
300,148,218385,2,0,P|220:92|160:184,1,215.999994123458,2|0,0:0|0:0,0:0:0:0:
104,28,219062,2,2,P|88:76|24:68,1,107.999997061729
56,200,219513,2,0,L|36:328,1,107.999997061729,0|2,0:0|0:0,0:0:0:0:
188,284,219964,2,0,P|228:320|284:296,2,107.999997061729,0|4|0,0:0|3:3|0:0,0:0:0:0:
404,72,220866,5,0,0:0:0:0:
264,128,221092,2,0,P|300:168|280:228,1,107.999997061729,0|2,0:0|0:0,0:0:0:0:
416,300,221543,2,0,P|376:332|296:296,2,107.999997061729,0|2|0,0:0|0:0|0:0,0:0:0:0:
268,276,222220,2,0,P|224:240|160:256,2,107.999997061729,0|2|0,0:0|0:0|0:0,0:0:0:0:
409,231,222897,2,0,L|516:216,1,107.999997061729
380,148,223348,2,0,P|328:168|328:236,2,107.999997061729,0|6|0,0:0|3:3|0:0,0:0:0:0:
396,296,224250,6,0,P|356:328|292:308,1,107.999997061729
152,308,224701,2,0,L|36:304,1,107.999997061729,2|0,0:0|0:0,0:0:0:0:
188,248,225152,1,2,0:0:0:0:
184,240,225265,1,0,0:0:0:0:
180,232,225378,1,0,0:0:0:0:
112,116,225603,6,0,P|72:104|60:40,2,107.999997061729,0|0|2,0:0|0:0|0:0,0:0:0:0:
304,160,226280,1,0,0:0:0:0:
148,172,226506,2,0,P|196:196|252:148,1,107.999997061729
344,60,226957,2,0,P|440:80|428:188,1,215.999994123458,2|2,0:0|0:0,0:0:0:0:
284,180,227633,5,2,0:0:0:0:
416,288,227859,2,0,P|404:328|344:328,1,107.999997061729
192,324,228310,2,0,P|176:288|100:320,1,107.999997061729
12,180,228761,6,0,P|24:116|64:84,1,107.999997061729,2|2,0:0|0:0,0:0:0:0:
172,184,229212,1,0,0:0:0:0:
276,72,229438,2,0,P|320:40|376:64,1,107.999997061729,2|0,0:0|0:0,0:0:0:0:
472,164,229889,2,0,B|460:288,2,107.999997061729,0|2|0,0:0|0:0|0:0,0:0:0:0:
360,316,230566,5,0,0:0:0:0:
264,228,230791,1,2,0:0:0:0:
144,272,231017,1,0,0:0:0:0:
52,184,231242,1,0,0:0:0:0:
156,72,231468,2,0,P|192:36|256:36,1,107.999997061729,2|0,0:0|0:0,0:0:0:0:
312,88,231919,6,0,P|400:32|500:80,1,215.999994123458,6|2,3:3|0:0,0:0:0:0:
408,120,232596,1,0,0:0:0:0:
496,144,232821,2,0,P|416:208|316:148,1,215.999994123458,2|2,0:0|0:0,0:0:0:0:
148,68,233949,6,0,P|96:80|93:131,2,107.999997061729,2|0|0,0:0|0:0|0:0,0:0:0:0:
284,136,234626,1,2,0:0:0:0:
372,256,234851,2,0,L|272:204,1,107.999997061729,0|2,0:0|0:0,0:0:0:0:
64,256,235303,2,2,L|176:200,1,107.999997061729,0|2,0:0|0:0,0:0:0:0:
372,172,235754,5,0,0:0:0:0:
256,76,235979,2,0,P|304:52|360:88,1,107.999997061729,0|2,0:0|0:0,0:0:0:0:
212,136,236430,2,0,P|264:156|308:120,1,107.999997061729
448,168,236882,2,0,P|468:220|424:268,1,107.999997061729,0|2,0:0|0:0,0:0:0:0:
292,284,237333,5,0,0:0:0:0:
288,288,237558,2,0,B|248:316|248:316|180:316,1,107.999997061729,2|0,0:0|0:0,0:0:0:0:
64,232,238009,1,0,0:0:0:0:
64,224,238235,1,0,0:0:0:0:
124,84,238460,2,0,B|156:68|204:100|244:76,1,107.999997061729,2|0,0:0|0:0,0:0:0:0:
372,68,239137,6,0,L|452:148,1,107.999997061729,0|2,0:0|0:0,0:0:0:0:
404,288,239588,1,0,0:0:0:0:
252,280,239814,2,0,P|172:344|84:284,1,215.999994123458,0|2,0:0|0:0,0:0:0:0:
104,140,240491,1,0,0:0:0:0:
224,64,240942,5,2,0:0:0:0:
232,64,241167,2,0,L|352:60,2,107.999997061729,0|2|0,0:0|0:0|0:0,0:0:0:0:
372,120,241844,1,0,0:0:0:0:
344,268,242069,2,0,P|288:264|252:320,1,107.999997061729,0|2,0:0|0:0,0:0:0:0:
104,284,242520,1,0,0:0:0:0:
232,204,242746,1,2,0:0:0:0:
64,152,242972,2,0,P|96:104|140:116,1,107.999997061729
280,68,243423,1,2,0:0:0:0:
412,36,243648,6,0,L|416:152,1,107.999997061729,0|2,0:0|0:0,0:0:0:0:
476,280,244099,2,0,P|428:296|404:352,1,107.999997061729,0|2,0:0|0:0,0:0:0:0:
256,316,244551,2,0,P|216:348|164:320,1,107.999997061729,0|2,0:0|0:0,0:0:0:0:
64,216,245002,1,0,0:0:0:0:
112,72,245227,1,4,3:3:0:0:
272,48,245678,6,0,P|320:24|376:56,1,107.999997061729
476,148,246129,2,0,L|464:260,1,107.999997061729,0|2,0:0|0:0,0:0:0:0:
312,272,246581,2,0,L|184:296,2,107.999997061729,0|2|0,0:0|0:0|0:0,0:0:0:0:
168,232,247257,1,0,0:0:0:0:
84,168,247483,1,2,0:0:0:0:
80,60,247708,2,0,P|188:40|300:72,1,215.999994123458
380,232,248611,1,6,3:3:0:0:
72,88,249513,6,0,B|156:52|156:52|248:88,1,180.000000596046,0|2,0:0|0:0,0:0:0:0:
356,132,250190,1,2,0:0:0:0:
244,192,250415,2,0,B|176:248|176:248|76:220,1,180.000000596046,0|2,0:0|0:0,0:0:0:0:
172,132,251092,1,0,0:0:0:0:
40,272,251317,1,2,0:0:0:0:
176,324,251543,6,0,L|272:316,1,90.000000298023
304,196,251994,1,2,0:0:0:0:
416,252,252220,2,0,L|316:240,2,90.000000298023,0|0|2,0:0|0:0|0:0,0:0:0:0:
304,196,252896,5,0,0:0:0:0:
244,180,253009,1,0,0:0:0:0:
184,168,253122,1,2,0:0:0:0:
168,172,253348,2,0,P|156:216|184:256,1,90.000000298023
296,292,253799,5,2,0:0:0:0:
268,168,254024,1,0,0:0:0:0:
392,184,254250,2,0,P|392:140|352:112,1,90.000000298023,2|0,0:0|0:0,0:0:0:0:
296,76,254814,1,0,0:0:0:0:
288,76,255265,1,2,0:0:0:0:
280,76,255716,1,0,0:0:0:0:
272,80,256167,1,4,3:3:0:0:
56,104,256505,6,0,P|39:132|32:200,1,90.000000298023,0|2,0:0|0:0,0:0:0:0:
164,164,256957,1,0,0:0:0:0:
160,300,257182,2,0,P|204:280|248:308,1,90.000000298023,0|2,0:0|0:0,0:0:0:0:
384,292,257633,1,6,3:3:0:0:
284,188,257859,1,0,0:0:0:0:
420,144,258084,2,0,P|412:100|360:76,1,90.000000298023
240,28,258535,2,0,L|128:36,1,90.000000298023,0|2,0:0|0:0,0:0:0:0:
16,92,258987,1,0,0:0:0:0:
24,236,259212,2,0,P|60:264|108:268,1,90.000000298023,0|2,0:0|0:0,0:0:0:0:
341,304,260002,5,4,3:3:0:0:
336,300,260114,1,0,0:0:0:0:
332,296,260227,1,0,0:0:0:0:
120,148,260453,1,2,0:0:0:0:
396,148,260904,5,4,3:3:0:0:
392,152,261017,1,0,0:0:0:0:
388,156,261129,1,0,0:0:0:0:
176,304,261355,1,2,0:0:0:0:
258,62,261806,5,4,3:3:0:0:
260,68,261919,1,0,0:0:0:0:
262,74,262032,1,0,0:0:0:0:
341,304,262257,1,2,0:0:0:0:
420,44,262821,6,0,B|484:108|484:108|468:208,1,180.000000596046,2|0,0:0|0:0,0:0:0:0:
352,280,263498,2,0,P|316:304|248:300,1,90.000000298023,2|4,0:0|3:3,0:0:0:0:
