osu file format v14

[General]
AudioFilename: audio.mp3
AudioLeadIn: 0
PreviewTime: 178825
Countdown: 0
SampleSet: Soft
StackLeniency: 0.4
Mode: 0
LetterboxInBreaks: 0
WidescreenStoryboard: 1

[Editor]
DistanceSpacing: 0.7
BeatDivisor: 4
GridSize: 4
TimelineZoom: 1

[Metadata]
Title:Ama no Jaku Piano ver.
TitleUnicode:天ノ弱 Piano ver.
Artist:Akie
ArtistUnicode:秋絵
Creator:- Matha -
Version:Memories
Source:
Tags:Akie秋絵 オリジナルPV うぃんぐ Ririko 栗远杉 164 A君 Heaven's Weakness A Born Coward gumi japanese female
BeatmapID:2130015
BeatmapSetID:1017732

[Difficulty]
HPDrainRate:4.3
CircleSize:4.5
OverallDifficulty:6
ApproachRate:7.2
SliderMultiplier:1.5
SliderTickRate:1

[Events]
//Background and Video events
0,0,"BG.jpg",0,0
Video,0,"Video.mp4"
//Break Periods
//Storyboard Layer 0 (Background)
//Storyboard Layer 1 (Fail)
//Storyboard Layer 2 (Pass)
//Storyboard Layer 3 (Foreground)
//Storyboard Layer 4 (Overlay)
//Storyboard Sound Samples

[TimingPoints]
1900,869.565217391304,4,2,1,30,1,0
15813,-90.9090909090909,4,2,1,40,0,0
43639,-83.3333333333333,4,2,1,40,0,0
57552,-90.9090909090909,4,2,1,40,0,0
78421,-90.9090909090909,4,2,1,30,0,0
93204,869.25027164071,4,2,1,40,1,0
93204,-90.9090909090909,4,2,1,40,0,0
96681,-76.9230769230769,4,2,1,45,0,0
117543,-90.9090909090909,4,2,1,35,0,0
124497,-90.9090909090909,4,2,1,35,0,0
138405,-90.9090909090909,4,2,1,40,0,0
166221,-83.3333333333333,4,2,1,40,0,0
180129,-90.9090909090909,4,2,1,35,0,0
207945,-71.4285714285714,4,2,1,45,0,0
235761,-90.9090909090909,4,2,1,40,0,0
249669,-100,4,2,1,30,0,0
260100,-166.666666666667,4,2,1,20,0,0
263794,-166.666666666667,4,2,1,10,0,0

[Colours]
Combo1 : 239,207,240
Combo2 : 215,153,156
Combo3 : 242,242,162
Combo4 : 180,172,215

[HitObjects]
34,309,1900,6,0,B|98:296|74:342|149:330,2,112.5,2|0|0,0:0|0:0|0:0,0:0:0:0:
150,219,3639,2,0,L|139:336,2,112.5,2|0|0,0:0|0:0|0:0,0:0:0:0:
234,60,5378,6,0,L|229:12,2,37.5,2|0|0,0:0|0:0|0:0,0:0:0:0:
224,137,6030,2,0,P|266:135|297:102,1,75
326,43,6682,1,0,0:0:0:0:
359,66,6899,1,0,0:0:0:0:
397,54,7117,2,0,L|434:59,2,37.5,2|0|0,0:0|0:0|0:0,0:0:0:0:
397,54,7986,1,0,0:0:0:0:
475,214,8421,1,0,0:0:0:0:
358,353,8856,6,0,B|290:373|312:323|244:345,1,112.5,2|0,0:0|0:0,0:0:0:0:
250,343,10160,1,0,0:0:0:0:
362,201,10595,2,0,P|398:221|329:264,1,150,2|0,0:0|0:0,0:0:0:0:
53,130,12334,6,0,P|57:155|56:184,2,37.5,2|0|0,0:0|0:0|0:0,0:0:0:0:
10,67,12986,2,0,P|46:91|125:67,1,112.5
241,105,14073,2,0,P|204:70|109:81,1,150,2|0,0:0|0:0,0:0:0:0:
440,34,15813,6,0,L|428:119,1,82.5000025177003,2|0,0:0|0:0,0:0:0:0:
441,191,16465,2,0,P|414:192|361:138,1,82.5000025177003,2|0,0:0|0:0,0:0:0:0:
306,116,17117,2,0,L|257:126,1,41.2500012588501
198,228,17552,2,0,L|296:247,1,82.5000025177003,2|0,0:0|0:0,0:0:0:0:
48,125,18421,1,2,0:0:0:0:
48,125,18856,2,0,P|43:145|45:173,1,41.2500012588501
103,319,19291,6,0,P|112:277|107:231,1,82.5000025177003,2|0,0:0|0:0,0:0:0:0:
183,194,19943,2,0,P|214:222|257:241,1,82.5000025177003,2|0,0:0|0:0,0:0:0:0:
223,330,20595,2,0,P|196:338|171:357,1,41.2500012588501
321,318,21030,1,2,0:0:0:0:
321,318,21247,1,0,0:0:0:0:
407,326,21465,2,0,P|433:334|458:353,1,41.2500012588501
370,249,21899,2,0,P|388:239|407:233,1,41.2500012588501,2|0,0:0|0:0,0:0:0:0:
476,117,22334,1,0,0:0:0:0:
476,117,22552,1,0,0:0:0:0:
476,117,22769,6,0,L|386:109,1,82.5000025177003,2|0,0:0|0:0,0:0:0:0:
329,151,23421,2,0,P|314:110|332:66,1,82.5000025177003,2|0,0:0|0:0,0:0:0:0:
264,23,24073,2,0,P|235:29|216:30,1,41.2500012588501
100,134,24508,2,0,P|137:137|198:148,1,82.5000025177003,2|0,0:0|0:0,0:0:0:0:
33,310,25378,1,2,0:0:0:0:
33,310,25813,2,0,P|62:305|92:301,1,41.2500012588501
210,228,26247,6,0,P|175:261|185:308,1,82.5000025177003,2|0,0:0|0:0,0:0:0:0:
234,349,26899,2,0,L|320:335,1,82.5000025177003,2|0,0:0|0:0,0:0:0:0:
409,328,27552,2,0,P|396:345|387:368,1,41.2500012588501
355,259,27986,1,2,0:0:0:0:
355,259,28204,1,0,0:0:0:0:
490,296,28421,2,0,P|481:277|469:260,1,41.2500012588501
415,193,28856,1,2,0:0:0:0:
191,53,29291,1,0,0:0:0:0:
191,53,29508,1,0,0:0:0:0:
191,53,29726,6,0,L|176:142,1,82.5000025177003,2|0,0:0|0:0,0:0:0:0:
95,135,30378,2,0,L|80:46,1,82.5000025177003,2|0,0:0|0:0,0:0:0:0:
8,108,31030,2,0,L|-3:161,1,41.2500012588501
51,243,31465,1,2,0:0:0:0:
177,134,31899,1,0,0:0:0:0:
33,257,32334,1,2,0:0:0:0:
209,322,32769,1,0,0:0:0:0:
209,322,32986,1,0,0:0:0:0:
209,322,33204,6,0,B|256:313|237:346|308:333,1,82.5000025177003,2|0,0:0|0:0,0:0:0:0:
361,374,33856,2,0,P|372:332|347:284,1,82.5000025177003,2|0,0:0|0:0,0:0:0:0:
291,250,34508,2,0,P|294:225|297:200,1,41.2500012588501
355,151,34943,1,2,0:0:0:0:
355,151,35160,1,0,0:0:0:0:
422,249,35378,2,0,P|419:224|416:199,1,41.2500012588501
352,66,35813,1,2,0:0:0:0:
190,218,36247,1,2,0:0:0:0:
190,218,36465,1,0,0:0:0:0:
190,218,36682,6,0,P|152:231|100:200,1,82.5000025177003,2|0,0:0|0:0,0:0:0:0:
115,135,37334,2,0,P|153:122|205:153,1,82.5000025177003,2|0,0:0|0:0,0:0:0:0:
41,175,37986,2,0,P|33:151|35:122,1,41.2500012588501
73,64,38421,1,2,0:0:0:0:
4,250,38856,1,0,0:0:0:0:
190,218,39291,2,0,L|292:227,1,82.5000025177003,2|0,0:0|0:0,0:0:0:0:
377,21,40160,6,0,P|339:50|333:99,1,82.5000025177003,2|0,0:0|0:0,0:0:0:0:
396,138,40813,2,0,L|491:138,1,82.5000025177003
455,216,41465,2,0,L|403:215,1,41.2500012588501
272,212,41899,1,6,0:0:0:0:
34,370,43639,6,0,P|59:325|46:263,1,89.9999972534181,2|0,0:0|0:0,0:0:0:0:
118,236,44291,2,0,L|169:247,1,44.999998626709,2|0,0:0|0:0,0:0:0:0:
95,133,44726,2,0,L|-8:156,1,89.9999972534181,2|0,0:0|0:0,0:0:0:0:
223,56,45378,6,0,P|240:70|218:149,1,89.9999972534181,2|0,0:0|0:0,0:0:0:0:
256,214,46030,2,0,L|317:207,1,44.999998626709,2|0,0:0|0:0,0:0:0:0:
387,54,46465,2,0,L|374:155,1,89.9999972534181,2|0,0:0|0:0,0:0:0:0:
490,291,47117,6,0,L|474:191,1,89.9999972534181,2|0,0:0|0:0,0:0:0:0:
429,348,47769,2,0,P|449:366|483:374,1,44.999998626709,2|0,0:0|0:0,0:0:0:0:
334,283,48204,2,0,P|272:299|224:303,1,89.9999972534181,2|0,0:0|0:0,0:0:0:0:
41,217,48856,5,2,0:0:0:0:
155,177,49073,1,0,0:0:0:0:
125,285,49291,1,2,0:0:0:0:
125,285,49726,5,2,0:0:0:0:
52,40,50160,1,2,0:0:0:0:
302,108,50595,6,0,L|379:99,2,44.999998626709,2|0|0,0:0|0:0|0:0,0:0:0:0:
238,161,51247,2,0,L|161:149,1,44.999998626709,2|0,0:0|0:0,0:0:0:0:
309,256,51682,2,0,L|408:243,1,89.9999972534181,2|0,0:0|0:0,0:0:0:0:
169,359,52334,6,0,P|134:316|149:264,1,89.9999972534181,2|0,0:0|0:0,0:0:0:0:
77,225,52986,2,0,P|52:234|17:237,1,44.999998626709,2|0,0:0|0:0,0:0:0:0:
238,161,53421,2,0,P|236:204|205:235,1,89.9999972534181,2|0,0:0|0:0,0:0:0:0:
116,38,54073,6,0,B|163:21|199:57|199:57|236:91|304:56,2,179.999994506836,2|0|0,0:0|0:0|0:0,0:0:0:0:
116,38,56682,1,0,0:0:0:0:
366,24,57552,6,0,P|400:34|429:90,1,82.5000025177003,2|0,0:0|0:0,0:0:0:0:
484,132,58204,2,0,L|467:223,1,82.5000025177003,2|0,0:0|0:0,0:0:0:0:
386,176,58856,2,0,L|378:132,1,41.2500012588501
331,242,59291,1,2,0:0:0:0:
234,91,59726,1,0,0:0:0:0:
353,251,60160,1,2,0:0:0:0:
168,277,60595,1,0,0:0:0:0:
168,277,60813,1,0,0:0:0:0:
168,277,61030,6,0,B|115:275|135:313|57:301,1,82.5000025177003,2|0,0:0|0:0,0:0:0:0:
5,333,61682,2,0,P|-2:292|24:245,1,82.5000025177003,2|0,0:0|0:0,0:0:0:0:
83,170,62334,2,0,P|91:196|84:228,1,41.2500012588501
18,72,62769,2,0,P|36:85|80:84,1,41.2500012588501,2|0,0:0|0:0,0:0:0:0:
143,112,63204,2,0,P|165:110|198:81,1,41.2500012588501
246,28,63639,1,2,0:0:0:0:
230,266,64073,1,0,0:0:0:0:
230,266,64291,1,0,0:0:0:0:
230,266,64508,6,0,P|205:234|216:187,1,82.5000025177003,2|0,0:0|0:0,0:0:0:0:
306,256,65160,2,0,P|311:295|286:327,1,82.5000025177003,2|0,0:0|0:0,0:0:0:0:
284,161,65813,2,0,P|303:174|337:178,1,41.2500012588501
401,152,66247,1,2,0:0:0:0:
246,28,66682,1,0,0:0:0:0:
203,222,67117,1,2,0:0:0:0:
62,85,67552,1,0,0:0:0:0:
62,85,67769,1,0,0:0:0:0:
62,85,67986,6,0,L|71:178,1,82.5000025177003,2|0,0:0|0:0,0:0:0:0:
36,238,68639,2,0,P|76:250|127:218,1,82.5000025177003,2|0,0:0|0:0,0:0:0:0:
209,187,69291,2,0,P|188:179|150:183,1,41.2500012588501
256,260,69726,1,2,0:0:0:0:
256,260,69943,1,0,0:0:0:0:
277,138,70160,2,0,P|298:130|336:134,1,41.2500012588501
389,174,70595,1,2,0:0:0:0:
461,374,71030,1,0,0:0:0:0:
461,374,71247,1,0,0:0:0:0:
461,374,71465,6,0,L|469:276,1,82.5000025177003,2|0,0:0|0:0,0:0:0:0:
383,378,72117,2,0,L|391:280,1,82.5000025177003,2|0,0:0|0:0,0:0:0:0:
332,235,72769,2,0,P|312:250|281:256,1,41.2500012588501
218,227,73204,1,2,0:0:0:0:
448,176,73639,1,0,0:0:0:0:
289,92,74073,2,0,L|283:191,1,82.5000025177003
151,368,74943,6,0,L|145:269,1,82.5000025177003,2|0,0:0|0:0,0:0:0:0:
57,240,75595,2,0,P|93:265|152:254,1,82.5000025177003,2|0,0:0|0:0,0:0:0:0:
223,290,76247,2,0,P|237:265|242:239,1,41.2500012588501,2|0,0:0|0:0,0:0:0:0:
169,138,76682,1,2,0:0:0:0:
353,200,77117,1,0,0:0:0:0:
148,156,77552,1,2,0:0:0:0:
306,24,77986,1,0,0:0:0:0:
306,24,78204,1,0,0:0:0:0:
306,24,78421,6,0,B|350:22|336:48|399:43,1,82.5000025177003,2|0,0:0|0:0,0:0:0:0:
462,99,79073,2,0,P|481:72|474:20,1,82.5000025177003
376,132,79726,2,0,P|372:159|367:179,1,41.2500012588501
457,263,80160,2,0,P|452:242|449:222,1,41.2500012588501,2|0,0:0|0:0,0:0:0:0:
462,99,80595,1,0,0:0:0:0:
297,220,81030,1,0,0:0:0:0:
216,54,81465,1,0,0:0:0:0:
216,54,81682,1,0,0:0:0:0:
216,54,81899,6,0,P|169:61|132:65,1,82.5000025177003,2|0,0:0|0:0,0:0:0:0:
125,150,82552,2,0,P|152:108|150:71,1,82.5000025177003
68,31,83204,2,0,L|28:37,1,41.2500012588501
125,150,83639,2,0,L|219:141,1,82.5000025177003,2|0,0:0|0:0,0:0:0:0:
27,280,84508,1,0,0:0:0:0:
199,374,84943,1,0,0:0:0:0:
199,374,85160,1,0,0:0:0:0:
199,374,85378,6,0,P|185:328|205:276,1,82.5000025177003,2|0,0:0|0:0,0:0:0:0:
268,272,86030,2,0,P|285:296|284:335,1,41.2500012588501
350,363,86465,1,0,0:0:0:0:
350,363,86682,2,0,P|329:378|291:379,1,41.2500012588501
364,245,87117,2,0,L|453:260,1,82.5000025177003
307,90,87986,6,0,L|311:180,1,82.5000025177003,2|0,0:0|0:0,0:0:0:0:
261,238,88639,2,0,P|213:221|192:175,1,82.5000025177003
187,119,89291,1,0,0:0:0:0:
61,322,89726,1,0,0:0:0:0:
61,322,89943,1,0,0:0:0:0:
61,322,90160,2,0,P|91:317|131:313,1,41.2500012588501
242,345,90595,6,0,B|197:346|216:377|155:368,1,82.5000025177003,2|0,0:0|0:0,0:0:0:0:
285,273,91247,2,0,P|305:286|331:290,1,41.2500012588501
390,348,91682,1,0,0:0:0:0:
390,348,91899,2,0,P|412:341|432:323,1,41.2500012588501,2|0,0:0|0:0,0:0:0:0:
469,259,92334,1,0,0:0:0:0:
312,384,92769,1,0,0:0:0:0:
228,200,93204,6,0,L|236:134,1,41.2500012588501,2|0,0:0|0:0,0:0:0:0:
162,110,93638,2,0,L|157:150,1,41.2500012588501,2|0,0:0|0:0,0:0:0:0:
247,216,94073,2,0,L|255:150,1,41.2500012588501,2|0,0:0|0:0,0:0:0:0:
143,94,94507,2,0,L|138:134,1,41.2500012588501,2|0,0:0|0:0,0:0:0:0:
150,304,94942,1,2,0:0:0:0:
327,140,95377,1,0,0:0:0:0:
400,353,95811,2,0,P|346:347|306:343,1,82.5000025177003,2|0,0:0|0:0,0:0:0:0:
317,344,96681,6,0,P|332:298|306:236,1,97.4999955368044,2|0,0:0|0:0,0:0:0:0:
197,247,97332,2,0,P|184:291|198:328,1,48.7499977684022,2|0,0:0|0:0,0:0:0:0:
261,142,97767,2,0,P|285:162|356:162,1,97.4999955368044,2|0,0:0|0:0,0:0:0:0:
421,46,98419,2,0,P|397:26|326:26,1,97.4999955368044,2|0,0:0|0:0,0:0:0:0:
261,142,99071,1,0,0:0:0:0:
183,54,99288,2,0,P|177:27|184:-4,1,48.7499977684022,2|0,0:0|0:0,0:0:0:0:
97,137,99723,2,0,P|64:127|15:125,1,48.7499977684022,2|0,0:0|0:0,0:0:0:0:
170,262,100158,6,0,B|193:270|193:270|214:255|223:229|212:182,1,97.4999955368044,2|0,0:0|0:0,0:0:0:0:
67,219,100809,2,0,P|52:245|56:279,1,48.7499977684022,2|0,0:0|0:0,0:0:0:0:
164,340,101244,1,0,0:0:0:0:
0,335,101461,2,0,P|15:361|11:395,1,48.7499977684022,2|0,0:0|0:0,0:0:0:0:
225,379,101896,2,0,P|210:330|235:267,1,97.4999955368044,2|0,0:0|0:0,0:0:0:0:
372,357,102765,5,2,0:0:0:0:
297,332,102983,1,0,0:0:0:0:
297,254,103200,1,2,0:0:0:0:
372,230,103417,1,0,0:0:0:0:
417,293,103635,6,0,P|451:252|444:179,1,97.4999955368044,2|0,0:0|0:0,0:0:0:0:
386,113,104286,2,0,L|289:134,1,97.4999955368044,2|0,0:0|0:0,0:0:0:0:
194,56,104938,1,0,0:0:0:0:
45,197,105373,2,0,B|99:183|83:233|177:209,1,97.4999955368044,2|0,0:0|0:0,0:0:0:0:
210,137,106025,1,0,0:0:0:0:
270,250,106242,2,0,P|268:274|265:298,1,48.7499977684022,2|0,0:0|0:0,0:0:0:0:
105,297,106677,2,0,P|135:309|165:339,1,48.7499977684022
236,384,107112,6,0,L|314:373,1,48.7499977684022,2|0,0:0|0:0,0:0:0:0:
340,227,107546,2,0,L|262:238,1,48.7499977684022,2|0,0:0|0:0,0:0:0:0:
382,371,107981,2,0,L|388:322,1,48.7499977684022,2|0,0:0|0:0,0:0:0:0:
183,209,108415,2,0,L|189:257,1,48.7499977684022,2|0,0:0|0:0,0:0:0:0:
408,160,108850,2,0,P|430:148|462:222,1,97.4999955368044,2|0,0:0|0:0,0:0:0:0:
333,96,109719,2,0,P|297:89|264:85,1,48.7499977684022,2|0,0:0|0:0,0:0:0:0:
128,24,110154,2,0,P|164:17|197:13,1,48.7499977684022,2|0,0:0|0:0,0:0:0:0:
46,138,110589,6,0,P|86:148|160:169,1,97.4999955368044,2|0,0:0|0:0,0:0:0:0:
179,337,111240,2,0,P|161:304|206:222,1,97.4999955368044,2|0,0:0|0:0,0:0:0:0:
233,177,111892,2,0,L|290:190,1,48.7499977684022,2|0,0:0|0:0,0:0:0:0:
361,345,112327,2,0,L|251:360,1,97.4999955368044,2|0,0:0|0:0,0:0:0:0:
427,203,113196,1,2,0:0:0:0:
506,351,113631,1,2,0:0:0:0:
390,183,114066,6,0,P|384:148|439:69,1,97.4999955368044,2|0,0:0|0:0,0:0:0:0:
490,110,114717,1,0,0:0:0:0:
326,16,114935,2,0,P|301:25|259:24,1,48.7499977684022,2|0,0:0|0:0,0:0:0:0:
269,179,115369,2,0,P|279:149|282:116,1,48.7499977684022
139,28,115804,1,2,0:0:0:0:
251,351,116673,1,2,0:0:0:0:
133,257,117108,1,0,0:0:0:0:
338,284,117543,6,0,P|366:287|390:291,1,41.2500012588501,2|0,0:0|0:0,0:0:0:0:
478,377,117977,2,0,P|466:350|459:327,1,41.2500012588501
362,114,118629,1,0,0:0:0:0:
362,114,119281,2,0,P|356:163|345:210,1,82.5000025177003,2|0,0:0|0:0,0:0:0:0:
228,328,120150,1,0,0:0:0:0:
160,163,120585,1,0,0:0:0:0:
52,339,121020,5,6,0:0:0:0:
70,346,122758,1,2,0:0:0:0:
144,112,124497,6,0,B|97:113|118:147|50:139,1,82.5000025177003
4,186,125148,2,0,P|-4:172|-1:108,1,82.5000025177003
51,25,125800,2,0,L|62:91,1,41.2500012588501
69,141,126235,1,2,0:0:0:0:
187,27,126670,1,0,0:0:0:0:
216,199,127104,1,0,0:0:0:0:
336,74,127539,1,0,0:0:0:0:
336,74,127756,1,0,0:0:0:0:
336,74,127974,6,0,P|368:84|386:137,1,82.5000025177003
391,206,128625,2,0,P|362:205|322:165,1,82.5000025177003
468,174,129277,2,0,P|468:199|469:232,1,41.2500012588501
422,285,129712,1,2,0:0:0:0:
422,285,129929,1,0,0:0:0:0:
485,377,130147,2,0,P|461:364|426:359,1,41.2500012588501
365,342,130581,2,0,P|339:352|313:375,1,41.2500012588501,2|0,0:0|0:0,0:0:0:0:
227,368,131016,1,0,0:0:0:0:
227,368,131233,1,0,0:0:0:0:
227,368,131451,6,0,P|242:312|231:267,1,82.5000025177003,2|0,0:0|0:0,0:0:0:0:
168,238,132102,2,0,L|118:246,1,41.2500012588501
61,268,132537,1,0,0:0:0:0:
61,268,132754,2,0,L|109:273,1,41.2500012588501
99,137,133189,2,0,L|103:188,1,41.2500012588501,2|0,0:0|0:0,0:0:0:0:
155,84,133624,1,0,0:0:0:0:
87,294,134058,1,2,0:0:0:0:
279,246,134493,1,0,0:0:0:0:
279,246,134710,1,0,0:0:0:0:
279,246,134928,6,0,L|380:263,1,82.5000025177003,2|0,0:0|0:0,0:0:0:0:
401,326,135579,2,0,P|380:289|386:241,1,82.5000025177003,2|0,0:0|0:0,0:0:0:0:
447,199,136231,2,0,L|495:207,1,41.2500012588501
330,120,136666,2,0,L|266:127,2,41.2500012588501,2|0|0,0:0|0:0|0:0,0:0:0:0:
396,72,137318,1,0,0:0:0:0:
437,174,137535,1,2,0:0:0:0:
239,57,137970,1,0,0:0:0:0:
239,57,138187,1,0,0:0:0:0:
239,57,138405,6,0,L|149:68,1,82.5000025177003,2|0,0:0|0:0,0:0:0:0:
124,199,139056,2,0,P|100:158|104:120,1,82.5000025177003,2|0,0:0|0:0,0:0:0:0:
185,143,139708,1,0,0:0:0:0:
185,143,139926,1,0,0:0:0:0:
112,221,140143,5,2,0:0:0:0:
383,176,140578,1,2,0:0:0:0:
401,371,141882,6,0,L|415:271,1,82.5000025177003,2|0,0:0|0:0,0:0:0:0:
404,198,142533,2,0,P|381:223|406:270,1,82.5000025177003,2|0,0:0|0:0,0:0:0:0:
462,158,143185,2,0,P|435:167|414:168,1,41.2500012588501
360,120,143620,1,2,0:0:0:0:
360,120,143837,1,0,0:0:0:0:
463,77,144055,2,0,P|436:68|415:67,1,41.2500012588501
278,128,144489,1,2,0:0:0:0:
98,48,144924,1,0,0:0:0:0:
98,48,145141,1,0,0:0:0:0:
98,48,145359,6,0,L|105:140,1,82.5000025177003,2|0,0:0|0:0,0:0:0:0:
52,189,146010,2,0,P|90:212|135:202,1,82.5000025177003,2|0,0:0|0:0,0:0:0:0:
190,154,146662,2,0,L|241:163,1,41.2500012588501
313,174,147097,1,2,0:0:0:0:
145,295,147532,1,0,0:0:0:0:
337,178,147966,1,2,0:0:0:0:
153,70,148401,1,0,0:0:0:0:
153,70,148618,1,0,0:0:0:0:
153,70,148836,6,0,B|139:113|174:108|156:169,1,82.5000025177003,2|0,0:0|0:0,0:0:0:0:
106,213,149487,2,0,P|115:195|181:176,1,82.5000025177003,2|0,0:0|0:0,0:0:0:0:
116,239,150139,2,0,P|92:232|62:229,1,41.2500012588501
162,308,150574,1,2,0:0:0:0:
162,308,150791,1,0,0:0:0:0:
188,196,151009,2,0,P|212:189|242:186,1,41.2500012588501
271,324,151443,2,0,L|286:230,1,82.5000025177003,2|0,0:0|0:0,0:0:0:0:
451,81,152313,6,0,P|407:111|370:98,1,82.5000025177003,2|0,0:0|0:0,0:0:0:0:
305,111,152964,2,0,L|313:23,1,82.5000025177003,2|0,0:0|0:0,0:0:0:0:
312,28,153616,1,2,0:0:0:0:
129,158,154486,2,0,L|39:148,2,82.5000025177003,0|2|0,0:0|0:0|0:0,0:0:0:0:
187,220,155790,6,0,P|171:251|92:253,1,82.5000025177003,2|0,0:0|0:0,0:0:0:0:
40,245,156441,2,0,L|66:338,1,82.5000025177003,2|0,0:0|0:0,0:0:0:0:
146,356,157093,2,0,B|185:373|219:342|219:342|250:376|312:356,1,165.000005035401,2|0,0:0|0:0,0:0:0:0:
368,246,158397,1,2,0:0:0:0:
461,366,158832,1,0,0:0:0:0:
347,230,159267,6,0,P|387:245|441:227,1,82.5000025177003,2|0,0:0|0:0,0:0:0:0:
411,127,159918,2,0,P|399:149|390:180,1,41.2500012588501,2|0,0:0|0:0,0:0:0:0:
476,78,160353,1,0,0:0:0:0:
476,78,160570,2,0,P|426:102|338:37,1,165.000005035401,2|0,0:0|0:0,0:0:0:0:
198,18,161874,1,2,0:0:0:0:
252,136,162309,2,0,P|256:106|259:79,1,41.2500012588501
139,134,162744,6,0,P|142:156|147:192,2,41.2500012588501,2|0|0,0:0|0:0|0:0,0:0:0:0:
79,71,163395,1,0,0:0:0:0:
18,250,164047,1,0,0:0:0:0:
81,303,164482,2,0,B|117:323|154:296|154:296|194:268|258:304,1,165.000005035401,2|0,0:0|0:0,0:0:0:0:
483,371,166221,6,0,P|471:326|491:268,1,89.9999972534181,2|0,0:0|0:0,0:0:0:0:
482,180,166872,2,0,P|470:225|490:283,1,89.9999972534181,2|0,0:0|0:0,0:0:0:0:
401,278,167524,2,0,L|350:272,1,44.999998626709
276,237,167959,1,2,0:0:0:0:
386,382,168394,1,0,0:0:0:0:
351,186,168828,1,2,0:0:0:0:
221,338,169263,1,0,0:0:0:0:
221,338,169480,1,0,0:0:0:0:
221,338,169698,6,0,B|165:336|188:367|114:366,1,89.9999972534181,2|0,0:0|0:0,0:0:0:0:
90,203,170349,2,0,P|122:243|112:285,1,89.9999972534181,2|0,0:0|0:0,0:0:0:0:
41,328,171001,2,0,L|-7:324,1,44.999998626709
116,278,171436,1,2,0:0:0:0:
0,102,171871,2,0,L|120:117,1,89.9999972534181,0|2,0:0|0:0,0:0:0:0:
289,38,172740,1,0,0:0:0:0:
289,38,172957,1,0,0:0:0:0:
289,38,173175,6,0,P|265:62|289:128,1,89.9999972534181,2|0,0:0|0:0,0:0:0:0:
334,184,173826,2,0,L|235:201,1,89.9999972534181,2|0,0:0|0:0,0:0:0:0:
207,273,174478,1,0,0:0:0:0:
120,134,174696,1,0,0:0:0:0:
120,134,174913,2,0,L|141:256,1,89.9999972534181,2|0,0:0|0:0,0:0:0:0:
119,371,175782,1,2,0:0:0:0:
397,227,176652,6,0,B|342:222|366:261|288:256,1,89.9999972534181,2|0,0:0|0:0,0:0:0:0:
190,186,177303,2,0,P|219:201|234:237,1,44.999998626709,2|0,0:0|0:0,0:0:0:0:
178,282,177738,1,0,0:0:0:0:
226,358,177955,2,0,P|241:341|262:333,1,44.999998626709,2|0,0:0|0:0,0:0:0:0:
399,307,178390,1,2,0:0:0:0:
472,38,180129,6,0,P|441:72|370:71,1,82.5000025177003,2|0,0:0|0:0,0:0:0:0:
242,20,180780,2,0,B|286:0|320:9|347:28|347:28|318:52,1,137.500004196167
354,147,181867,2,0,P|348:187|356:234,1,82.5000025177003,2|0,0:0|0:0,0:0:0:0:
469,227,182736,2,0,P|475:186|469:145,1,82.5000025177003
410,305,183606,6,0,P|384:301|325:336,1,82.5000025177003,2|0,0:0|0:0,0:0:0:0:
148,337,184257,2,0,B|225:328|179:380|284:369,1,123.75000377655
269,199,185344,2,0,P|263:241|256:281,1,82.5000025177003,2|0,0:0|0:0,0:0:0:0:
46,124,186213,2,0,P|74:132|94:136,1,41.2500012588501,2|0,0:0|0:0,0:0:0:0:
146,186,186648,2,0,P|166:181|185:175,1,41.2500012588501
218,16,187083,6,0,P|200:52|175:89,1,82.5000025177003,2|0,0:0|0:0,0:0:0:0:
176,87,187734,1,0,0:0:0:0:
303,144,188386,1,0,0:0:0:0:
357,57,188821,2,0,P|393:46|456:70,1,82.5000025177003,2|0,0:0|0:0,0:0:0:0:
436,55,189473,1,0,0:0:0:0:
277,163,190125,1,0,0:0:0:0:
454,301,190560,6,0,B|484:291|484:291|500:273|504:240|486:206,1,82.5000025177003,2|0,0:0|0:0,0:0:0:0:
372,316,191429,2,0,P|340:351|342:388,1,82.5000025177003
389,227,192298,2,0,B|347:212|311:244|311:244|275:281|225:249,1,165.000005035401,2|0,0:0|0:0,0:0:0:0:
150,312,193602,1,0,0:0:0:0:
40,369,194037,6,0,P|61:323|43:281,1,82.5000025177003,2|0,0:0|0:0,0:0:0:0:
7,215,194688,2,0,L|136:227,1,123.75000377655
226,68,195775,2,0,B|120:58,1,82.5000025177003,2|0,0:0|0:0,0:0:0:0:
143,60,196427,1,0,0:0:0:0:
323,14,197514,6,0,P|309:59|299:123,1,82.5000025177003,2|0,0:0|0:0,0:0:0:0:
349,150,198165,2,0,B|413:134|386:180|461:157,1,110.000003356934
463,89,199252,6,0,P|392:120|392:200,2,165.000005035401,2|0|2,0:0|0:0|0:0,0:0:0:0:
468,94,202729,1,0,0:0:0:0:
471,94,204468,5,2,0:0:0:0:
45,86,207075,6,0,P|68:100|94:105,1,41.2500012588501
95,184,207510,2,0,P|120:175|141:158,1,41.2500012588501
214,68,207945,6,0,B|278:66|240:109|340:96,1,104.999996795654,6|0,0:0|0:0,0:0:0:0:
417,9,208596,2,0,P|385:47|385:83,1,52.4999983978272,2|0,0:0|0:0,0:0:0:0:
337,184,209031,2,0,L|362:312,1,104.999996795654,2|0,0:0|0:0,0:0:0:0:
477,384,209683,6,0,L|497:280,1,104.999996795654,2|0,0:0|0:0,0:0:0:0:
449,209,210335,1,2,0:0:0:0:
357,287,210552,2,0,L|344:226,1,52.4999983978272,2|0,0:0|0:0,0:0:0:0:
363,365,210987,2,0,L|376:304,1,52.4999983978272,2|0,0:0|0:0,0:0:0:0:
257,219,211422,6,0,B|192:218|230:273|115:263,1,104.999996795654,6|0,0:0|0:0,0:0:0:0:
160,87,212073,2,0,P|157:121|149:150,1,52.4999983978272,2|0,0:0|0:0,0:0:0:0:
43,213,212508,1,2,0:0:0:0:
90,366,212725,2,0,P|84:340|82:314,1,52.4999983978272,2|0,0:0|0:0,0:0:0:0:
262,308,213160,2,0,P|291:298|388:289,1,104.999996795654,2|0,0:0|0:0,0:0:0:0:
462,126,214029,5,2,0:0:0:0:
426,34,214247,1,0,0:0:0:0:
326,41,214464,1,2,0:0:0:0:
301,137,214681,1,0,0:0:0:0:
386,189,214899,6,0,P|394:216|328:247,1,104.999996795654,6|0,0:0|0:0,0:0:0:0:
234,329,215550,2,0,B|166:315|199:372|103:349,1,104.999996795654,2|0,0:0|0:0,0:0:0:0:
10,199,216202,2,0,P|39:215|77:219,1,52.4999983978272,2|0,0:0|0:0,0:0:0:0:
226,115,216637,6,0,P|192:150|191:209,1,104.999996795654,2|0,0:0|0:0,0:0:0:0:
234,329,217289,2,0,B|262:336|281:312|281:312|306:340|367:322,1,104.999996795654,2|0,0:0|0:0,0:0:0:0:
430,262,217941,1,0,0:0:0:0:
98,305,218376,6,0,P|101:337|101:379,1,52.4999983978272,6|0,0:0|0:0,0:0:0:0:
215,183,218810,2,0,P|238:205|264:237,1,52.4999983978272,2|0,0:0|0:0,0:0:0:0:
128,320,219245,2,0,P|120:351|105:390,1,52.4999983978272,6|0,0:0|0:0,0:0:0:0:
255,175,219679,2,0,P|269:204|283:243,1,52.4999983978272,2|0,0:0|0:0,0:0:0:0:
48,268,220114,5,6,0:0:0:0:
59,144,220331,1,2,0:0:0:0:
165,208,220549,1,2,0:0:0:0:
165,208,220983,2,0,P|190:216|236:220,1,52.4999983978272,2|0,0:0|0:0,0:0:0:0:
241,70,221418,2,0,P|216:62|170:58,1,52.4999983978272,2|0,0:0|0:0,0:0:0:0:
290,274,221853,6,0,B|353:261|331:307|411:287,1,104.999996795654,6|0,0:0|0:0,0:0:0:0:
433,131,222504,2,0,P|441:158|358:190,1,104.999996795654,2|0,0:0|0:0,0:0:0:0:
342,98,223156,2,0,P|350:68|355:29,1,52.4999983978272,2|0,0:0|0:0,0:0:0:0:
206,187,223591,2,0,B|143:190|171:228|88:233,1,104.999996795654,2|0,0:0|0:0,0:0:0:0:
362,367,224460,2,0,P|367:334|371:303,1,52.4999983978272,2|0,0:0|0:0,0:0:0:0:
247,333,224895,2,0,P|250:359|254:384,1,52.4999983978272,2|0,0:0|0:0,0:0:0:0:
438,240,225330,6,0,P|394:288|320:272,1,104.999996795654,6|0,0:0|0:0,0:0:0:0:
335,191,225981,2,0,P|345:166|349:135,1,52.4999983978272,2|0,0:0|0:0,0:0:0:0:
219,255,226416,1,2,0:0:0:0:
145,157,226633,2,0,P|135:132|131:101,1,52.4999983978272,2|0,0:0|0:0,0:0:0:0:
80,321,227068,6,0,B|175:307|120:371|250:345,1,157.499995193482,2|0,0:0|0:0,0:0:0:0:
392,288,227937,2,0,B|357:271|321:275|289:296|289:296|321:320|311:368,1,157.499995193482,2|0,0:0|0:0,0:0:0:0:
202,268,228807,5,2,0:0:0:0:
265,201,229024,1,0,0:0:0:0:
171,181,229241,1,2,0:0:0:0:
202,268,229458,1,2,0:0:0:0:
48,192,229893,2,0,P|42:160|42:132,1,52.4999983978272,2|2,0:0|0:0,0:0:0:0:
173,39,230545,6,0,B|237:27|203:77|305:62,1,104.999996795654,2|0,0:0|0:0,0:0:0:0:
450,27,231414,1,2,0:0:0:0:
303,155,231849,2,0,P|339:132|357:100,1,52.4999983978272,2|0,0:0|0:0,0:0:0:0:
410,281,232284,6,0,B|405:235|489:274|499:199|504:172|478:157|454:139|424:158|424:158|400:112|349:118|315:171|327:214|397:233|363:271,1,419.999987182618,6|2,0:0|0:0,0:0:0:0:
67,287,235761,6,0,P|62:255|60:215,2,41.2500012588501,2|0|0,0:0|0:0|0:0,0:0:0:0:
35,358,236412,2,0,P|70:368|128:333,1,82.5000025177003,2|0,0:0|0:0,0:0:0:0:
158,290,237064,1,0,0:0:0:0:
286,383,237499,2,0,P|276:335|276:274,1,82.5000025177003,2|0,0:0|0:0,0:0:0:0:
240,200,238151,2,0,P|267:220|298:223,1,41.2500012588501
376,243,238586,1,0,0:0:0:0:
376,243,238803,1,0,0:0:0:0:
246,62,239238,6,0,B|207:69|213:88|151:94,1,82.5000025177003,2|0,0:0|0:0,0:0:0:0:
62,118,239889,2,0,P|55:90|87:28,1,82.5000025177003,2|0,0:0|0:0,0:0:0:0:
155,4,240541,1,0,0:0:0:0:
54,245,240976,1,2,0:0:0:0:
216,181,241411,1,0,0:0:0:0:
32,227,241845,1,2,0:0:0:0:
180,349,242280,1,0,0:0:0:0:
362,288,242715,6,0,L|376:222,2,41.2500012588501,2|0|0,0:0|0:0|0:0,0:0:0:0:
458,364,243366,2,0,L|448:276,1,82.5000025177003,2|0,0:0|0:0,0:0:0:0:
434,171,244018,1,0,0:0:0:0:
257,270,244453,2,0,P|217:268|196:212,1,82.5000025177003,2|0,0:0|0:0,0:0:0:0:
301,340,245322,2,0,P|341:342|362:398,1,82.5000025177003,2|0,0:0|0:0,0:0:0:0:
64,321,246192,6,0,B|82:289|60:261|60:261|82:239|75:178,1,123.75000377655,2|0,0:0|0:0,0:0:0:0:
42,119,247278,1,0,0:0:0:0:
216,191,247930,1,2,0:0:0:0:
149,22,248799,1,0,0:0:0:0:
319,89,249669,6,0,P|321:66|323:40,1,37.5,2|0,0:0|0:0,0:0:0:0:
402,29,250103,1,0,0:0:0:0:
402,29,250320,2,0,P|426:69|474:76,1,75,2|0,0:0|0:0,0:0:0:0:
490,147,250972,1,0,0:0:0:0:
358,197,251407,2,0,L|362:147,2,37.5,2|0|0,0:0|0:0|0:0,0:0:0:0:
395,266,252059,1,2,0:0:0:0:
288,361,252494,1,2,0:0:0:0:
288,361,252711,1,0,0:0:0:0:
170,262,253146,6,0,P|142:258|118:260,1,37.5,2|0,0:0|0:0,0:0:0:0:
65,286,253580,1,0,0:0:0:0:
65,286,253797,2,0,P|82:242|66:199,1,75,2|0,0:0|0:0,0:0:0:0:
16,167,254449,1,0,0:0:0:0:
159,115,254884,2,0,L|206:123,2,37.5,2|0|0,0:0|0:0|0:0,0:0:0:0:
15,47,255753,2,0,L|95:33,1,75,2|0,0:0|0:0,0:0:0:0:
265,77,256623,6,0,L|275:22,2,37.5,2|0|0,0:0|0:0|0:0,0:0:0:0:
263,165,257274,2,0,L|347:148,1,75,2|0,0:0|0:0,0:0:0:0:
419,127,257926,1,0,0:0:0:0:
392,299,258361,2,0,P|366:275|364:229,1,75,2|0,0:0|0:0,0:0:0:0:
445,210,259013,1,2,0:0:0:0:
333,364,259448,1,2,0:0:0:0:
333,364,259665,1,0,0:0:0:0:
218,206,260100,6,0,P|176:201|120:206,1,89.9999972534181,2|0,0:0|0:0,0:0:0:0:
129,297,261838,2,0,P|171:302|227:297,1,89.9999972534181,2|0,0:0|0:0,0:0:0:0:
294,253,263577,5,6,0:0:0:0:
256,192,263794,12,0,270531,0:0:0:0:
