osu file format v14

[General]
AudioFilename: Akiakane-Melancholic Degree www.mp3facebook.com .mp3
AudioLeadIn: 2000
PreviewTime: 74368
Countdown: 0
SampleSet: None
StackLeniency: 0.4
Mode: 0
LetterboxInBreaks: 0
WidescreenStoryboard: 0

[Editor]
DistanceSpacing: 0.7
BeatDivisor: 4
GridSize: 4
TimelineZoom: 1.1

[Metadata]
Title:Melancholic Degree
TitleUnicode:Melancholic Degree
Artist:Akiakane
ArtistUnicode:秋赤音
Creator:UndeadCapulet
Version:The Power of Two
Source:
Tags:SQUARE koyoriP 電ポルP yugijedi jonawaga jbhyperion orza6006
BeatmapID:695635
BeatmapSetID:311447

[Difficulty]
HPDrainRate:6
CircleSize:4
OverallDifficulty:7
ApproachRate:9
SliderMultiplier:1.6
SliderTickRate:1

[Events]
//Background and Video events
0,0,"Vocaloid.full.1745722 Cropped.jpg",0,0
//Break Periods
2,107675,111161
2,132333,142018
2,182247,183440
//Storyboard Layer 0 (Background)
//Storyboard Layer 1 (Fail)
//Storyboard Layer 2 (Pass)
//Storyboard Layer 3 (Foreground)
//Storyboard Sound Samples

[TimingPoints]
333,428.571428571429,4,3,1,50,1,0
333,-200,4,3,1,50,0,0
5261,-200,4,3,1,35,0,0
6333,-133.333333333333,4,3,1,50,0,0
6547,-100,4,3,1,50,0,0
6761,-66.6666666666667,4,3,1,60,0,0
12761,-61.3496932515337,4,3,1,60,0,0
13190,-53.475935828877,4,3,1,60,0,0
13618,-50,4,3,1,60,0,0
14047,-66.6666666666667,4,3,1,60,0,0
19404,-66.6666666666667,4,3,1,55,0,0
19833,-66.6666666666667,4,3,1,45,0,0
20261,-66.6666666666667,4,3,1,35,0,0
20904,-80,4,2,1,40,0,0
34618,-66.6666666666667,4,3,1,60,0,0
39333,-66.6666666666667,4,3,1,65,0,0
39761,-66.6666666666667,4,3,1,55,0,0
40190,-71.4285714285714,4,2,1,45,0,0
40618,-76.9230769230769,4,2,1,35,0,0
41047,-83.3333333333333,4,2,1,25,0,0
41475,-100,4,2,1,25,0,0
42975,-100,4,2,1,50,0,0
43190,-80,4,2,1,40,0,0
56904,-66.6666666666667,4,2,1,60,0,0
67190,-57.1428571428571,4,2,1,50,0,0
74047,-50,4,2,1,50,0,0
75761,-50,4,3,1,50,0,1
82190,-66.6666666666667,4,3,1,50,0,1
82618,-50,4,3,1,50,0,1
95904,-66.6666666666667,4,3,1,50,0,1
96333,-50,4,3,1,50,0,1
103190,-100,4,3,1,50,0,0
111761,-133.333333333333,4,3,1,50,0,0
125475,-100,4,3,1,50,0,0
145618,-50,4,3,1,50,0,0
147761,-50,4,3,1,50,0,1
154190,-66.6666666666667,4,3,1,50,0,1
154618,-50,4,3,1,50,0,1
161475,-45,4,3,1,50,0,1
167904,-57.1428571428571,4,3,1,50,0,1
168333,-45,4,3,1,50,0,1
175190,-100,4,3,1,50,0,0
176904,-66.6666666666667,4,3,1,50,0,1
178618,-66.6666666666667,4,3,1,50,0,0
184618,428.571428571429,4,3,1,50,1,0
184618,-66.6666666666667,4,3,1,50,0,0
190189,-61.3496932515337,4,3,1,50,0,0
190618,-53.475935828877,4,3,1,50,0,0
191046,-50,4,3,1,50,0,0
191475,-57.1428571428571,4,3,1,50,0,0
198332,-50,4,3,1,50,0,0
205189,-45,4,3,1,50,0,0

[Colours]
Combo1 : 78,243,177
Combo2 : 255,149,244

[HitObjects]
152,216,333,6,0,L|192:208,1,40,10|0,3:0|2:0,0:0:0:0:
320,240,761,2,0,L|264:228,1,40,10|0,0:0|2:0,0:0:0:0:
144,224,1190,2,0,L|184:216,1,40,10|0,0:0|2:0,0:0:0:0:
348,216,1618,1,10,0:0:0:0:
348,216,1833,5,2,0:0:0:0:
384,200,1940,1,2,0:0:0:0:
408,172,2047,2,0,L|412:124,1,40,10|0,0:0|2:0,0:0:0:0:
208,204,2475,2,0,L|204:248,1,40,10|0,0:0|2:0,0:0:0:0:
396,160,2904,2,0,L|400:112,1,40,10|0,0:0|2:0,0:0:0:0:
224,244,3333,1,10,0:0:0:0:
224,244,3547,5,2,0:0:0:0:
252,216,3654,1,2,0:0:0:0:
260,180,3761,2,0,L|212:168,1,40,10|0,0:0|2:0,0:0:0:0:
92,112,4190,2,0,L|144:100,1,40,10|0,0:0|2:0,0:0:0:0:
272,168,4618,2,0,L|224:156,1,40,10|0,0:0|2:0,0:0:0:0:
80,120,5047,1,10,0:0:0:0:
196,64,5261,6,0,L|180:64,1,13.3333333333333,2|0,0:2|0:0,0:0:0:0:
200,72,5404,6,0,P|200:104|236:112,1,73.3333333333333,0|0,0:2|0:2,0:2:0:0:
256,92,5904,5,2,0:2:0:0:
284,96,6118,5,2,0:2:0:0:
312,100,6333,6,0,L|368:88,1,30.0000011444092,8|0,0:1|0:0,0:0:0:0:
432,176,6547,2,0,L|368:188,1,40,8|0,0:1|0:0,0:0:0:0:
292,240,6761,6,2,P|352:240|288:160,1,180.000006866455,10|0,0:3|0:1,0:1:0:0:
240,136,7190,6,0,L|404:112,1,120.000004577637,4|0,0:1|0:0,0:0:0:0:
108,40,7618,1,8,0:0:0:0:
40,256,7833,1,2,0:2:0:0:
388,260,8047,2,0,L|264:244,1,120.000004577637
92,280,8475,5,8,0:1:0:0:
336,176,8690,1,8,0:1:0:0:
152,112,8904,2,0,L|152:240,1,120.000004577637,4|0,0:0|0:0,0:0:0:0:
340,276,9333,1,8,0:0:0:0:
256,192,9547,1,2,0:2:0:0:
84,315,9761,2,0,L|204:304,1,120.000004577637
380,208,10190,5,8,0:1:0:0:
132,136,10404,1,8,0:1:0:0:
488,184,10618,2,0,L|492:48,1,120.000004577637,4|0,0:0|0:0,0:0:0:0:
320,152,11047,1,8,0:0:0:0:
192,104,11261,1,2,0:2:0:0:
96,260,11475,2,0,L|236:280,1,120.000004577637
368,88,11904,5,8,0:1:0:0:
340,292,12118,1,8,0:1:0:0:
424,280,12333,6,2,L|432:160,1,120.000004577637,4|0,0:0|0:1,0:1:0:0:
344,232,12761,6,2,L|344:92,1,130.399999900513,4|0,0:0|0:1,0:1:0:0:
260,184,13190,6,2,L|240:32,1,149.599997032471,4|0,0:0|0:1,0:1:0:0:
168,188,13618,6,2,L|104:32,1,160,4|0,0:0|0:1,0:1:0:0:
64,184,14047,6,0,L|64:304,1,120.000004577637,4|0,0:1|0:0,0:0:0:0:
260,312,14475,1,8,0:0:0:0:
144,292,14690,1,2,0:2:0:0:
276,276,14904,2,0,L|404:256,1,120.000004577637
360,128,15333,5,8,0:1:0:0:
84,240,15547,1,8,0:1:0:0:
220,204,15761,2,0,L|208:60,1,120.000004577637,4|0,0:0|0:0,0:0:0:0:
460,172,16190,1,8,0:0:0:0:
384,256,16404,1,2,0:2:0:0:
300,304,16618,2,0,L|460:288,1,120.000004577637
76,228,17047,5,8,0:1:0:0:
364,340,17261,1,8,0:1:0:0:
343,131,17475,2,0,L|356:12,1,120.000004577637,4|0,0:0|0:0,0:0:0:0:
168,60,17904,1,8,0:0:0:0:
196,160,18118,1,2,0:2:0:0:
416,168,18333,2,0,L|428:44,1,120.000004577637
380,128,18761,5,8,0:1:0:0:
372,264,18975,1,8,0:1:0:0:
276,176,19190,5,10,0:0:0:0:
196,152,19404,6,0,L|140:180,1,60.0000022888184
176,184,19618,1,2,0:0:0:0:
352,196,19833,6,0,L|296:224,1,60.0000022888184
332,228,20047,1,2,0:0:0:0:
284,308,20261,6,0,L|228:336,1,60.0000022888184
240,112,20475,1,10,0:0:0:0:
264,340,20690,1,2,0:0:0:0:
380,256,20904,6,0,P|396:176|376:92,1,150,4|0,0:0|0:0,0:0:0:0:
436,116,21333,2,0,P|400:192|356:212,1,100,2|0,0:0|0:0,0:0:0:0:
240,180,21761,2,0,P|152:176|92:232,1,150,2|0,0:0|0:0,0:0:0:0:
116,176,22190,2,0,P|124:148|108:88,1,50,2|0,0:0|0:0,0:0:0:0:
284,356,22618,6,0,B|392:344|392:344|328:320,1,150,2|0,0:1|0:0,0:0:0:0:
396,360,23047,2,0,L|500:372,1,100,2|0,0:0|0:0,0:0:0:0:
248,212,23475,2,0,P|192:240|104:208,1,150,2|0,0:0|0:0,0:0:0:0:
88,256,23904,1,2,0:0:0:0:
412,160,24118,1,2,0:0:0:0:
240,104,24333,6,0,P|156:88|88:128,1,150,2|0,0:1|0:0,0:0:0:0:
168,120,24761,2,0,P|224:144|284:140,1,100,2|0,0:0|0:0,0:0:0:0:
336,352,25190,2,0,L|344:196,1,150,2|0,0:0|0:0,0:0:0:0:
360,172,25618,2,0,L|380:244,1,50,2|0,0:0|0:0,0:0:0:0:
156,280,26047,6,0,P|216:244|156:176,1,150,2|0,0:1|0:0,0:0:0:0:
236,256,26475,2,0,L|240:368,1,100,2|0,0:0|0:0,0:0:0:0:
256,160,26904,2,0,B|264:40|264:40|276:4,1,150,2|0,0:0|0:0,0:0:0:0:
352,92,27333,1,2,0:0:0:0:
112,176,27547,1,2,0:0:0:0:
364,184,27761,6,0,L|528:204,1,150,4|0,0:0|0:0,0:0:0:0:
440,164,28190,2,0,P|380:184|320:180,1,100,2|0,0:0|0:0,0:0:0:0:
192,216,28618,2,0,B|104:212|72:248|72:248|96:272|136:264,1,150,2|0,0:0|0:0,0:0:0:0:
196,260,29047,2,0,L|280:264,1,50,2|0,0:0|0:0,0:0:0:0:
376,248,29475,6,0,B|392:200|380:152|340:104,1,150,2|0,0:1|0:0,0:0:0:0:
384,76,29904,2,0,L|376:192,1,100,2|0,0:0|0:0,0:0:0:0:
204,228,30333,2,0,B|124:204|124:204|208:180,1,150,2|0,0:0|0:0,0:0:0:0:
284,188,30761,1,2,0:0:0:0:
16,216,30975,1,2,0:0:0:0:
352,232,31190,6,0,B|416:232|416:232|500:264,1,150,2|0,0:1|0:0,0:0:0:0:
452,216,31618,2,0,L|464:92,1,100,2|0,0:0|0:0,0:0:0:0:
304,164,32047,2,0,P|220:184|124:176,1,150,2|0,0:0|0:0,0:0:0:0:
104,200,32475,2,0,L|200:212,1,50,2|0,0:0|0:0,0:0:0:0:
292,244,32690,2,0,L|364:228,1,50,2|0,0:0|0:0,0:0:0:0:
408,200,32904,2,0,L|312:212,1,50,2|0,0:0|0:0,0:0:0:0:
220,244,33119,2,0,L|148:228,1,50,2|0,0:0|0:0,0:0:0:0:
76,104,33333,6,0,L|64:4,2,100,8|0|0,0:3|0:0|0:0,0:0:0:0:
76,264,33975,2,2,L|64:336,1,50,10|2,3:3|3:3,3:3:0:0:
192,184,34190,1,2,3:3:0:0:
220,156,34297,1,2,3:3:0:0:
260,148,34404,1,2,3:3:0:0:
300,152,34511,1,2,3:3:0:0:
376,168,34618,6,0,P|304:124|236:108,1,120.000004577637,4|0,0:1|0:0,0:0:0:0:
52,280,35047,2,0,P|112:328|200:336,1,120.000004577637
448,144,35475,1,0,0:0:0:0:
40,208,35690,1,0,0:0:0:0:
336,200,35904,6,0,L|484:228,1,120.000004577637,8|8,0:1|0:1,0:1:0:0:
156,264,36333,2,0,P|132:188|136:108,1,120.000004577637,4|0,0:0|0:0,0:0:0:0:
400,16,36761,2,0,P|424:96|424:168,1,120.000004577637,8|0,0:0|0:0,0:0:0:0:
8,180,37190,1,2,0:2:0:0:
448,180,37404,1,0,0:0:0:0:
445,216,37511,1,0,0:0:0:0:
439,252,37618,6,0,B|427:306|427:306|393:367,1,120.000004577637,8|8,0:1|0:1,0:0:0:0:
104,128,38047,2,0,P|156:76|240:56,1,120.000004577637,4|0,0:0|0:0,0:0:0:0:
388,332,38475,2,0,P|476:356|552:344,1,120.000004577637,8|0,0:0|0:0,0:0:0:0:
428,104,38904,1,2,0:2:0:0:
248,340,39118,5,8,0:0:0:0:
52,64,39333,1,8,0:1:0:0:
36,244,39547,1,8,0:1:0:0:
256,192,39761,6,2,L|396:192,1,120.000004577637,2|8,0:0|0:2,0:0:0:0:
212,204,40190,6,2,L|344:180,1,111.999996582031,2|8,0:1|0:1,0:1:0:0:
168,180,40618,6,2,L|292:192,1,103.999995239258,2|8,0:1|0:1,0:1:0:0:
104,216,41047,6,2,L|200:212,1,95.9999970703126,2|8,0:1|0:1,0:1:0:0:
361,265,41475,6,0,L|440:252,2,80
316,36,42118,1,2,0:0:0:0:
271,246,42333,2,0,L|192:240,2,80
356,192,42975,5,8,0:3:0:0:
444,208,43083,1,8,0:3:0:0:
368,228,43190,6,0,P|284:252|212:252,1,150,4|0,0:0|0:0,0:0:0:0:
288,292,43618,2,0,P|348:296|392:312,1,100,2|0,0:0|0:0,0:0:0:0:
72,144,44047,2,0,P|152:152|256:188,1,150,2|0,0:0|0:0,0:0:0:0:
312,112,44475,2,0,P|336:128|360:152,1,50,2|0,0:0|0:0,0:0:0:0:
332,248,44690,2,0,P|308:272|276:284,1,50,2|0,0:0|0:0,0:0:0:0:
212,192,44904,6,0,P|216:128|328:96,1,150,2|0,0:1|0:0,0:0:0:0:
344,64,45333,2,0,L|208:56,1,100,2|0,0:0|0:0,0:0:0:0:
80,180,45761,2,0,P|116:240|124:336,1,150,2|0,0:0|0:0,0:0:0:0:
388,352,46190,1,2,0:0:0:0:
408,56,46404,1,2,0:0:0:0:
236,248,46618,6,0,P|168:228|224:176,1,150,2|0,0:1|0:0,0:0:0:0:
156,160,47047,2,0,P|92:148|44:156,1,100,2|0,0:0|0:0,0:0:0:0:
320,224,47475,2,0,P|396:236|496:216,1,150,2|0,0:0|0:0,0:0:0:0:
384,164,47904,2,0,L|396:220,1,50,2|0,0:0|0:0,0:0:0:0:
472,336,48118,2,0,L|460:392,1,50,2|0,0:0|0:0,0:0:0:0:
200,252,48333,6,0,P|132:268|16:252,1,150,2|0,0:1|0:0,0:0:0:0:
140,304,48761,2,0,P|204:316|252:336,1,100,2|0,0:0|0:0,0:0:0:0:
316,68,49190,2,0,B|332:148|332:148|400:236,1,150,2|0,0:0|0:0,0:0:0:0:
304,372,49618,1,2,0:0:0:0:
20,236,49833,1,2,0:0:0:0:
256,144,50047,6,0,L|440:164,1,150,4|0,0:0|0:0,0:0:0:0:
336,184,50475,2,0,L|228:200,1,100,2|0,0:0|0:0,0:0:0:0:
16,368,50904,2,0,B|112:376|112:376|184:360,1,150,2|0,0:0|0:0,0:0:0:0:
264,352,51333,2,0,P|312:356|348:368,1,50,8|0,0:3|0:0,0:0:0:0:
439,253,51547,2,0,P|457:236|472:216,1,50,4|0,0:3|0:0,0:0:0:0:
272,28,51761,6,0,P|196:12|120:68,1,150,2|0,0:1|0:0,0:0:0:0:
92,36,52190,2,0,P|108:88|104:144,1,100,2|0,0:0|0:0,0:0:0:0:
256,304,52618,2,0,P|248:204|260:120,1,150,2|0,0:0|0:0,0:0:0:0:
288,76,53047,5,8,0:3:0:0:
288,76,53154,1,8,0:3:0:0:
320,156,53261,6,0,L|369:146,1,50,2|0,0:3|0:0,0:0:0:0:
228,168,53475,6,0,P|140:164|44:196,1,150,2|0,0:1|0:0,0:0:0:0:
32,108,53904,2,0,P|100:120|148:120,1,100,2|0,0:0|0:0,0:0:0:0:
432,272,54333,2,0,P|352:264|256:288,1,150,2|0,0:0|0:0,0:0:0:0:
372,352,54761,1,8,0:3:0:0:
328,28,54975,1,4,0:3:0:0:
260,304,55190,5,4,0:0:0:0:
188,120,55404,1,0,0:0:0:0:
448,160,55618,1,8,0:3:0:0:
40,244,55833,1,0,0:0:0:0:
288,224,56047,5,8,3:0:0:0:
316,228,56154,1,2,3:0:0:0:
344,240,56261,1,2,3:0:0:0:
120,124,56475,1,2,3:0:0:0:
148,152,56583,1,2,3:0:0:0:
132,188,56690,1,2,3:0:0:0:
92,176,56797,1,2,3:0:0:0:
80,128,56904,6,2,P|96:112|160:200,1,180.000006866455,4|0,0:1|0:1,0:1:0:0:
312,316,57333,2,2,P|252:268|316:168,1,180.000006866455,8|0,0:1|0:1,0:1:0:0:
424,96,57761,2,2,P|428:156|380:88,1,180.000006866455,0|0,0:1|0:1,0:1:0:0:
368,40,58190,1,8,0:3:0:0:
116,376,58404,1,2,0:0:0:0:
392,380,58618,6,0,L|512:384,1,120.000004577637,4|0,0:3|0:0,0:0:0:0:
172,288,59047,2,0,B|200:280|200:280|312:296,1,120.000004577637,8|0,0:3|0:0,0:0:0:0:
352,236,59368,1,0,0:0:0:0:
292,180,59475,2,0,L|168:200,1,120.000004577637,2|0,0:0|0:0,0:0:0:0:
308,96,59904,1,8,0:3:0:0:
64,208,60118,1,2,0:0:0:0:
332,288,60333,6,2,P|412:304|428:196,1,180.000006866455,4|0,0:0|0:0,0:1:0:0:
348,176,60761,2,2,P|268:172|304:80,1,180.000006866455,8|0,0:1|0:0,0:1:0:0:
140,144,61190,2,2,P|172:216|68:280,1,180.000006866455,0|0,0:0|0:0,0:1:0:0:
32,268,61618,1,8,0:3:0:0:
500,384,61833,1,2,0:0:0:0:
436,72,62047,5,4,0:3:0:0:
432,320,62261,1,0,0:0:0:0:
364,108,62475,2,0,L|520:80,1,120.000004577637,8|0,0:3|0:0,0:0:0:0:
504,160,62797,1,0,0:0:0:0:
496,236,62904,2,0,B|429:232|429:232|328:248,1,120.000004577637,2|0,0:0|0:0,0:0:0:0:
80,304,63333,1,8,0:3:0:0:
164,68,63547,1,2,0:0:0:0:
272,348,63761,6,2,P|232:280|324:264,1,180.000006866455,4|0,0:0|0:0,0:1:0:0:
332,56,64190,2,2,P|388:104|320:184,1,180.000006866455,8|0,0:1|0:0,0:1:0:0:
156,220,64618,2,2,P|187:144|266:167,1,180.000006866455,0|0,0:0|0:0,0:1:0:0:
280,248,65047,1,8,0:3:0:0:
176,40,65261,1,2,0:0:0:0:
372,132,65475,6,0,L|508:144,1,120.000004577637,4|0,0:0|0:0,0:0:0:0:
252,352,65904,2,0,L|124:364,1,120.000004577637,8|0,0:3|0:0,0:0:0:0:
80,308,66225,1,0,0:0:0:0:
128,244,66333,2,0,B|148:160|148:160|100:208,1,120.000004577637,2|0,0:0|0:0,0:0:0:0:
272,228,66761,5,2,3:0:0:0:
312,232,66868,1,2,3:0:0:0:
352,236,66975,1,2,3:0:0:0:
392,240,67083,1,2,3:0:0:0:
464,224,67190,6,0,B|356:232|356:232|268:264,1,140.000001335144,4|0,0:1|0:0,0:0:0:0:
0,200,67618,2,0,B|192:208,1,140.000001335144,10|0,0:3|0:0,0:0:0:0:
512,160,68047,1,2,0:3:0:0:
512,160,68475,5,0,0:0:0:0:
248,344,68690,2,0,B|256:276|256:276|248:64,1,280.000002670288
380,168,69333,2,0,L|368:320,1,140.000001335144
152,172,69761,1,0,0:0:0:0:
152,172,70190,6,0,L|296:160,1,140.000001335144
292,380,70618,6,0,L|316:208,1,140.000001335144
456,112,71047,6,0,L|316:156,1,140.000001335144
152,172,71475,5,0,0:0:0:0:
152,172,71904,5,0,0:0:0:0:
424,364,72118,2,0,P|452:264|388:72,1,280.000002670288
192,328,72761,1,0,0:0:0:0:
48,112,72975,1,0,0:0:0:0:
436,260,73190,1,0,0:0:0:0:
24,308,73404,1,0,0:0:0:0:
136,204,73618,6,0,P|224:204|292:316,1,210.000002002716
212,168,74047,6,0,P|281:208|274:347,2,160
92,184,74690,5,0,0:0:0:0:
140,180,74797,1,0,0:0:0:0:
216,208,74904,1,0,0:0:0:0:
272,204,75011,1,0,0:0:0:0:
328,200,75118,1,0,0:0:0:0:
384,192,75225,1,0,0:0:0:0:
468,144,75333,5,0,0:0:0:0:
468,144,75761,6,0,P|336:156|264:136,1,160
32,320,76190,1,0,0:0:0:0:
160,24,76404,1,0,0:0:0:0:
316,352,76618,2,0,P|400:280|352:136,1,240
200,152,77047,6,0,L|388:116,1,160
48,256,77475,2,0,B|140:280|140:280|252:280,1,160
440,316,77904,1,0,0:0:0:0:
108,132,78118,1,0,0:0:0:0:
432,184,78333,2,0,P|456:59|324:60,1,240
268,40,78761,6,0,L|112:16,1,80
86,323,78975,2,0,L|164:304,1,80
432,116,79190,5,0,0:0:0:0:
304,372,79404,1,0,0:0:0:0:
60,240,79618,1,0,0:0:0:0:
200,304,79833,1,0,0:0:0:0:
352,204,80047,2,0,B|484:220|484:220|404:244,1,160
4,288,80475,1,0,0:0:0:0:
148,96,80690,2,0,P|100:88|48:88,1,80
352,260,80904,6,0,P|400:184|328:60,1,240
176,112,81333,2,0,L|168:296,1,160
236,352,81654,1,0,0:0:0:0:
348,372,81761,2,0,L|428:216,1,160
408,180,82190,6,0,P|464:204|384:208,1,180.000006866455
320,296,82618,6,0,L|212:316,1,80
152,136,82833,2,0,L|52:124,1,80
424,104,83047,2,0,L|440:12,1,80
464,284,83261,2,0,L|488:368,1,80
148,332,83475,2,0,P|76:248|140:84,1,240
64,56,83904,6,0,L|64:164,1,80
492,24,84118,2,0,L|487:103,1,80
344,248,84333,2,0,L|152:232,1,160
208,112,84761,2,0,L|400:72,1,160
352,352,85190,1,0,0:0:0:0:
88,160,85404,1,0,0:0:0:0:
332,44,85618,1,0,0:0:0:0:
332,244,85833,1,0,0:0:0:0:
208,256,86047,6,0,L|416:236,1,160
76,96,86475,2,0,B|120:184|120:184|28:188,1,160
292,112,86904,2,0,P|416:108|488:172,1,160
240,352,87333,1,0,0:0:0:0:
144,36,87547,1,0,0:0:0:0:
280,180,87761,6,0,L|276:292,1,80
352,344,87975,5,0,0:0:0:0:
412,304,88083,1,0,0:0:0:0:
428,232,88190,1,0,0:0:0:0:
404,164,88297,1,0,0:0:0:0:
352,140,88404,1,0,0:0:0:0:
296,140,88511,1,0,0:0:0:0:
260,176,88618,1,0,0:0:0:0:
224,212,88725,1,0,0:0:0:0:
172,256,88833,5,0,0:0:0:0:
100,256,88940,1,0,0:0:0:0:
52,204,89047,1,0,0:0:0:0:
44,132,89154,1,0,0:0:0:0:
96,80,89261,1,0,0:0:0:0:
136,164,89475,6,0,B|216:144|216:144|348:160,1,160
440,336,89904,2,0,L|424:140,1,160
160,328,90333,2,0,P|208:208|172:56,1,240
120,40,90761,6,0,L|304:60,1,160
16,280,91190,2,0,B|96:236|96:236|200:228,1,160
440,320,91618,1,0,0:0:0:0:
372,80,91833,1,0,0:0:0:0:
224,208,92047,2,0,B|190:344|190:344|136:244,1,240
96,132,92475,6,0,L|72:36,1,80
280,316,92690,2,0,L|376:264,1,80
420,200,92904,6,0,P|316:168|212:188,1,160
28,280,93333,2,0,P|156:280|240:316,1,160
464,160,93761,1,0,0:0:0:0:
256,44,93975,1,0,0:0:0:0:
24,136,94190,1,0,0:0:0:0:
488,276,94404,1,0,0:0:0:0:
136,280,94618,6,0,P|96:200|112:80,1,160
400,156,95047,2,0,L|372:328,1,160
308,268,95368,1,0,0:0:0:0:
252,208,95475,2,0,L|428:224,1,160
180,124,95904,6,0,L|96:116,1,60.0000022888184
48,328,96118,2,0,L|160:320,1,60.0000022888184
424,328,96333,6,0,L|512:344,1,80
216,352,96547,2,0,L|308:328,1,80
400,44,96761,2,0,L|396:156,1,80
348,252,96975,2,0,L|376:356,1,80
112,356,97190,2,0,L|16:308,1,80
40,108,97404,2,0,L|168:76,1,80
252,240,97618,2,0,L|120:228,1,80
404,236,97833,2,0,L|488:224,1,80
192,144,98047,6,0,P|104:176|60:244,1,160
456,344,98475,2,0,P|452:232|464:132,1,160
280,64,98904,2,0,L|304:320,1,240
236,360,99333,1,0,0:0:0:0:
80,152,99547,1,0,0:0:0:0:
224,232,99761,6,0,B|432:208|432:208,1,160
192,236,100190,2,0,L|32:224,1,160
424,320,100618,1,0,0:0:0:0:
120,352,100833,1,0,0:0:0:0:
152,32,101047,2,0,L|320:28,1,160
480,216,101475,5,0,0:0:0:0:
152,260,101690,1,0,0:0:0:0:
77,237,101797,1,0,0:0:0:0:
134,185,101904,1,0,0:0:0:0:
324,300,102118,2,0,B|496:272,1,160
372,88,102547,2,0,B|284:68|284:68|224:108,1,160
56,88,102975,5,0,0:0:0:0:
52,104,103190,5,0,0:0:0:0:
48,120,103618,5,0,0:0:0:0:
44,136,104046,5,0,0:0:0:0:
316,188,104475,6,0,L|324:280,1,80
256,192,104904,12,0,107475,0:0:0:0:
376,236,111761,6,0,L|240:228,2,120.000004577637
188,172,113475,6,0,L|120:188,1,60.0000022888184
52,144,113904,1,0,0:0:0:0:
488,216,114118,2,0,L|488:144,1,60.0000022888184
372,232,114761,1,0,0:0:0:0:
116,144,115190,6,0,B|144:268,2,120.000004577637
319,160,116904,6,0,L|316:220,1,60.0000022888184
344,320,117333,1,0,0:0:0:0:
416,112,117547,1,0,0:0:0:0:
172,176,117761,5,0,0:0:0:0:
168,200,117975,5,0,0:0:0:0:
164,224,118190,5,0,0:0:0:0:
160,248,118404,5,0,0:0:0:0:
288,260,118618,6,0,B|336:244|336:244|388:256|420:240,1,120.000004577637
356,120,119261,1,0,0:0:0:0:
320,212,119475,2,0,P|308:268|320:332,1,120.000004577637
284,88,120333,5,0,0:0:0:0:
236,160,120547,6,0,L|244:216,1,30.0000011444092
227,166,120761,6,0,L|251:218,1,30.0000011444092
222,175,120975,6,0,L|258:218,1,30.0000011444092
220,184,121190,6,0,L|266:215,1,30.0000011444092
292,282,121618,6,0,P|324:251|332:208,1,90.0000034332277
352,180,122047,6,0,L|372:312,1,120.000004577637
460,232,122690,1,0,0:0:0:0:
408,148,122904,2,0,P|352:164|284:152,1,120.000004577637
264,136,123761,5,0,0:0:0:0:
76,232,123975,6,0,L|112:220,1,30.0000011444092
120,316,124190,6,0,L|145:288,1,30.0000011444092
200,367,124404,6,0,L|208:330,1,30.0000011444092
296,372,124618,6,0,L|284:336,1,30.0000011444092,0|0,0:3|0:3,0:3:0:0:
328,88,124833,1,0,0:0:0:0:
412,340,125047,1,0,0:0:0:0:
456,204,125261,1,0,0:0:0:0:
196,196,125475,6,0,P|152:212|92:212,1,80
312,244,125904,2,0,P|356:232|400:236,1,80
344,68,126333,1,0,0:0:0:0:
304,340,126547,1,0,0:0:0:0:
119,214,126761,2,0,P|73:236|102:264,1,80
252,180,127190,5,0,0:0:0:0:
456,276,127404,5,0,0:0:0:0:
432,200,127618,6,0,L|404:212,4,20
212,88,128047,5,0,0:0:0:0:
336,336,128261,1,0,0:0:0:0:
488,212,128475,1,0,0:0:0:0:
92,264,128690,1,0,0:0:0:0:
288,108,128904,6,0,P|340:96|400:104,1,80
264,244,129333,2,0,L|256:332,1,80
200,80,129761,1,0,0:0:0:0:
368,256,129975,5,0,0:0:0:0:
408,220,130083,1,0,0:0:0:0:
416,168,130190,1,0,0:0:0:0:
400,120,130297,1,0,0:0:0:0:
360,104,130404,1,0,0:0:0:0:
332,112,130511,1,0,0:0:0:0:
328,128,130618,1,0,0:0:0:0:
256,192,142618,12,0,143904,0:0:0:0:
220,248,145618,6,0,P|220:144|156:16,1,240
344,24,146047,5,0,0:0:0:0:
138,195,146261,5,0,0:0:0:0:
74,232,146368,1,0,0:0:0:0:
135,268,146475,1,0,0:0:0:0:
337,294,146690,6,0,L|389:301,1,53.3333333333333
377,286,146833,2,0,L|428:272,1,53.3333333333333
86,178,147118,5,0,0:0:0:0:
86,283,147225,1,0,0:0:0:0:
175,233,147332,1,0,0:0:0:0:
484,56,147761,6,0,P|376:52|292:100,1,160
24,208,148190,1,0,0:0:0:0:
352,376,148404,1,0,0:0:0:0:
192,32,148618,2,0,B|200:128|200:128|184:276,1,240
396,244,149047,5,0,0:0:0:0:
108,276,149261,1,0,0:0:0:0:
480,308,149475,2,0,P|320:260|296:260,1,160
32,136,149904,2,0,P|64:120|48:212,1,160
264,60,150333,2,0,L|512:40,1,240
476,136,150761,6,0,L|466:215,1,80
148,340,150975,2,0,L|132:261,1,80
236,40,151190,5,0,0:0:0:0:
352,276,151404,1,0,0:0:0:0:
108,176,151618,1,0,0:0:0:0:
380,80,151833,1,0,0:0:0:0:
240,316,152047,2,0,B|224:216|224:216|240:104,1,160
28,16,152475,1,0,0:0:0:0:
160,304,152690,2,0,L|176:428,1,80
444,384,152905,6,0,B|400:336|400:276|400:276|428:240|512:236,1,240
156,64,153333,2,0,P|163:144|159:223,1,160
276,212,153654,1,0,0:0:0:0:
360,160,153761,2,0,P|260:160|228:224,1,160
176,356,154190,6,0,B|224:352|224:352|304:356,1,120.000004577637
16,72,154618,6,0,L|124:16,1,80
200,24,154833,2,0,L|332:0,1,80
336,368,155047,2,0,L|360:284,1,80
440,224,155261,2,0,L|412:128,1,80
92,96,155475,2,0,P|44:204|120:352,1,240
280,384,155904,6,0,L|436:360,1,80
288,0,156118,2,0,L|180:24,1,80
8,204,156333,6,0,L|240:220,1,160
484,292,156761,2,0,P|380:276|292:292,1,160
116,296,157190,1,0,0:0:0:0:
412,216,157404,1,0,0:0:0:0:
340,184,157511,1,0,0:0:0:0:
348,264,157618,1,0,0:0:0:0:
432,8,157833,1,0,0:0:0:0:
144,40,158047,6,0,B|112:72|16:88|16:88|176:96,1,240
180,196,158475,2,0,P|272:184|416:268,1,240
236,288,158904,1,0,0:0:0:0:
152,84,159118,1,0,0:0:0:0:
396,64,159333,1,0,0:0:0:0:
272,368,159547,1,0,0:0:0:0:
60,40,159761,5,0,0:0:0:0:
512,200,159975,1,0,0:0:0:0:
32,368,160190,2,0,P|44:316|148:212,1,160
496,124,160618,1,0,0:0:0:0:
200,292,160833,5,0,0:0:0:0:
120,288,160940,1,0,0:0:0:0:
64,232,161047,1,0,0:0:0:0:
64,152,161154,1,0,0:0:0:0:
112,88,161261,1,0,0:0:0:0:
192,80,161368,1,0,0:0:0:0:
296,128,161475,6,0,B|400:124|400:124|504:84,1,177.777777777778
168,296,161904,2,0,P|56:288|-44:340,1,177.777777777778
320,356,162333,1,0,0:0:0:0:
408,92,162547,1,0,0:0:0:0:
152,368,162761,6,0,L|180:264,1,88.8888888888889
88,80,162975,2,0,L|88:188,1,88.8888888888889
372,48,163190,2,0,P|291:64|228:160,1,177.777777777778
376,384,163618,2,0,P|452:348|376:180,1,266.666666666667
312,132,164047,1,0,0:0:0:0:
200,284,164261,1,0,0:0:0:0:
476,55,164475,6,0,P|471:99|472:144,1,88.8888888888889
59,383,164690,2,0,P|58:339|48:296,1,88.8888888888889
233,136,164904,5,0,0:0:0:0:
260,252,165118,1,0,0:0:0:0:
284,16,165333,1,0,0:0:0:0:
240,384,165547,1,0,0:0:0:0:
224,176,165761,2,0,B|204:68|204:68|168:8,1,177.777777777778
492,148,166190,1,0,0:0:0:0:
120,188,166404,1,0,0:0:0:0:
400,260,166618,6,0,L|176:272,1,177.777777777778
408,172,167047,1,0,0:0:0:0:
432,372,167261,1,0,0:0:0:0:
444,152,167475,2,0,P|432:56|504:-8,1,177.777777777778
212,112,167904,6,0,L|308:104,1,70.000000667572
368,232,168118,2,0,L|292:220,1,70.000000667572
80,228,168333,6,0,P|48:268|32:312,1,88.8888888888889
304,24,168547,2,0,P|292:72|304:128,1,88.8888888888889
320,344,168761,2,0,P|368:352|472:352,1,88.8888888888889
144,44,168975,2,0,P|76:40|24:60,1,88.8888888888889
389,112,169190,2,0,P|382:155|364:196,1,88.8888888888889
144,368,169404,2,0,P|112:312|108:248,1,88.8888888888889
220,96,169618,2,0,P|228:48|232:-12,1,88.8888888888889
436,224,169833,2,0,P|424:288|432:320,1,88.8888888888889
312,232,170047,6,0,P|244:184|88:168,1,177.777777777778
8,320,170475,2,0,P|84:296|224:300,1,177.777777777778
484,272,170904,1,0,0:0:0:0:
328,324,171118,1,0,0:0:0:0:
460,192,171333,1,0,0:0:0:0:
160,184,171547,1,0,0:0:0:0:
352,64,171761,6,0,L|388:264,1,177.777777777778
132,324,172190,2,0,B|232:308|232:308|152:208,1,177.777777777778
180,60,172618,1,0,0:0:0:0:
40,168,172833,1,0,0:0:0:0:
248,192,173047,2,0,L|440:196,1,177.777777777778
44,252,173475,5,0,0:0:0:0:
260,116,173690,1,0,0:0:0:0:
312,104,173797,1,0,0:0:0:0:
364,112,173904,1,0,0:0:0:0:
360,344,174118,1,0,0:0:0:0:
412,136,174333,1,0,0:0:0:0:
472,364,174547,1,0,0:0:0:0:
364,112,174761,5,0,0:0:0:0:
312,104,174868,1,0,0:0:0:0:
260,116,174975,1,0,0:0:0:0:
212,136,175083,1,0,0:0:0:0:
192,160,175190,6,0,P|112:168|12:144,2,160
196,180,176261,5,0,0:0:0:0:
444,16,176475,1,0,0:0:0:0:
288,384,176690,1,0,0:0:0:0:
192,164,176904,6,0,P|184:100|128:48,1,120.000004577637
468,136,177333,1,0,0:0:0:0:
292,88,177547,1,0,0:0:0:0:
20,312,177761,2,0,P|116:264|176:260,1,120.000004577637
456,288,178190,1,0,0:0:0:0:
268,332,178404,1,0,0:0:0:0:
44,176,178618,5,0,0:0:0:0:
48,188,179047,5,0,0:0:0:0:
52,200,179475,5,0,0:0:0:0:
56,212,179904,5,0,0:0:0:0:
256,192,180333,12,0,182047,0:0:0:0:
284,264,184618,6,0,P|352:244|432:280,1,120.000004577637
168,184,185046,1,0,0:0:0:0:
44,272,185260,1,0,0:0:0:0:
332,128,185475,2,0,P|384:64|344:32,1,120.000004577637
96,104,185903,5,0,0:0:0:0:
412,188,186118,1,0,0:0:0:0:
248,240,186332,2,0,L|100:256,1,120.000004577637
168,376,186760,1,0,0:0:0:0:
160,148,186975,1,0,0:0:0:0:
392,348,187189,2,0,L|388:204,1,120.000004577637
280,56,187618,5,0,0:0:0:0:
28,356,187832,1,0,0:0:0:0:
404,176,188046,2,0,B|488:148|488:148|512:80,1,120.000004577637
260,192,188475,1,0,0:0:0:0:
76,156,188689,1,0,0:0:0:0:
184,164,188903,2,0,L|308:164,1,120.000004577637
360,300,189332,5,0,0:0:0:0:
432,152,189546,1,0,0:0:0:0:
324,44,189760,6,0,L|176:28,1,120.000004577637
264,132,190189,6,0,L|88:132,1,130.399999900513
196,224,190618,6,0,L|48:264,1,149.599997032471
280,288,191046,6,0,B|88:376,1,160
328,356,191475,6,0,L|500:376,1,140.000001335144
444,128,191903,1,0,0:0:0:0:
464,268,192118,1,0,0:0:0:0:
336,48,192332,2,0,B|356:116|356:116|364:200,1,140.000001335144
28,288,192760,5,0,0:0:0:0:
220,52,192975,1,0,0:0:0:0:
360,288,193189,2,0,B|392:368|392:368|420:276,1,140.000001335144
160,200,193618,1,0,0:0:0:0:
356,160,193832,1,0,0:0:0:0:
236,304,194046,2,0,P|164:312|64:344,1,140.000001335144
104,28,194475,5,0,0:0:0:0:
476,172,194689,1,0,0:0:0:0:
24,188,194903,2,0,P|-2:267|41:277,1,140.000001335144
224,208,195332,1,0,0:0:0:0:
384,64,195546,1,0,0:0:0:0:
360,208,195760,2,0,L|352:360,1,140.000001335144
188,60,196189,5,0,0:0:0:0:
468,112,196403,1,0,0:0:0:0:
24,200,196618,1,0,0:0:0:0:
272,128,196832,5,0,0:0:0:0:
328,136,196939,1,0,0:0:0:0:
380,152,197046,2,0,P|412:164|460:168,1,70.000000667572
200,236,197260,5,0,0:0:0:0:
256,224,197368,1,0,0:0:0:0:
312,216,197475,2,0,P|344:204|392:212,1,70.000000667572
356,356,197689,5,0,0:0:0:0:
368,300,197796,1,0,0:0:0:0:
368,244,197903,2,0,P|356:208|336:184,1,70.000000667572
0,40,198118,6,0,P|24:24|92:4,1,70.000000667572
88,224,198332,6,0,L|84:388,1,160
300,108,198760,1,0,0:0:0:0:
264,320,198975,1,0,0:0:0:0:
460,96,199189,2,0,L|392:288,1,160
20,140,199618,5,0,0:0:0:0:
276,48,199832,1,0,0:0:0:0:
456,312,200046,2,0,B|360:296|360:296|220:300,1,160
104,320,200475,1,0,0:0:0:0:
160,136,200689,1,0,0:0:0:0:
364,96,200903,2,0,L|348:280,1,160
44,44,201332,5,0,0:0:0:0:
512,124,201546,1,0,0:0:0:0:
152,216,201760,2,0,B|56:240|56:240|16:304,1,160
384,276,202189,1,0,0:0:0:0:
64,368,202403,1,0,0:0:0:0:
204,60,202618,2,0,L|404:72,1,160
180,352,203046,5,0,0:0:0:0:
240,152,203260,1,0,0:0:0:0:
448,32,203475,6,0,L|472:212,1,160
96,24,203903,6,0,L|52:208,1,160
496,160,204332,6,0,L|512:324,1,160
68,204,204760,6,0,L|40:361,1,160
288,376,205189,6,0,L|252:20,1,355.555555555556
452,24,205832,1,0,0:0:0:0:
176,144,206046,2,0,L|-4:172,1,177.777777777778
512,224,206475,5,0,0:0:0:0:
336,72,206689,1,0,0:0:0:0:
112,124,206903,2,0,B|24:164|24:164|40:244,1,177.777777777778
448,296,207332,1,0,0:0:0:0:
388,112,207546,1,0,0:0:0:0:
212,28,207760,2,0,B|112:24|112:24|196:88,1,177.777777777778
344,368,208189,5,0,0:0:0:0:
8,176,208403,1,0,0:0:0:0:
400,32,208618,2,0,P|416:132|392:224,1,177.777777777778
256,288,209046,1,0,0:0:0:0:
192,120,209260,1,0,0:0:0:0:
460,124,209475,2,0,P|448:232|424:316,1,177.777777777778
80,320,209903,5,0,0:0:0:0:
408,280,210118,1,0,0:0:0:0:
24,176,210332,5,0,0:0:0:0:
200,68,210546,5,0,0:0:0:0:
244,40,210653,1,0,0:0:0:0:
296,28,210760,1,0,0:0:0:0:
348,28,210868,1,0,0:0:0:0:
400,32,210975,2,0,P|448:44|492:72,1,88.8888888888889
320,344,211189,5,0,0:0:0:0:
352,300,211296,1,0,0:0:0:0:
364,248,211403,1,0,0:0:0:0:
360,196,211510,1,0,0:0:0:0:
280,148,211618,5,0,0:0:0:0:
216,186,211725,1,0,0:0:0:0:
281,224,211832,1,0,0:0:0:0:
508,224,212046,5,0,0:0:0:0:
180,220,212260,5,0,0:0:0:0:
112,196,212368,1,0,0:0:0:0:
64,144,212475,1,0,0:0:0:0:
56,72,212582,1,0,0:0:0:0:
92,8,212689,2,0,P|124:8|196:32,1,88.8888888888889
396,168,212903,5,0,0:0:0:0:
436,228,213010,1,0,0:0:0:0:
444,300,213118,1,0,0:0:0:0:
412,364,213225,1,0,0:0:0:0:
324,384,213332,5,0,0:0:0:0:
228,360,213439,1,0,0:0:0:0:
296,288,213546,1,0,0:0:0:0:
512,276,213760,5,0,0:0:0:0:
116,264,213975,5,0,0:0:0:0:
204,256,214082,1,0,0:0:0:0:
292,248,214189,1,0,0:0:0:0:
380,240,214296,1,0,0:0:0:0:
468,228,214403,2,0,L|352:212,1,88.8888888888889
48,184,214618,5,0,0:0:0:0:
326,91,214832,5,0,0:0:0:0:
401,119,214939,1,0,0:0:0:0:
371,195,215046,1,0,0:0:0:0:
295,167,215153,1,0,0:0:0:0:
357,114,215260,1,0,0:0:0:0:
224,376,215475,5,0,0:0:0:0:
136,164,215689,5,0,0:0:0:0:
252,172,215796,1,0,0:0:0:0:
368,180,215903,1,0,0:0:0:0:
124,132,216118,5,0,0:0:0:0:
240,140,216225,1,0,0:0:0:0:
356,148,216332,1,0,0:0:0:0:
0,88,216546,5,0,0:0:0:0:
116,96,216653,5,0,0:0:0:0:
232,104,216760,5,0,0:0:0:0:
348,116,216868,5,0,0:0:0:0:
464,128,216975,6,0,P|488:152|468:236,10,88.8888888888889
144,276,218475,5,0,0:0:0:0:
