osu file format v14

[General]
AudioFilename: Akiakane-Melancholic Degree www.mp3facebook.com .mp3
AudioLeadIn: 2000
PreviewTime: 74368
Countdown: 0
SampleSet: None
StackLeniency: 0.4
Mode: 0
LetterboxInBreaks: 0
WidescreenStoryboard: 1

[Editor]
Bookmarks: 20904,43190,74475,111761,132333,145618,184618,205189
DistanceSpacing: 1.2
BeatDivisor: 4
GridSize: 4
TimelineZoom: 1.1

[Metadata]
Title:Melancholic Degree
TitleUnicode:Melancholic Degree
Artist:Akiakane
ArtistUnicode:秋赤音
Creator:UndeadCapulet
Version:Collab Hard
Source:
Tags:SQUARE koyoriP 電ポルP yugijedi jonawaga jbhyperion orza6006
BeatmapID:738740
BeatmapSetID:311447

[Difficulty]
HPDrainRate:5
CircleSize:4
OverallDifficulty:6
ApproachRate:7.3
SliderMultiplier:1.44
SliderTickRate:1

[Events]
//Background and Video events
0,0,"Vocaloid.full.1745722 Cropped.jpg",0,0
//Break Periods
2,104904,110907
2,111961,131479
2,132533,141764
//Storyboard Layer 0 (Background)
//Storyboard Layer 1 (Fail)
//Storyboard Layer 2 (Pass)
//Storyboard Layer 3 (Foreground)
//Storyboard Sound Samples

[TimingPoints]
333,428.571428571429,4,3,1,50,1,0
5475,-133.333333333333,4,3,1,50,0,0
7190,-100,4,3,1,50,0,0
20904,-117.647058823529,4,3,1,50,0,0
34618,-100,4,3,1,50,0,0
43190,-117.647058823529,4,3,1,50,0,0
56904,-100,4,3,1,50,0,0
75761,-83.3333333333333,4,3,1,50,0,1
103190,-133.333333333333,4,3,1,50,0,0
147761,-100,4,3,1,50,0,1
175190,-100,4,3,1,50,0,0
176904,-100,4,3,1,50,0,1
178618,-100,4,3,1,50,0,0
184618,428.571428571429,4,3,1,50,1,0

[Colours]
Combo1 : 78,243,177
Combo2 : 255,149,244

[HitObjects]
88,60,333,6,0,L|160:64,1,72
224,112,761,2,0,L|296:108,1,72
360,60,1190,2,0,L|432:64,1,72
492,116,1618,1,0,0:0:0:0:
464,192,1833,1,0,0:0:0:0:
460,212,1940,1,0,0:0:0:0:
464,232,2047,6,0,L|392:236,1,72
328,284,2475,2,0,L|256:280,1,72
192,232,2904,2,0,L|120:236,1,72
60,288,3333,1,0,0:0:0:0:
40,152,3547,1,0,0:0:0:0:
40,152,3654,1,0,0:0:0:0:
40,152,3761,6,0,P|76:156|112:148,1,72
180,108,4190,2,0,L|252:116,1,72
300,176,4618,2,0,P|336:180|372:172,1,72
440,132,5047,2,0,L|512:140,1,72
512,160,5368,1,0,0:0:0:0:
512,160,5475,6,0,P|480:188|476:232,1,81.0000030899049
480,248,5904,1,0,0:0:0:0:
459,344,6118,1,0,0:0:0:0:
384,276,6333,2,0,L|356:272,3,27.0000010299683
331,268,6761,2,0,P|347:304|338:346,1,81.0000030899049
275,312,7190,6,0,L|203:316,1,72
155,232,7618,2,0,L|227:236,1,72
339,168,8047,1,0,0:0:0:0:
347,87,8261,1,0,0:0:0:0:
274,120,8475,1,0,0:0:0:0:
412,135,8690,6,0,P|425:64|376:11,1,144
339,168,9333,2,0,P|364:200|397:215,1,72
469,192,9761,1,0,0:0:0:0:
383,292,9975,1,0,0:0:0:0:
339,168,10190,1,0,0:0:0:0:
469,192,10404,1,0,0:0:0:0:
383,292,10618,6,0,P|306:295|248:261,1,144
200,200,11261,1,0,0:0:0:0:
132,240,11475,2,0,L|128:312,1,72
200,200,11904,2,0,L|204:128,1,72
268,80,12333,6,0,P|200:104|132:84,1,144
68,40,12975,1,0,0:0:0:0:
44,176,13190,2,0,L|120:168,2,72
44,176,14047,6,0,P|32:244|68:308,1,144
148,312,14690,1,0,0:0:0:0:
220,284,14904,2,0,P|255:283|288:300,1,72
328,232,15333,2,0,P|353:256|364:291,1,72
252,200,15761,6,0,L|256:128,1,72
400,108,16190,2,0,L|396:180,1,72
345,51,16618,1,0,0:0:0:0:
422,32,16833,1,0,0:0:0:0:
478,89,17047,2,0,L|474:161,1,72
468,292,17475,6,0,B|432:308|396:292|396:292|360:276|328:290,1,144
360,364,18118,1,0,0:0:0:0:
432,220,18333,2,0,L|436:148,1,72
392,80,18761,2,0,L|320:76,1,72
244,104,19190,6,0,B|204:112|172:100|172:100|128:124|92:100|92:100|108:76|144:84,1,216
176,180,20047,1,0,0:0:0:0:
176,180,20261,1,0,0:0:0:0:
44,184,20475,1,0,0:0:0:0:
48,260,20904,6,0,P|96:240|120:176,1,122.400002334595
196,200,21547,1,0,0:0:0:0:
196,200,21761,2,0,L|268:184,1,61.2000011672974
336,200,22190,1,0,0:0:0:0:
336,200,22618,6,0,P|320:140|272:108,2,122.400002334595
336,280,23690,1,0,0:0:0:0:
276,344,23904,1,0,0:0:0:0:
336,280,24118,1,0,0:0:0:0:
256,184,24333,6,0,P|196:212|124:220,1,122.400002334595
64,196,24975,1,0,0:0:0:0:
64,196,25190,2,0,P|76:144|76:128,1,61.2000011672974
156,128,25618,1,0,0:0:0:0:
384,64,26047,6,0,L|392:208,1,122.400002334595
440,248,26690,2,0,P|416:292|408:320,1,61.2000011672974
348,252,27118,1,0,0:0:0:0:
260,184,27333,1,0,0:0:0:0:
152,204,27547,1,0,0:0:0:0:
244,204,27761,6,0,P|204:228|128:224,1,122.400002334595
212,308,28404,1,0,0:0:0:0:
212,308,28618,2,0,P|264:304|292:308,1,61.2000011672974
348,272,29047,1,0,0:0:0:0:
348,272,29475,6,0,P|340:216|352:136,2,122.400002334595
436,304,30547,1,0,0:0:0:0:
472,220,30761,2,0,P|464:172|456:156,1,61.2000011672974
388,64,31190,6,0,P|324:84|244:80,1,122.400002334595
192,64,31833,1,0,0:0:0:0:
192,64,32047,2,0,P|192:100|184:128,1,61.2000011672974
216,196,32475,1,0,0:0:0:0:
380,336,32904,6,0,P|320:328|268:284,1,122.400002334595
356,156,33761,1,0,0:0:0:0:
276,172,33975,1,0,0:0:0:0:
380,180,34190,2,0,L|420:184,3,30.6000005836487
452,188,34618,6,0,B|468:184|488:196|488:196|488:216|436:232|372:224,1,144
300,248,35261,1,0,0:0:0:0:
208,228,35475,2,0,P|168:216|128:224,1,72
88,140,35904,2,0,P|128:128|168:136,1,72
260,84,36333,6,0,B|220:56|164:80|192:136|192:136|192:168,1,144
184,244,36975,1,0,0:0:0:0:
272,272,37190,2,0,L|268:176,1,72
380,176,37618,1,0,0:0:0:0:
368,296,37833,1,0,0:0:0:0:
480,244,38047,6,0,P|500:188|484:120,1,108
468,104,38475,1,0,0:0:0:0:
380,152,38690,1,0,0:0:0:0:
292,100,38904,2,0,B|252:84|252:84|196:104,2,72
380,152,39547,1,0,0:0:0:0:
328,240,39761,6,0,L|340:344,1,72
288,232,40190,2,0,L|300:336,1,72
248,224,40618,2,0,L|260:328,1,72
208,216,41047,2,0,L|220:320,1,72
168,208,42975,6,0,L|176:276,1,36
180,284,43190,6,0,B|212:272|240:284|240:284|268:296|300:284,1,122.400002334595
270,207,43833,2,0,B|302:195|330:207|330:207|358:219|390:207,1,122.400002334595
360,132,44475,2,0,L|364:68,1,61.2000011672974
476,168,44904,6,0,P|484:200|480:232,2,61.2000011672974
432,100,45547,1,0,0:0:0:0:
360,132,45761,2,0,P|300:144|240:128,1,122.400002334595
192,68,46404,1,0,0:0:0:0:
76,120,46618,6,0,L|12:128,2,61.2000011672974
144,164,47261,2,0,B|147:207|147:207|162:238|162:238|166:282,1,122.400002334595
128,352,47904,1,0,0:0:0:0:
236,312,48118,1,0,0:0:0:0:
252,316,48225,1,0,0:0:0:0:
268,320,48333,6,0,P|324:324|376:288,1,122.400002334595
412,216,48975,1,0,0:0:0:0:
456,283,49190,1,0,0:0:0:0:
468,152,49404,6,0,L|472:116,2,30.6000005836487
456,283,49833,1,0,0:0:0:0:
456,283,49940,1,0,0:0:0:0:
456,283,50047,6,0,P|396:295|346:261,1,122.400002334595
308,196,50690,1,0,0:0:0:0:
269,263,50904,2,0,L|209:271,1,61.2000011672974
180,144,51333,2,0,L|240:152,1,61.2000011672974
128,204,51761,6,0,P|109:179|102:145,1,61.2000011672974
136,78,52190,1,0,0:0:0:0:
252,116,52404,2,0,B|264:148|252:176|252:176|240:204|252:236,1,122.400002334595
352,296,53047,1,0,0:0:0:0:
352,296,53154,1,0,0:0:0:0:
352,296,53261,1,0,0:0:0:0:
448,240,53475,6,0,L|444:176,1,61.2000011672974
438,87,53904,1,0,0:0:0:0:
364,216,54118,2,0,L|356:88,1,122.400002334595
206,66,54761,1,0,0:0:0:0:
182,142,54975,6,0,P|238:139|282:88,1,122.400002334595
128,83,55618,2,0,P|109:109|103:138,1,61.2000011672974
156,224,56047,5,0,0:0:0:0:
56,232,56261,1,0,0:0:0:0:
180,300,56475,5,0,0:0:0:0:
48,311,56690,1,0,0:0:0:0:
156,224,56904,6,0,P|232:240|259:298,1,144
324,352,57547,1,0,0:0:0:0:
392,300,57761,2,0,L|396:228,1,72
344,156,58190,1,0,0:0:0:0:
472,280,58404,6,0,L|480:132,1,144
436,60,59047,2,0,P|400:48|364:52,1,72
332,76,59368,1,0,0:0:0:0:
332,76,59475,2,0,L|260:80,1,72
204,208,59904,2,0,L|200:136,1,72
156,276,60333,6,0,P|227:288|280:240,1,144
200,136,60975,1,0,0:0:0:0:
136,192,61190,2,0,P|65:204|12:156,1,144
200,136,61833,6,0,B|251:140|251:140|289:119|289:119|341:124,1,144
356,208,62475,1,0,0:0:0:0:
356,208,62690,2,0,B|307:203|307:203|269:224|269:224|217:219,1,144
144,268,63333,2,0,P|132:304|140:344,1,72
96,204,63761,6,0,L|20:216,1,72
148,144,64190,2,0,L|224:132,1,72
96,72,64618,2,0,L|239:50,1,144
316,88,65261,1,0,0:0:0:0:
388,40,65475,6,0,P|424:32|464:40,2,72
356,168,66118,1,0,0:0:0:0:
356,168,66225,1,0,0:0:0:0:
356,168,66333,2,0,P|320:176|280:168,1,72
184,144,66761,1,0,0:0:0:0:
186,156,66868,1,0,0:0:0:0:
188,168,66975,1,0,0:0:0:0:
190,180,67083,1,0,0:0:0:0:
192,192,67190,6,0,B|188:232|188:232|200:264|200:264|180:296|192:336,2,144
192,192,68475,1,0,0:0:0:0:
192,192,68690,6,0,B|228:176|264:192|264:192|300:208|336:192,1,144
440,124,69333,2,0,B|404:140|368:124|368:124|332:108|296:124,1,144
232,336,70190,2,0,L|228:264,1,72
84,224,70618,6,0,P|124:232|156:224,1,72
40,156,71047,2,0,P|13:186|4:218,1,72
120,152,71475,2,0,P|82:86|19:77,1,144
28,296,72118,6,0,L|172:304,1,144
232,244,72761,2,0,L|304:248,1,72
340,324,73190,1,0,0:0:0:0:
364,188,73404,1,0,0:0:0:0:
425,313,73618,1,0,0:0:0:0:
303,248,73833,1,0,0:0:0:0:
439,228,74047,5,0,0:0:0:0:
340,324,74261,1,0,0:0:0:0:
364,188,74475,2,0,L|368:148,3,36
392,132,74904,2,0,L|396:92,3,36
380,68,75333,2,0,P|328:84|268:68,1,108
228,52,75761,6,0,P|144:56|96:84,1,129.599996044922
104,120,76190,1,0,0:0:0:0:
236,156,76404,1,0,0:0:0:0:
72,252,76618,2,0,L|284:240,1,172.799994726563
244,242,77261,1,0,0:0:0:0:
332,300,77475,6,0,P|344:244|304:164,1,129.599996044922
364,172,77904,2,0,P|346:117|271:68,1,129.599996044922
280,32,78333,1,0,0:0:0:0:
420,320,78761,2,0,L|432:248,1,43.1999986816407
432,336,78975,2,0,L|444:264,1,43.1999986816407
444,352,79190,6,0,P|464:300|400:196,1,172.799994726563
308,208,79833,1,0,0:0:0:0:
216,280,80047,2,0,L|224:184,1,86.3999973632813
308,208,80475,2,0,B|332:156|332:156|376:124,1,86.3999973632813
168,40,80904,6,0,P|100:84|64:192,1,172.799994726563
112,296,81547,2,0,P|120:320|116:344,1,43.1999986816407
136,280,81761,2,0,P|196:252|300:248,1,129.599996044922
296,268,82190,1,0,0:0:0:0:
196,44,82618,5,0,0:0:0:0:
352,76,82833,1,0,0:0:0:0:
172,116,83047,5,0,0:0:0:0:
330,120,83262,1,0,0:0:0:0:
180,192,83475,6,0,L|56:224,1,86.3999973632813
348,300,83904,5,0,0:0:0:0:
216,284,84118,1,0,0:0:0:0:
440,300,84333,6,0,P|440:248|352:180,1,129.599996044922
348,180,84761,1,0,0:0:0:0:
344,184,84975,1,0,0:0:0:0:
436,64,85190,2,0,L|236:76,1,172.799994726563
208,272,86047,6,0,P|180:216|168:164,1,86.3999973632813
104,268,86475,2,0,P|91:206|93:153,1,86.3999973632813
252,180,86904,2,0,P|256:236|232:364,1,172.799994726563
236,350,87547,1,0,0:0:0:0:
368,328,87761,6,0,L|360:240,1,86.3999973632813
372,204,88083,1,0,0:0:0:0:
376,164,88190,2,0,L|368:108,3,43.1999986816407
332,112,88618,2,0,L|324:56,3,43.1999986816407
288,60,89047,2,0,L|280:4,3,43.1999986816407
248,32,89475,6,0,P|188:64|156:128,1,129.599996044922
212,120,89904,1,0,0:0:0:0:
36,152,90118,1,0,0:0:0:0:
140,236,90333,2,0,P|151:297|56:372,1,172.799994726563
276,360,90975,1,0,0:0:0:0:
236,272,91190,6,0,L|232:124,1,129.599996044922
276,148,91618,2,0,P|332:104|404:100,1,129.599996044922
428,128,92047,1,0,0:0:0:0:
236,48,92475,6,0,L|184:56,1,43.1999986816407
244,64,92690,2,0,L|192:72,1,43.1999986816407
248,80,92904,6,0,P|168:104|80:168,1,172.799994726563
96,304,93547,1,0,0:0:0:0:
196,196,93761,2,0,P|212:252|216:292,1,86.3999973632813
316,220,94190,2,0,P|316:278|310:317,1,86.3999973632813
436,120,94618,6,0,P|332:132|232:124,1,172.799994726563
180,68,95261,1,0,0:0:0:0:
180,68,95368,1,0,0:0:0:0:
180,68,95475,2,0,P|164:116|176:172,1,86.3999973632813
120,244,95904,1,0,0:0:0:0:
432,200,96333,5,0,0:0:0:0:
336,208,96547,1,0,0:0:0:0:
240,212,96761,1,0,0:0:0:0:
144,216,96975,1,0,0:0:0:0:
224,296,97190,2,0,P|288:292|316:284,1,86.3999973632813
296,132,97618,2,0,L|240:136,1,43.1999986816407
208,108,97833,2,0,L|152:104,1,43.1999986816407
128,140,98047,6,0,P|76:152|20:264,1,172.799994726563
18,249,98690,1,0,0:0:0:0:
128,248,98904,2,0,B|135:281|135:281|164:324,2,86.3999973632813
336,244,99761,6,0,L|352:108,1,129.599996044922
320,72,100190,1,0,0:0:0:0:
228,120,100404,1,0,0:0:0:0:
136,76,100618,2,0,P|68:60|36:64,1,86.3999973632813
120,196,101047,2,0,P|50:198|20:210,1,86.3999973632813
176,304,101475,5,0,0:0:0:0:
264,252,101690,1,0,0:0:0:0:
264,252,101797,1,0,0:0:0:0:
264,252,101904,1,0,0:0:0:0:
356,144,102118,2,0,L|368:52,1,86.3999973632813
452,256,102547,2,0,L|464:164,2,86.3999973632813
304,352,103190,6,0,P|252:328|200:352,2,108.000004119873
252,144,111761,5,0,0:0:0:0:
276,172,132333,5,0,0:0:0:0:
256,192,142618,12,0,143904,0:0:0:0:
