osu file format v14

[General]
AudioFilename: Akiakane-Melancholic Degree www.mp3facebook.com .mp3
AudioLeadIn: 2000
PreviewTime: 74368
Countdown: 0
SampleSet: None
StackLeniency: 0.4
Mode: 0
LetterboxInBreaks: 0
WidescreenStoryboard: 1

[Editor]
Bookmarks: 20904,43190,56904,74475,89475,111761,130618,145618,161475,184618,205189
DistanceSpacing: 1.2
BeatDivisor: 2
GridSize: 4
TimelineZoom: 1.1

[Metadata]
Title:Melancholic Degree
TitleUnicode:Melancholic Degree
Artist:Akiakane
ArtistUnicode:秋赤音
Creator:UndeadCapulet
Version:Collab Easy
Source:
Tags:SQUARE koyoriP 電ポルP yugijedi jonawaga jbhyperion orza6006
BeatmapID:732825
BeatmapSetID:311447

[Difficulty]
HPDrainRate:2
CircleSize:3
OverallDifficulty:2
ApproachRate:3
SliderMultiplier:0.9
SliderTickRate:1

[Events]
//Background and Video events
0,0,"Vocaloid.full.1745722 Cropped.jpg",0,0
//Break Periods
2,104904,110321
2,132333,143904
2,180333,183178
//Storyboard Layer 0 (Background)
//Storyboard Layer 1 (Fail)
//Storyboard Layer 2 (Pass)
//Storyboard Layer 3 (Foreground)
//Storyboard Sound Samples

[TimingPoints]
333,428.571428571429,4,3,77,50,1,0
7190,-100,4,3,77,70,0,0
21118,-100,4,3,78,60,0,0
33761,-100,4,3,77,70,0,0
43190,-100,4,3,78,60,0,0
56904,-100,4,3,77,70,0,0
75761,-100,4,3,77,80,0,1
103190,-100,4,3,78,50,0,0
111761,-100,4,3,77,60,0,0
130618,-100,4,3,78,50,0,0
145618,-100,4,3,77,60,0,0
146475,-100,4,3,78,70,0,0
147333,-100,4,3,77,60,0,0
147761,-100,4,3,77,80,0,1
175190,-100,4,3,77,50,0,0
176904,-100,4,3,77,80,0,1
178618,-100,4,3,78,50,0,0
184618,428.571428571429,4,3,77,70,1,0

[Colours]
Combo1 : 78,243,177
Combo2 : 255,149,244

[HitObjects]
96,128,333,6,0,L|372:108,1,270,8|0,0:0|0:0,0:0:0:0:
416,204,2047,2,0,L|146:223,1,270,8|0,0:0|0:0,0:0:0:0:
100,320,3761,2,0,L|369:339,1,270,8|0,0:0|0:0,0:0:0:0:
468,292,5475,1,2,0:0:0:0:
468,292,6761,5,8,0:0:0:0:
460,184,7190,2,0,L|264:160,1,180,4|0,0:0|0:0,0:0:0:0:
96,272,8904,2,0,L|288:256,1,180,2|0,0:0|0:0,0:0:0:0:
384,260,10190,5,8,0:0:0:0:
472,196,10618,2,0,L|444:8,1,180,2|0,0:0|0:0,0:0:0:0:
240,80,12333,2,0,P|248:188|152:316,1,270,2|0,0:0|0:0,0:0:0:0:
264,332,14047,6,0,L|444:304,1,180,2|0,0:0|0:0,0:0:0:0:
236,244,15761,2,0,L|56:216,1,180,2|0,0:0|0:0,0:0:0:0:
240,100,17475,6,0,L|436:96,1,180,2|0,0:0|0:0,0:0:0:0:
320,288,19190,2,0,L|224:312,2,90,8|0|0,0:0|0:0|0:0,0:0:0:0:
428,300,20475,1,8,0:0:0:0:
384,200,20904,6,0,P|356:116|280:68,1,180,2|2,0:0|0:0,0:0:0:0:
104,192,22618,2,0,L|12:208,2,90,2|0|2,0:0|0:0|0:0,0:0:0:0:
208,220,23904,1,0,0:0:0:0:
268,132,24333,6,0,P|332:80|392:76,2,135,2|0|0,0:0|0:0|0:0,0:0:0:0:
312,228,26047,1,2,0:0:0:0:
128,340,26904,2,0,L|32:328,1,90,2|2,0:0|0:0,0:0:0:0:
92,236,27761,6,0,L|272:204,1,180,2|0,0:0|0:0,0:0:0:0:
464,116,29475,2,0,L|480:24,2,90,2|0|0,0:0|0:0|0:0,0:0:0:0:
388,192,30761,1,2,0:0:0:0:
364,296,31190,6,0,P|310:358|251:372,2,135,2|0|0,0:0|0:0|0:0,0:0:0:0:
284,224,32904,1,2,0:0:0:0:
88,132,33761,2,0,L|50:42,1,90,0|2,0:0|0:0,0:0:0:0:
160,52,34618,6,0,L|235:227,1,180,4|0,0:0|0:0,0:0:0:0:
440,268,36333,2,0,L|365:93,1,180,2|0,0:0|0:0,0:0:0:0:
272,60,37618,1,8,0:0:0:0:
172,104,38047,6,0,L|97:279,1,180,2|0,0:0|0:0,0:0:0:0:
364,324,39975,6,0,P|412:192|364:76,1,270,8|8,0:0|0:0,0:0:0:0:
52,176,43190,6,0,P|150:175|208:116,1,180,2|0,0:0|0:0,0:0:0:0:
212,336,44904,2,0,P|128:324|104:332,2,90,2|0|0,0:0|0:0|0:0,0:0:0:0:
316,312,46190,1,2,0:0:0:0:
372,220,46618,6,0,P|332:188|340:76,2,135,2|0|0,0:0|0:0|0:0,0:0:0:0:
316,312,48333,1,2,0:0:0:0:
144,184,49190,2,0,L|152:280,1,90,2|2,0:0|0:0,0:0:0:0:
212,364,50047,6,0,P|192:308|348:232,1,270,2|8,0:0|0:0,0:0:0:0:
364,120,51761,2,0,P|316:40|336:0,2,135,2|0|8,0:0|0:0|0:0,0:0:0:0:
256,132,53475,5,2,0:0:0:0:
220,344,54333,2,0,L|328:356,2,90,2|8|0,0:0|0:0|0:0,0:0:0:0:
148,264,55618,2,0,L|40:276,1,90,8|8,0:0|0:0,0:0:0:0:
212,124,56904,5,4,0:0:0:0:
308,172,57333,2,0,L|344:256,2,90,8|0|8,0:0|0:0|0:0,0:0:0:0:
300,64,58618,2,0,P|384:48|464:140,1,180,2|0,0:0|0:0,0:0:0:0:
348,292,60333,6,0,B|256:292|256:292|180:244,1,180,2|0,0:0|0:0,0:0:0:0:
44,76,62047,1,0,0:0:0:0:
152,92,62475,2,0,L|232:32,2,90,10|0|8,0:0|0:0|0:0,0:0:0:0:
84,176,63761,5,2,0:0:0:0:
108,280,64190,2,0,L|36:352,2,90,8|0|8,0:0|0:0|0:0,0:0:0:0:
212,308,65475,2,0,P|296:324|376:232,1,180,2|0,0:0|0:0,0:0:0:0:
308,60,67190,6,0,L|132:16,1,180,4|0,0:0|0:0,0:0:0:0:
168,120,68475,1,8,0:0:0:0:
244,196,68904,2,0,L|69:239,1,180
140,320,70190,1,8,0:0:0:0:
248,320,70618,6,0,L|328:384,2,90,4|8|0,0:0|0:0|0:0,0:0:0:0:
368,140,72333,2,0,L|427:69,1,90,2|8,0:0|0:0,0:0:0:0:
322,37,73190,2,0,L|264:105,1,90,0|12,0:0|0:0,0:0:0:0:
396,276,74475,6,0,L|204:280,1,180
196,172,75761,6,0,L|180:64,2,90,4|8|0,0:0|0:0|0:0,0:0:0:0:
268,92,77047,1,8,0:0:0:0:
352,160,77475,2,0,L|356:352,1,180,2|2,0:0|0:0,0:0:0:0:
260,292,78761,1,4,0:0:0:0:
160,336,79190,6,0,P|112:288|136:96,1,270,2|8,0:0|0:0,0:0:0:0:
228,60,80904,1,8,0:0:0:0:
324,80,81333,2,0,P|268:88|284:192,1,180,8|4,0:0|0:0,0:0:0:0:
356,260,82618,6,0,L|448:248,2,90,2|8|0,0:0|0:0|0:0,0:0:0:0:
248,240,83904,1,8,0:0:0:0:
148,276,84333,1,0,0:0:0:0:
56,220,84761,1,8,0:0:0:0:
148,164,85190,2,0,L|32:164,1,90,2|0,0:0|0:0,0:0:0:0:
132,84,86047,6,0,L|312:68,1,180,2|8,0:0|0:0,0:0:0:0:
420,256,87761,2,0,B|380:312|328:316|328:316|252:300|220:188,1,270,8|0,0:0|0:0,0:0:0:0:
224,100,89475,5,4,0:0:0:0:
132,156,89904,2,0,P|118:201|136:264,2,90,8|0|8,0:0|0:0|0:0,0:0:0:0:
226,207,91190,2,0,P|268:217|313:207,1,90,0|8,0:0|0:0,0:0:0:0:
408,156,92047,1,8,0:0:0:0:
188,116,92904,6,0,P|124:204|136:280,1,180,2|8,0:0|0:0,0:0:0:0:
193,358,94190,1,8,0:0:0:0:
276,289,94618,2,0,P|260:241|192:213,1,90,2|8,0:0|0:0,0:0:0:0:
130,184,95475,1,4,0:0:0:0:
324,92,96333,6,0,P|384:104|424:132,2,90,2|8|0,0:0|0:0|0:0,0:0:0:0:
268,184,97618,1,8,0:0:0:0:
212,276,98047,2,0,P|152:264|112:236,2,90,0|8|2,0:0|0:0|0:0,0:0:0:0:
428,288,99761,6,0,B|524:256|476:140|476:140|426:151|383:120,1,270,10|0,0:0|0:0,0:0:0:0:
452,32,101475,1,8,0:0:0:0:
344,28,101904,2,0,P|301:65|284:110,1,90,8|0,0:0|0:0,0:0:0:0:
272,201,102761,1,8,0:0:0:0:
176,252,103190,5,2,0:0:0:0:
212,148,111761,6,0,L|108:152,2,90,0|0|8,0:0|0:0|0:0,0:0:0:0:
344,320,113475,2,0,L|352:172,2,135
244,280,115190,6,0,L|224:168,2,90,0|0|8,0:0|0:0|0:0,0:0:0:0:
356,96,116904,1,0,0:0:0:0:
140,92,117761,2,0,P|108:144|144:260,1,180,8|2,0:0|0:0,0:0:0:0:
236,292,119047,6,0,L|344:296,2,90,0|8|0,0:0|0:0|0:0,0:0:0:0:
156,220,120333,2,0,P|212:188|152:104,1,180,0|8,0:0|0:0,0:0:0:0:
380,68,122047,6,0,L|368:168,2,90,2|0|8,0:0|0:0|0:0,0:0:0:0:
188,172,123761,2,0,P|244:192|228:312,1,180,0|8,0:0|0:0,0:0:0:0:
140,328,125047,1,2,0:0:0:0:
108,224,125475,6,0,L|12:232,2,90,2|0|8,0:0|0:0|0:0,0:0:0:0:
296,116,127190,1,0,0:0:0:0:
308,332,128047,2,0,L|192:336,1,90,8|0,0:0|0:0,0:0:0:0:
152,248,128904,6,0,B|220:276|276:236|304:208|308:160|292:104|252:88|200:88|180:120|168:148|208:184,1,360,2|2,0:0|0:0,0:0:0:0:
192,128,145618,5,4,0:0:0:0:
124,212,146047,1,8,0:0:0:0:
56,128,146475,2,0,P|60:80|80:44,2,90,2|2|8,0:0|0:0|0:0,0:0:0:0:
164,112,147761,6,0,P|200:80|240:69,2,90,4|0|8,0:0|0:0|0:0,0:0:0:0:
124,212,149047,1,0,0:0:0:0:
224,252,149475,2,0,P|256:288|267:328,2,90,8|8|2,0:0|0:0|0:0,0:0:0:0:
324,60,151190,6,0,L|407:12,2,90,8|0|8,0:0|0:0|0:0,0:0:0:0:
256,144,152475,1,0,0:0:0:0:
188,60,152904,2,0,P|141:30|107:25,1,90,8|0,0:0|0:0,0:0:0:0:
108,136,153761,1,4,0:0:0:0:
178,217,154190,1,0,0:0:0:0:
284,232,154618,6,0,B|372:244|372:244|358:295|388:341,1,180,2|8,0:0|0:0,0:0:0:0:
476,276,155904,1,0,0:0:0:0:
448,172,156333,1,8,0:0:0:0:
368,100,156761,2,0,L|320:112,2,45,0|0|8,0:0|0:0|0:0,0:0:0:0:
472,64,157618,1,8,0:0:0:0:
448,172,158047,6,0,B|416:260|300:252|300:252|296:308|240:344,1,270,4|0,0:0|0:0,0:0:0:0:
193,244,159761,1,0,0:0:0:0:
256,156,160190,2,0,P|272:112|264:68,2,90,8|0|8,0:0|0:0|0:0,0:0:0:0:
300,252,161475,6,0,P|368:288|416:288,1,90,4|8,0:0|0:0,0:0:0:0:
408,184,162333,1,0,0:0:0:0:
336,104,162761,2,0,L|448:88,2,90,8|0|8,0:0|0:0|0:0,0:0:0:0:
232,76,164047,1,8,0:0:0:0:
96,244,164904,6,0,P|164:236|304:264,1,180,2|8,0:0|0:0,0:0:0:0:
372,296,166190,1,0,0:0:0:0:
388,188,166618,2,0,P|464:168|488:180,2,90,8|0|12,0:0|0:0|0:0,0:0:0:0:
172,176,168333,6,0,L|72:176,1,90,2|8,0:0|0:0,0:0:0:0:
148,260,169190,2,0,L|48:260,1,90,0|8,0:0|0:0,0:0:0:0:
120,348,170047,2,0,P|200:336|232:224,1,180,0|8,0:0|0:0,0:0:0:0:
312,172,171333,1,8,0:0:0:0:
272,72,171761,6,0,L|144:88,2,90,2|0|8,0:0|0:0|0:0,0:0:0:0:
356,272,173475,2,0,P|328:204|224:348,1,360,2|4,0:0|0:0,0:0:0:0:
356,48,176475,1,8,0:0:0:0:
380,152,176904,6,0,B|200:152|200:152|244:232|244:232|240:360,1,360,4|2,0:0|0:0,0:0:0:0:
92,240,184618,6,0,B|156:304|156:304|244:320,1,180,4|0,0:0|0:0,0:0:0:0:
340,272,185903,1,8,0:0:0:0:
292,176,186332,2,0,B|356:112|356:112|444:96,1,180,2|0,0:0|0:0,0:0:0:0:
232,52,188046,6,0,L|144:32,2,90,2|0|0,0:0|0:0|0:0,0:0:0:0:
312,124,189332,1,8,0:0:0:0:
208,160,189760,2,0,B|124:240|200:316|200:316|232:272|276:276,1,270,2|8,0:0|0:0,0:0:0:0:
380,248,191475,6,0,P|440:168|440:92,1,180,2|0,0:0|0:0,0:0:0:0:
236,168,193189,2,0,P|176:248|176:324,1,180,2|0,0:0|0:0,0:0:0:0:
392,316,194903,6,0,B|444:296|476:328|476:328|532:244|452:164,1,270,2|8,0:0|0:0,0:0:0:0:
356,120,196618,1,2,0:0:0:0:
272,52,197046,2,0,P|312:19|365:13,2,90,8|8|8,0:0|0:0|0:0,0:0:0:0:
256,160,198332,6,0,L|136:300,1,180,4|8,0:0|0:0,0:0:0:0:
168,84,200046,2,0,P|252:44|332:72,1,180,2|8,0:0|0:0,0:0:0:0:
392,160,201332,1,8,0:0:0:0:
304,220,201760,6,0,L|132:288,1,180,2|8,0:0|0:0,0:0:0:0:
348,328,203475,2,0,P|411:260|410:175,1,180,2|8,0:0|0:0,0:0:0:0:
244,36,205189,6,0,L|212:312,1,270,4|8,0:0|0:0,0:0:0:0:
116,252,206903,6,0,L|108:132,1,90,8|8,0:0|0:0,0:0:0:0:
24,152,207760,2,0,L|52:56,1,90,8|8,0:0|0:0,0:0:0:0:
156,44,208618,2,0,P|272:84|360:88,1,180,2|8,0:0|0:0,0:0:0:0:
464,260,210332,5,2,0:0:0:0:
248,284,211189,2,0,P|240:220|232:188,1,90,2|0,0:0|0:0,0:0:0:0:
136,240,212046,1,8,0:0:0:0:
272,72,212903,2,0,P|336:64|368:56,1,90,2|0,0:0|0:0,0:0:0:0:
432,140,213760,1,8,0:0:0:0:
232,220,214618,2,0,P|240:284|248:316,1,90,2|0,0:0|0:0,0:0:0:0:
144,344,215475,5,10,0:0:0:0:
148,236,215903,1,8,0:0:0:0:
156,128,216332,1,10,0:0:0:0:
164,20,216760,2,0,B|244:12|332:28|364:64|364:64|320:132|192:84,1,360,0|4,0:0|0:0,0:0:0:0:
