osu file format v14

[General]
AudioFilename: audio.mp3
AudioLeadIn: 0
PreviewTime: 128554
Countdown: 0
SampleSet: Drum
StackLeniency: 0.4
Mode: 0
LetterboxInBreaks: 0
WidescreenStoryboard: 1

[Editor]
Bookmarks: 68987,128642,175598
DistanceSpacing: 0.5
BeatDivisor: 4
GridSize: 32
TimelineZoom: 2.699999

[Metadata]
Title:SHALLYS
TitleUnicode:シャルイース
Artist:Aki Rosenthal
ArtistUnicode:アキ・ローゼンタール
Creator:Vararaup
Version:Hard
Source:
Tags:folk construct language iredi nooj m_i_x frozz -keqing hololive ホロライブ vtuber virtual tuber
BeatmapID:4073895
BeatmapSetID:1948401

[Difficulty]
HPDrainRate:4
CircleSize:3.6
OverallDifficulty:6
ApproachRate:7.5
SliderMultiplier:1.8
SliderTickRate:1

[Events]
//Background and Video events
0,0,"yande.re 678495 aki_rosenthal hololive ninniku_mashimashi.jpg",0,0
//Break Periods
//Storyboard Layer 0 (Background)
//Storyboard Layer 1 (Fail)
//Storyboard Layer 2 (Pass)
//Storyboard Layer 3 (Foreground)
//Storyboard Layer 4 (Overlay)
//Storyboard Sound Samples

[TimingPoints]
2785,500,3,3,1,60,1,0
31487,500,3,3,1,60,1,0
122987,-100,3,3,1,60,0,0
124487,491.803278688525,3,3,1,60,1,0
125962,461.538461538462,3,3,1,60,1,0
128000,650.759219088937,3,3,1,60,1,0
128650,434.782608695652,3,3,2,70,1,0
128650,-90.9090909090909,3,3,2,70,0,0
128867,-90.9090909090909,3,3,1,70,0,0
133867,-90.9090909090909,3,3,2,70,0,0
134084,-90.9090909090909,3,3,1,70,0,0
139084,-90.9090909090909,3,3,2,70,0,0
139302,-90.9090909090909,3,3,1,70,0,0
144302,-90.9090909090909,3,3,2,70,0,0
144519,-90.9090909090909,3,3,1,70,0,0
145606,-90.9090909090909,3,3,2,70,0,0
145823,-90.9090909090909,3,3,1,70,0,0
146910,-90.9090909090909,3,3,2,70,0,0
147128,-90.9090909090909,3,3,1,70,0,0
149084,444.444444444445,3,3,1,70,1,0
149084,-90.9090909090909,3,3,1,70,0,0
149528,434.782608695652,3,2,1,40,1,0
149528,-90.9090909090909,3,2,1,40,0,0
159962,-90.9090909090909,3,3,1,70,0,0
175614,-100,3,3,1,70,0,0
190815,410.958904109589,3,3,1,70,1,0
190815,-100,3,3,1,70,0,0
191225,461.538461538461,3,3,1,50,1,0
191686,535.714285714285,3,3,1,46,1,0
192221,422.535211267605,3,3,1,42,1,0
192643,508.474576271186,3,3,1,38,1,0
192897,566.037735849056,3,3,1,34,1,0
194170,470.219435736677,3,3,1,40,1,0
195580,479.999999999999,3,2,1,50,1,0
195580,-111.111111111111,3,2,1,50,0,0
207099,-100,3,3,1,50,0,0
214299,561.797752808989,3,3,1,50,1,0
214860,545.454545454545,3,3,1,50,1,0
215405,487.80487804878,3,3,1,50,1,0
215892,461.538461538461,3,3,1,50,1,0
218661,-83.3333333333333,3,3,2,70,0,0
218892,-83.3333333333333,3,3,1,70,0,0
229738,-83.3333333333333,3,3,2,70,0,0
229968,-83.3333333333333,3,3,1,70,0,0
240815,-83.3333333333333,3,3,2,70,0,0
241045,-83.3333333333333,3,3,1,70,0,0
243584,-83.3333333333333,3,3,2,70,0,0
243815,-83.3333333333333,3,3,1,70,0,0
246353,-83.3333333333333,3,3,2,70,0,0
246584,-83.3333333333333,3,3,1,70,0,0
251891,-83.3333333333333,3,3,2,70,0,0
252122,-83.3333333333333,3,3,1,70,0,0
253276,-100,3,3,1,70,0,0
255584,-125,3,2,1,50,0,0

[Colours]
Combo1 : 184,239,69
Combo2 : 255,185,79
Combo3 : 255,85,85
Combo4 : 255,83,148

[HitObjects]
34,274,32987,6,0,B|135:287|86:347|186:356,1,180,14|8,0:1|2:2,0:0:0:0:
256,286,33737,1,0,0:0:0:0:
335,344,33987,2,0,P|355:303|355:259,1,90,10|0,0:2|2:0,0:0:0:0:
302,175,34487,6,0,P|341:98|432:101,1,180,10|8,0:1|2:2,0:0:0:0:
489,172,35237,1,2,0:2:0:0:
506,269,35487,2,0,P|441:249|374:238,1,135,10|0,0:2|2:0,0:0:0:0:
339,249,35987,6,0,P|347:293|345:338,1,90,14|0,0:1|2:0,0:0:0:0:
250,308,36487,2,0,P|215:338|175:358,1,90,10|0,0:2|2:0,0:0:0:0:
165,263,36987,1,10,0:2:0:0:
165,263,37237,1,0,0:0:0:0:
81,209,37487,6,0,B|70:235|64:264|64:264|92:314|94:381,2,180,10|8|10,0:1|2:2|2:2,0:0:0:0:
27,125,38737,1,2,0:2:0:0:
86,46,38987,6,0,P|116:78|159:91,1,90,14|0,0:1|2:0,0:0:0:0:
252,56,39487,2,0,P|245:101|241:145,1,90,10|0,0:2|2:0,0:0:0:0:
154,194,39987,2,0,P|160:238|164:283,1,90,10|0,0:2|2:0,0:0:0:0:
233,352,40487,6,0,P|259:315|301:303,1,90,10|0,0:1|2:0,0:0:0:0:
341,313,40862,1,0,0:0:0:0:
341,313,40987,1,8,0:2:0:0:
439,315,41237,1,2,0:2:0:0:
438,216,41487,2,0,B|430:150|390:169|380:97,1,135,10|0,0:2|2:0,0:0:0:0:
387,64,41987,6,0,P|472:57|504:135,2,180,14|8|10,0:1|2:2|2:2,0:0:0:0:
308,124,43237,1,0,0:0:0:0:
246,46,43487,5,10,0:1:0:0:
246,46,43987,1,8,0:2:0:0:
48,58,44487,2,0,P|109:77|93:153,1,135,10|0,0:2|2:0,0:0:0:0:
87,166,44987,6,0,P|175:145|264:132,1,180,14|8,0:1|2:2,0:0:0:0:
362,122,45737,1,0,0:0:0:0:
459,107,45987,2,0,P|445:150|436:193,1,90,10|0,0:2|2:0,0:0:0:0:
435,301,46487,6,0,B|430:281|430:281|355:272|374:219|291:209,1,180,10|8,0:1|2:2,0:0:0:0:
194,224,47237,1,2,0:2:0:0:
134,302,47487,2,0,P|90:299|53:274,1,90,10|0,0:2|2:0,0:0:0:0:
44,175,47987,6,0,B|77:123|112:148|149:94,1,135,14|0,0:1|2:0,0:0:0:0:
156,61,48487,2,0,P|198:80|241:93,1,90,10|0,0:2|2:0,0:0:0:0:
284,187,48987,1,10,0:2:0:0:
284,187,49237,1,0,0:0:0:0:
248,279,49487,6,0,P|169:245|162:159,1,180,10|8,0:1|2:2,0:0:0:0:
241,93,50237,1,0,0:0:0:0:
333,127,50487,2,0,P|333:171|336:216,1,90,10|2,0:2|2:2,0:0:0:0:
433,263,50987,6,0,P|424:172|425:84,1,180,14|10,0:1|2:2,0:0:0:0:
357,10,51737,1,0,0:0:0:0:
290,83,51987,2,0,P|256:56|212:48,1,90,10|0,0:2|2:0,0:0:0:0:
147,124,52487,6,0,B|123:101|113:70|113:70|55:43|0:63,1,180,10|10,0:1|2:2,0:0:0:0:
3,161,53237,1,0,0:0:0:0:
97,190,53487,2,0,P|121:251|98:313,1,135,10|0,0:2|2:0,0:0:0:0:
80,345,53987,6,0,P|162:308|250:320,1,180,14|8,0:1|2:2,0:0:0:0:
342,353,54737,1,2,0:2:0:0:
437,328,54987,1,10,0:2:0:0:
415,231,55237,1,0,0:0:0:0:
322,266,55487,6,0,P|331:179|413:133,1,180,10|8,0:1|2:2,0:0:0:0:
404,133,56487,1,10,0:2:0:0:
250,8,56987,6,0,B|236:33|221:46|221:46|262:102|248:171,1,180,14|8,0:1|2:2,0:0:0:0:
191,252,57737,1,0,0:0:0:0:
92,255,57987,2,0,P|58:226|44:183,1,90,10|0,0:2|2:0,0:0:0:0:
105,106,58487,6,0,B|210:115|164:171|263:181,1,180,10|8,0:1|2:2,0:0:0:0:
355,147,59237,1,2,0:2:0:0:
423,218,59487,2,0,P|410:260|380:293,1,90,10|0,0:2|2:0,0:0:0:0:
292,340,59987,5,10,0:1:0:0:
95,363,60487,1,10,0:2:0:0:
72,170,60987,1,10,0:2:0:0:
72,170,61237,1,0,0:0:0:0:
3,241,61487,6,0,P|92:249|181:264,1,180,10|8,0:1|2:2,0:0:0:0:
181,264,62487,1,10,0:2:0:0:
256,328,62737,1,2,0:2:0:0:
346,287,62987,6,0,B|307:241|320:184|320:184|355:167|389:181,1,180,14|8,0:1|2:2,0:0:0:0:
472,232,63737,1,0,0:0:0:0:
465,330,63987,2,0,P|426:353|382:360,1,90,10|0,0:2|2:0,0:0:0:0:
283,349,64487,6,0,P|243:268|236:179,1,180,10|8,0:1|2:2,0:0:0:0:
268,86,65237,1,2,0:2:0:0:
364,62,65487,2,0,P|431:89|484:49,1,135,10|0,0:2|2:0,0:0:0:0:
504,30,65987,6,0,B|493:110|490:168|490:168|500:186|503:206,2,180,10|8|8,0:1|2:2|2:2,0:0:0:0:
406,13,67237,1,0,0:0:0:0:
328,73,67487,5,8,0:1:0:0:
328,73,67612,2,0,P|269:104|206:85,1,135,0|8,0:0|2:2,0:0:0:0:
123,31,68237,1,0,0:0:0:0:
35,77,68487,2,0,P|92:111|110:174,1,135,10|0,0:2|2:0,0:0:0:0:
97,208,68987,6,0,B|93:244|127:264|127:264|162:220|221:209,1,180,14|8,0:1|2:2,0:0:0:0:
320,197,69737,1,0,0:0:0:0:
365,108,69987,2,0,P|398:139|417:179,1,90,10|0,0:2|2:0,0:0:0:0:
471,261,70487,6,0,P|426:265|382:274,1,90,10|0,0:1|2:0,0:0:0:0:
350,285,70862,1,0,0:0:0:0:
350,285,70987,1,8,0:2:0:0:
268,341,71237,1,2,0:2:0:0:
182,290,71487,2,0,P|177:334|176:379,1,90,10|0,0:2|2:0,0:0:0:0:
88,333,71987,6,0,B|80:269|35:281|29:216,1,135,10|0,0:1|2:0,0:0:0:0:
30,183,72487,2,0,P|55:147|99:130,1,90,10|0,0:2|2:0,0:0:0:0:
132,135,72862,1,0,0:0:0:0:
132,135,72987,2,0,P|170:157|214:160,1,90,10|0,0:2|2:0,0:0:0:0:
300,209,73487,6,0,P|307:121|247:58,1,180,10|8,0:1|2:2,0:0:0:0:
51,27,74487,1,10,0:2:0:0:
101,111,74737,1,2,0:2:0:0:
61,201,74987,6,0,P|150:208|238:228,1,180,14|8,0:1|2:2,0:0:0:0:
331,263,75737,1,2,0:2:0:0:
365,172,75987,1,10,0:2:0:0:
365,172,76237,1,0,0:0:0:0:
462,189,76487,2,0,B|455:226|421:256|421:256|436:306|420:355,2,180,10|8|10,0:1|2:2|2:2,0:0:0:0:
355,29,77987,6,0,P|324:86|345:148,1,135,10|0,0:1|2:0,0:0:0:0:
365,172,78487,1,8,0:2:0:0:
496,24,78987,1,8,0:2:0:0:
496,24,79237,1,0,0:0:0:0:
494,122,79487,6,0,B|464:91|404:81|404:81|356:104|272:86|272:86|261:102|250:113,1,270,8|0,0:1|2:0,0:0:0:0:
185,189,80487,2,0,P|155:129|166:63,1,135,10|0,0:2|2:0,0:0:0:0:
183,38,80987,6,0,P|259:80|279:165,2,180,14|8|10,0:1|2:2|2:2,0:0:0:0:
89,70,82237,1,0,0:0:0:0:
53,162,82487,2,0,B|78:190|83:257|42:295|76:343,1,180,10|8,0:1|2:2,0:0:0:0:
168,355,83237,1,2,0:2:0:0:
230,277,83487,2,0,P|296:274|347:316,1,135,10|0,0:2|2:0,0:0:0:0:
369,343,83987,6,0,P|413:346|458:354,1,90,14|0,0:1|2:0,0:0:0:0:
423,260,84487,2,0,P|467:263|512:271,1,90,10|0,0:2|2:0,0:0:0:0:
492,178,84987,1,10,0:2:0:0:
492,178,85237,1,0,0:0:0:0:
484,79,85487,6,0,B|427:81|391:39|391:39|384:87|377:112,1,180,10|8,0:1|2:2,0:0:0:0:
377,112,86487,1,10,0:2:0:0:
278,101,86737,1,2,0:2:0:0:
192,151,86987,6,0,P|187:88|126:73,1,135,14|0,0:1|2:0,0:0:0:0:
93,86,87487,2,0,P|97:130|101:175,1,90,10|0,0:2|2:0,0:0:0:0:
149,258,87987,2,0,P|144:302|140:347,1,90,10|0,0:2|2:0,0:0:0:0:
41,342,88487,6,0,B|137:337|107:285|205:280,1,180,10|8,0:1|2:2,0:0:0:0:
294,322,89237,1,2,0:2:0:0:
366,254,89487,1,10,0:2:0:0:
328,162,89737,1,0,0:0:0:0:
229,170,89987,6,0,P|257:88|340:61,2,180,14|8|10,0:1|2:2|2:2,0:0:0:0:
285,251,91237,1,0,0:0:0:0:
328,162,91487,2,0,B|440:131|429:195|494:220,1,180,10|8,0:1|2:2,0:0:0:0:
486,216,92487,5,10,0:2:0:0:
450,308,92737,1,2,0:2:0:0:
351,316,92987,2,0,B|346:265|312:226|312:226|297:187|281:151,1,180,14|8,0:1|2:2,0:0:0:0:
436,34,93987,1,10,0:2:0:0:
436,34,94237,1,0,0:0:0:0:
510,98,94487,6,0,P|473:123|429:131,1,90,10|0,0:1|2:0,0:0:0:0:
336,95,94987,2,0,P|330:139|344:182,1,90,8|2,0:2|2:2,0:0:0:0:
394,273,95487,1,10,0:2:0:0:
394,273,95737,1,0,0:0:0:0:
313,330,95987,6,0,P|271:255|185:245,1,180,14|10,0:1|2:2,0:0:0:0:
103,303,96737,1,0,0:0:0:0:
17,265,96987,1,10,0:2:0:0:
17,265,97237,1,0,0:0:0:0:
97,206,97487,6,0,P|63:176|21:161,2,90,10|0|8,0:1|2:0|2:2,0:0:0:0:
165,276,98237,1,0,0:0:0:0:
247,221,98487,2,0,P|228:181|196:150,1,90,10|2,0:2|2:2,0:0:0:0:
120,84,98987,6,0,P|156:59|200:49,1,90,14|0,0:1|2:0,0:0:0:0:
293,83,99487,2,0,P|334:99|379:98,1,90,10|0,0:2|2:0,0:0:0:0:
468,52,99987,1,10,0:2:0:0:
489,148,100237,1,0,0:0:0:0:
411,209,100487,6,0,P|416:253|420:298,1,90,10|0,0:1|2:0,0:0:0:0:
338,352,100987,1,10,0:2:0:0:
338,352,101237,1,0,0:0:0:0:
241,329,101487,1,10,0:2:0:0:
281,168,101987,6,0,P|250:87|165:73,1,180,14|8,0:1|2:2,0:0:0:0:
74,32,102737,1,2,0:2:0:0:
30,122,102987,1,10,0:2:0:0:
30,122,103237,1,0,0:0:0:0:
51,218,103487,2,0,B|98:287|136:244|187:301|187:301|190:247|243:224|243:224|281:259|275:309,1,360,10|8,0:1|2:2,0:0:0:0:
274,309,104987,1,12,0:1:0:0:
480,275,105487,5,10,0:2:0:0:
480,275,105737,1,2,0:2:0:0:
385,266,105987,1,10,0:2:0:0:
385,266,106237,1,2,0:2:0:0:
424,356,106487,5,10,0:1:0:0:
442,179,106987,1,10,0:2:0:0:
461,17,107487,5,10,0:2:0:0:
461,17,107737,1,2,0:2:0:0:
368,52,107987,1,10,0:1:0:0:
368,52,108737,5,2,0:2:0:0:
282,98,108987,1,10,0:2:0:0:
282,98,109237,1,2,0:2:0:0:
186,70,109487,2,0,P|145:50|103:33,1,90,10|2,0:1|2:2,0:0:0:0:
23,91,109987,2,0,B|31:194|91:145|101:245,1,180,10|8,0:2|2:2,0:0:0:0:
101,245,110987,1,12,0:1:0:0:
246,344,111487,5,2,0:2:0:0:
246,344,111737,1,2,0:2:0:0:
221,253,111987,1,10,0:2:0:0:
221,253,112237,1,2,0:2:0:0:
278,172,112487,2,0,P|277:128|281:83,2,90,10|2|10,0:1|2:2|2:2,0:0:0:0:
120,112,113487,5,10,0:2:0:0:
191,43,113737,1,2,0:2:0:0:
281,82,113987,2,0,B|348:73|346:102|406:92|406:92|428:111|453:115,2,180,10|8|8,0:1|2:2|2:2,0:0:0:0:
201,141,115237,1,0,0:0:0:0:
114,104,115487,5,8,0:1:0:0:
114,104,115612,2,0,P|61:144|51:209,1,135,0|8,0:0|2:2,0:0:0:0:
64,307,116237,1,0,0:0:0:0:
161,289,116487,1,8,0:2:0:0:
161,289,116987,1,12,0:1:0:0:
363,259,117487,5,10,0:2:0:0:
363,259,117737,1,2,0:2:0:0:
446,203,117987,1,10,0:2:0:0:
446,203,118237,1,2,0:2:0:0:
427,105,118487,2,0,P|467:86|512:84,2,90,10|2|10,0:1|2:2|2:2,0:0:0:0:
351,169,119237,1,2,0:2:0:0:
252,166,119487,1,10,0:2:0:0:
172,107,119737,1,2,0:2:0:0:
208,14,119987,6,0,P|205:103|208:193,1,180,10|8,0:1|2:2,0:0:0:0:
134,260,120737,1,2,0:2:0:0:
43,233,120987,1,10,0:2:0:0:
43,233,121237,1,2,0:2:0:0:
67,137,121487,6,0,P|101:163|146:172,1,90,10|2,0:1|2:2,0:0:0:0:
205,93,121987,2,0,B|211:70|229:55|229:55|292:55|362:42,1,180,10|8,0:2|2:2,0:0:0:0:
468,35,122737,1,0,0:0:0:0:
468,35,122862,1,0,0:0:0:0:
468,35,122987,1,12,0:1:0:0:
421,217,123487,5,10,0:2:0:0:
421,217,123737,1,2,0:2:0:0:
327,202,123987,1,10,0:2:0:0:
327,202,124237,1,2,0:2:0:0:
233,235,124487,2,0,P|189:227|144:223,2,90,10|2|10,0:1|2:2|2:2,0:0:0:0:
246,65,125470,5,10,0:2:0:0:
151,35,125716,1,2,0:2:0:0:
68,101,125962,2,0,B|102:228|46:199|99:296|99:296|172:280|157:182|157:182|207:225|277:200|277:200|274:160|248:142,1,540,10|8,0:1|2:1,0:0:0:0:
248,142,128000,1,10,0:2:0:0:
438,28,128650,6,0,P|497:107|508:204,1,198.000006042481,14|0,0:1|2:0,0:0:0:0:
449,295,129302,1,10,0:2:0:0:
352,244,129519,2,0,P|302:243|258:265,1,99.0000030212403,2|8,0:2|2:2,0:0:0:0:
178,337,129954,5,14,0:1:0:0:
91,290,130171,1,0,0:0:0:0:
91,290,130280,1,0,0:0:0:0:
91,290,130389,2,0,P|103:337|87:382,1,99.0000030212403,10|0,0:2|2:0,0:0:0:0:
172,245,130823,2,0,P|143:205|123:159,1,99.0000030212403,10|0,0:2|2:0,0:0:0:0:
91,55,131258,5,14,0:1:0:0:
17,136,131476,1,0,0:0:0:0:
17,136,131584,1,0,0:0:0:0:
17,136,131693,2,0,P|115:127|203:81,1,198.000006042481,0|2,0:0|2:2,0:0:0:0:
284,9,132345,1,8,0:2:0:0:
360,86,132563,6,0,P|314:101|277:134,1,99.0000030212403,10|0,0:1|2:0,0:0:0:0:
252,159,132889,1,0,0:0:0:0:
252,159,132997,2,0,P|242:207|252:255,1,99.0000030212403,8|0,0:2|2:0,0:0:0:0:
325,336,133432,1,10,0:2:0:0:
432,318,133650,1,2,0:2:0:0:
511,243,133867,6,0,B|485:219|456:212|456:212|457:147|425:111|425:111|388:72|354:120|305:94,1,297.000009063721,14|8,0:1|2:2,0:0:0:0:
213,37,134736,2,0,P|170:61|142:102,1,99.0000030212403,2|8,0:2|2:2,0:0:0:0:
153,209,135171,5,14,0:1:0:0:
55,245,135389,1,0,0:0:0:0:
55,245,135497,1,0,0:0:0:0:
55,245,135606,1,8,0:2:0:0:
81,350,135823,1,2,0:2:0:0:
186,320,136041,2,0,P|234:319|280:336,1,99.0000030212403,10|0,0:2|2:0,0:0:0:0:
384,288,136476,6,0,P|299:236|251:153,1,198.000006042481,14|0,0:1|2:0,0:0:0:0:
289,50,137128,1,8,0:2:0:0:
396,31,137345,2,0,P|440:53|477:85,1,99.0000030212403,2|8,0:2|2:2,0:0:0:0:
494,193,137780,5,10,0:1:0:0:
394,184,137997,1,0,0:0:0:0:
394,184,138106,1,0,0:0:0:0:
394,184,138215,2,0,P|375:168|358:150,4,49.5000015106202,8|0|0|0|8,0:2|0:0|0:0|0:0|0:2,0:0:0:0:
192,11,139084,6,0,B|179:122|112:71|98:176,1,198.000006042481,14|0,0:1|2:0,0:0:0:0:
55,277,139736,1,10,0:2:0:0:
124,361,139954,2,0,P|156:323|167:275,1,99.0000030212403,2|8,0:2|2:2,0:0:0:0:
197,170,140389,6,0,P|246:163|295:157,1,99.0000030212403,14|0,0:1|2:0,0:0:0:0:
332,159,140715,1,0,0:0:0:0:
332,159,140823,2,0,P|328:207|350:251,1,99.0000030212403,10|0,0:2|2:0,0:0:0:0:
456,275,141258,1,10,0:2:0:0:
494,172,141476,1,0,0:0:0:0:
499,63,141693,6,0,B|466:99|411:107|411:107|374:69|326:63,1,198.000006042481,14|0,0:1|2:0,0:0:0:0:
225,104,142345,1,8,0:2:0:0:
184,2,142563,2,0,P|143:29|119:72,1,99.0000030212403,2|8,0:2|2:2,0:0:0:0:
90,176,142997,5,10,0:1:0:0:
201,217,143215,1,0,0:0:0:0:
201,217,143323,1,0,0:0:0:0:
201,217,143432,2,0,P|238:248|249:295,1,99.0000030212403,8|0,0:2|2:0,0:0:0:0:
158,357,143867,1,10,0:2:0:0:
75,285,144084,1,2,0:2:0:0:
90,176,144302,6,0,B|92:119|327:93|327:93|343:109|353:114,1,297.000009063721,14|8,0:1|2:2,0:0:0:0:
462,122,145171,1,2,0:2:0:0:
399,32,145389,1,8,0:2:0:0:
291,16,145606,6,0,P|304:115|312:213,1,198.000006042481,14|8,0:1|2:2,0:0:0:0:
322,321,146258,1,2,0:2:0:0:
413,262,146476,2,0,P|461:270|496:303,1,99.0000030212403,10|0,0:2|2:0,0:0:0:0:
415,160,146910,6,0,B|310:175|347:232|244:249|244:249|198:254|205:288|159:296,1,297.000009063721,14|8,0:1|2:2,0:0:0:0:
51,279,147780,2,0,P|56:328|59:377,1,99.0000030212403,0|8,0:2|2:2,0:0:0:0:
159,295,148215,5,8,0:1:0:0:
163,275,148323,1,0,0:0:0:0:
163,255,148432,1,0,0:0:0:0:
169,236,148541,1,0,0:0:0:0:
169,216,148650,1,8,0:2:0:0:
83,47,149084,2,0,B|112:87|101:141|101:141|146:109|195:118,1,198.000006042481,10|6,0:2|2:2,0:0:0:0:
194,117,150832,5,6,0:2:0:0:
194,117,152136,1,6,0:2:0:0:
453,44,154745,1,6,0:2:0:0:
385,321,157354,5,6,0:2:0:0:
96,187,159962,6,0,P|93:136|56:87,1,99.0000030212403,14|0,0:1|2:0,0:0:0:0:
42,73,160288,1,0,0:0:0:0:
42,73,160397,2,0,P|7:163|47:251,1,198.000006042481,2|0,0:2|2:0,0:0:0:0:
148,289,161049,1,2,0:2:0:0:
246,242,161267,6,0,P|292:226|341:230,1,99.0000030212403,14|0,0:1|2:0,0:0:0:0:
373,246,161593,1,0,0:0:0:0:
373,246,161701,2,0,P|354:334|263:329,1,198.000006042481,10|8,0:2|2:2,0:0:0:0:
96,187,162571,6,0,B|186:158|109:129|211:73|255:98,1,198.000006042481,14|0,0:1|2:0,0:0:0:0:
363,64,163223,1,10,0:2:0:0:
363,64,163332,1,0,0:0:0:0:
363,64,163441,2,0,P|337:133|355:216,1,148.50000453186,2|0,0:2|2:0,0:0:0:0:
342,238,163875,6,0,B|399:295|477:283|477:283|452:293|435:309,1,198.000006042481,10|8,0:1|2:2,0:0:0:0:
465,103,164745,1,10,0:2:0:0:
363,64,164962,1,2,0:2:0:0:
275,128,165180,6,0,P|214:144|162:111,1,99.0000030212403,14|0,0:1|2:0,0:0:0:0:
161,108,165506,1,0,0:0:0:0:
161,108,165614,2,0,P|123:75|80:51,1,99.0000030212403,2|8,0:2|2:2,0:0:0:0:
1,126,166049,2,0,B|14:207|55:183|67:255,1,148.50000453186,2|0,0:2|2:0,0:0:0:0:
70,291,166484,6,0,P|112:314|161:310,1,99.0000030212403,14|0,0:1|2:0,0:0:0:0:
256,256,166919,2,0,P|248:207|244:157,1,99.0000030212403,10|0,0:2|2:0,0:0:0:0:
246,129,167245,1,0,0:0:0:0:
246,129,167354,1,8,0:2:0:0:
53,53,167788,6,0,P|110:90|132:132,1,99.0000030212403,10|0,0:1|2:0,0:0:0:0:
149,144,168114,1,0,0:0:0:0:
149,144,168223,2,0,P|154:96|182:55,1,99.0000030212403,2|8,0:2|2:2,0:0:0:0:
212,34,168549,1,0,0:0:0:0:
212,34,168658,1,2,0:2:0:0:
420,22,169093,6,0,P|428:71|460:108,1,99.0000030212403,10|0,0:1|2:0,0:0:0:0:
484,133,169419,1,0,0:0:0:0:
484,133,169528,2,0,P|446:164|426:208,1,99.0000030212403,10|0,0:2|2:0,0:0:0:0:
428,246,169854,1,0,0:0:0:0:
428,246,169962,1,10,0:2:0:0:
214,350,170397,5,14,0:1:0:0:
122,291,170614,2,0,P|113:314|103:336,2,49.5000015106202
28,234,171049,2,0,P|19:257|9:279,2,49.5000015106202,8|0|0,0:2|0:0|0:0,0:0:0:0:
28,234,171701,5,12,0:1:0:0:
114,168,171919,2,0,P|122:191|132:213,2,49.5000015106202,0|0|8,0:0|0:0|0:2,0:0:0:0:
200,101,172354,2,0,P|208:124|218:146,2,49.5000015106202,0|0|8,0:0|0:0|0:2,0:0:0:0:
200,101,173006,5,14,0:1:0:0:
256,192,173114,12,8,175180,2:2:0:0:
498,182,175614,6,0,B|462:142|435:240|435:240|448:271|446:309,1,180,10|0,0:0|2:0,0:0:0:0:
348,328,176267,2,0,B|332:293|334:259|334:259|275:176|255:226,1,180,10|2,0:2|2:2,0:0:0:0:
198,306,176919,5,6,0:0:0:0:
102,333,177136,1,2,0:2:0:0:
32,263,177354,2,0,P|32:219|54:180,1,90,10|0,0:2|2:0,0:0:0:0:
80,156,177680,1,0,0:0:0:0:
80,156,177788,2,0,P|48:124|35:82,1,90,10|2,0:2|2:2,0:0:0:0:
103,10,178223,5,10,0:0:0:0:
201,9,178441,1,2,0:2:0:0:
307,18,178658,1,2,0:2:0:0:
307,18,178767,1,0,0:0:0:0:
307,18,178875,2,0,P|300:62|297:107,1,90,10|2,0:2|2:2,0:0:0:0:
343,195,179310,1,2,0:2:0:0:
250,229,179528,6,0,B|280:180|189:97|87:238|206:316,1,270,6|2,0:0|2:2,0:0:0:0:
290,345,180397,2,0,P|333:332|377:323,1,90,10|2,0:2|2:2,0:0:0:0:
472,295,180832,6,0,P|484:252|498:209,1,90,10|2,0:0|2:2,0:0:0:0:
453,121,181267,1,2,0:2:0:0:
355,141,181484,1,10,0:2:0:0:
285,70,181701,1,2,0:2:0:0:
197,103,181919,5,2,0:2:0:0:
197,103,182028,1,0,0:0:0:0:
197,103,182136,2,0,P|155:79|134:45,1,90,6|2,0:0|2:2,0:0:0:0:
37,68,182571,2,0,P|37:116|18:151,1,90,10|2,0:2|2:2,0:0:0:0:
58,242,183006,1,10,0:2:0:0:
155,223,183223,1,2,0:2:0:0:
235,280,183441,6,0,P|279:279|319:261,1,90,10|2,0:0|2:2,0:0:0:0:
362,170,183875,1,2,0:2:0:0:
309,85,184093,1,10,0:2:0:0:
217,115,184310,1,2,0:2:0:0:
217,115,184528,1,2,0:2:0:0:
163,31,184745,6,0,B|191:25|219:5|219:5|378:38|378:38|392:60|406:73,1,270,6|2,0:0|2:2,0:0:0:0:
439,98,185506,1,0,0:0:0:0:
439,98,185614,2,0,P|431:143|430:188,1,90,10|2,0:2|2:2,0:0:0:0:
389,277,186049,6,0,P|409:278|433:283,3,45,10|0|0|0,0:0|0:0|0:0|0:0,0:0:0:0:
290,190,186701,2,0,P|313:192|334:196,3,45,10|0|0|0,0:2|0:0|0:0|0:0,0:0:0:0:
231,113,187354,5,6,0:0:0:0:
213,108,187462,1,0,0:0:0:0:
194,108,187571,1,0,0:0:0:0:
177,101,187680,1,0,0:0:0:0:
159,97,187788,2,0,L|96:96,3,45,10|0|0|0,0:2|0:0|0:0|0:0,0:0:0:0:
83,83,188223,2,0,P|78:127|68:171,1,90,10|2,0:2|2:2,0:0:0:0:
52,269,188658,6,0,P|92:250|136:247,1,90,10|2,0:0|2:2,0:0:0:0:
200,170,189093,2,0,P|242:184|275:213,1,90,2|10,0:2|2:2,0:0:0:0:
371,189,189528,2,0,P|390:229|393:273,1,90,2|2,0:2|2:2,0:0:0:0:
331,352,189962,5,6,0:0:0:0:
232,348,190180,1,2,0:2:0:0:
173,267,190397,1,10,0:2:0:0:
200,170,190614,1,2,0:2:0:0:
114,112,190815,6,0,P|103:93|89:74,4,45,10|0|0|0|10,0:2|0:0|0:0|0:0|0:1,0:0:0:0:
256,192,191340,12,0,194170,0:0:0:0:
46,50,195580,6,0,B|57:145|109:106|117:189,1,161.999995056153,10|0,0:1|0:0,0:0:0:0:
39,351,196540,1,2,0:2:0:0:
39,351,197020,2,0,P|106:309|186:300,1,161.999995056153,2|0,0:2|0:0,0:0:0:0:
402,356,197980,5,2,0:2:0:0:
479,297,198220,1,0,0:0:0:0:
439,206,198460,2,0,P|424:129|481:77,1,161.999995056153,10|0,0:1|0:0,0:0:0:0:
481,78,199420,1,0,0:0:0:0:
311,158,199900,2,0,B|226:146|261:101|168:87,1,161.999995056153,8|0,0:1|0:0,0:0:0:0:
170,88,200860,1,2,0:2:0:0:
362,7,201340,6,0,P|384:40|398:171,1,161.999995056153,10|2,0:1|0:2,0:0:0:0:
416,322,202300,2,0,P|381:301|341:293,1,80.9999975280763,2|0,0:2|0:0,0:0:0:0:
252,330,202779,2,0,P|256:251|321:199,2,161.999995056153,2|2|2,0:2|0:2|0:2,0:0:0:0:
42,354,204219,6,0,B|88:356|166:279|-33:209|34:84|106:106,1,323.999990112305,10|0,0:1|0:0,0:0:0:0:
201,121,205419,1,0,0:0:0:0:
247,34,205659,2,0,P|324:21|382:73,1,161.999995056153
393,170,206379,1,0,0:0:0:0:
307,218,206619,2,0,P|247:227|188:241,1,121.499996292114,2|0,0:2|0:0,0:0:0:0:
157,253,207099,6,0,P|243:277|329:305,1,180,10|0,0:1|3:0,0:0:0:0:
423,335,207819,1,8,0:2:0:0:
489,261,208059,2,0,P|484:217|482:172,1,90,10|0,0:3|2:0,0:0:0:0:
496,73,208539,6,0,B|462:63|462:63|413:124|339:134,1,180,10|8,0:1|2:2,0:0:0:0:
246,100,209259,1,2,0:2:0:0:
174,168,209499,2,0,P|170:212|187:253,1,90,2|0,0:2|2:0,0:0:0:0:
251,329,209979,5,10,0:1:0:0:
67,362,210459,1,2,0:2:0:0:
67,362,210699,1,0,0:0:0:0:
57,263,210939,2,0,P|52:218|47:173,1,90,2|0,0:2|2:0,0:0:0:0:
87,83,211419,2,0,B|117:139|184:127|184:127|209:106|242:102,2,180,10|8|0,0:1|2:2|2:0,0:0:0:0:
249,191,212859,5,10,0:1:0:0:
249,191,213339,1,2,0:2:0:0:
342,159,213579,1,8,0:2:0:0:
406,234,213819,1,2,0:2:0:0:
268,341,214299,6,0,P|185:316|171:232,1,180,10|2,0:1|2:2,0:0:0:0:
171,233,215405,1,2,0:2:0:0:
341,151,215892,5,10,0:1:0:0:
256,192,216007,12,0,218199,2:0:0:0:
478,62,218661,6,0,B|460:83|446:95|446:95|377:214|348:233,1,215.999993408203,14|0,0:1|2:0,0:0:0:0:
349,234,219584,1,10,0:2:0:0:
263,316,219815,1,0,0:0:0:0:
150,271,220045,6,0,B|126:268|76:318|76:318|-3:248|14:197,1,215.999993408203,10|8,0:1|2:2,0:0:0:0:
11,94,220738,1,2,0:2:0:0:
110,29,220968,2,0,P|162:36|202:71,1,107.999996704102,10|0,0:2|2:0,0:0:0:0:
314,29,221430,6,0,B|330:50|335:83|335:83|304:159|298:179,1,161.999995056153,14|0,0:1|2:0,0:0:0:0:
296,216,221892,2,0,P|303:261|349:309,1,107.999996704102,10|0,0:2|2:0,0:0:0:0:
459,334,222353,1,10,0:2:0:0:
477,223,222584,5,0,0:0:0:0:
477,223,222699,1,0,0:0:0:0:
477,223,222815,2,0,B|462:130|388:174|373:41,1,215.999993408203,10|8,0:1|2:2,0:0:0:0:
163,7,223738,1,10,0:2:0:0:
82,93,223968,1,2,0:2:0:0:
140,196,224199,6,0,P|190:178|243:164,1,107.999996704102,14|0,0:1|2:0,0:0:0:0:
109,288,224661,2,0,P|67:252|29:214,1,107.999996704102,10|0,0:2|2:0,0:0:0:0:
209,269,225122,2,0,P|199:322|185:374,1,107.999996704102,10|0,0:2|2:0,0:0:0:0:
33,363,225584,6,0,P|69:233|100:43,1,323.999990112305,10|2,0:1|2:2,0:0:0:0:
212,8,226507,1,10,0:2:0:0:
316,221,226968,6,0,B|338:206|338:206|268:206|210:163|189:108,2,215.999993408203,14|10|10,0:1|2:2|2:2,0:0:0:0:
211,277,228122,1,0,0:0:0:0:
126,192,228353,2,0,P|216:135|322:120,1,215.999993408203,10|4,0:1|2:3,0:0:0:0:
512,0,229276,5,10,0:2:0:0:
503,118,229507,1,2,0:2:0:0:
492,236,229738,2,0,B|415:250|393:277|393:277|357:209|327:238|280:194,1,215.999993408203,14|8,0:1|2:2,0:0:0:0:
232,125,230430,1,0,0:0:0:0:
318,42,230661,2,0,P|369:29|418:6,1,107.999996704102,10|0,0:2|2:0,0:0:0:0:
410,124,231122,6,0,P|374:225|300:303,1,215.999993408203,10|8,0:1|2:2,0:0:0:0:
191,353,231815,1,2,0:2:0:0:
92,286,232045,2,0,P|81:207|97:128,1,161.999995056153,10|0,0:2|2:0,0:0:0:0:
109,95,232507,6,0,P|187:110|255:68,1,161.999995056153,14|0,0:1|2:0,0:0:0:0:
271,39,232968,2,0,P|259:92|252:202,1,161.999995056153,10|0,0:2|2:0,0:0:0:0:
222,216,233430,2,0,P|234:269|241:324,1,107.999996704102,10|0,0:2|2:0,0:0:0:0:
224,353,233776,5,0,0:0:0:0:
224,353,233891,2,0,B|280:309|366:270|366:270|391:278|416:274,1,215.999993408203,10|4,0:1|2:3,0:0:0:0:
416,273,234815,1,10,0:2:0:0:
501,191,235045,1,2,0:2:0:0:
462,78,235276,6,0,P|383:88|301:98,1,161.999995056153,14|0,0:1|2:0,0:0:0:0:
280,66,235738,2,0,P|201:47|121:31,1,161.999995056153,10|0,0:2|2:0,0:0:0:0:
88,22,236199,2,0,P|47:88|77:160,1,161.999995056153,10|0,0:2|2:0,0:0:0:0:
106,182,236661,5,10,0:1:0:0:
307,307,237122,1,10,0:2:0:0:
329,70,237584,1,10,0:2:0:0:
139,271,238045,6,0,B|107:247|108:202|108:202|176:161|235:214,1,215.999993408203,14|8,0:1|2:2,0:0:0:0:
307,307,238738,1,2,0:2:0:0:
421,336,238968,2,0,P|445:289|446:235,1,107.999996704102,10|0,0:2|2:0,0:0:0:0:
493,127,239430,5,10,0:1:0:0:
493,127,239545,2,0,B|404:112|437:66|357:45,1,161.999995056153,0|10,0:0|2:2,0:0:0:0:
135,126,240353,2,0,P|157:201|114:269,1,161.999995056153,10|0,0:2|2:0,0:0:0:0:
86,283,240815,6,0,B|63:254|44:238|44:238|52:191|49:137,1,161.999995056153,14|0,0:1|2:0,0:0:0:0:
32,108,241276,2,0,P|85:95|191:35,1,161.999995056153,10|0,0:2|2:0,0:0:0:0:
211,31,241738,2,0,P|195:82|193:136,1,107.999996704102,10|0,0:2|2:0,0:0:0:0:
232,248,242199,1,10,0:1:0:0:
232,248,242661,5,2,0:2:0:0:
253,250,242776,1,0,0:0:0:0:
273,256,242891,1,0,0:0:0:0:
291,267,243007,1,0,0:0:0:0:
306,283,243122,1,0,0:0:0:0:
490,133,243584,6,0,P|460:43|368:43,1,161.999995056153,14|0,0:1|2:0,0:0:0:0:
371,19,244045,2,0,P|351:70|261:142,1,161.999995056153,10|0,0:2|2:0,0:0:0:0:
236,142,244507,1,10,0:2:0:0:
156,229,244738,1,0,0:0:0:0:
176,345,244968,6,0,P|229:351|283:356,1,107.999996704102,10|0,0:1|2:0,0:0:0:0:
384,273,245430,2,0,B|375:291|372:315|372:315|315:272|262:227|310:182,1,215.999993408203,2|0,0:2|2:0,0:0:0:0:
400,104,246122,1,2,0:2:0:0:
306,30,246353,6,0,B|235:92|230:56|167:112,1,161.999995056153,14|0,0:1|2:0,0:0:0:0:
136,123,246815,2,0,P|147:210|153:300,1,161.999995056153,10|0,0:2|2:0,0:0:0:0:
152,320,247276,1,10,0:2:0:0:
40,145,247738,6,0,P|114:218|213:188,2,215.999993408203,10|10|10,0:1|2:2|2:2,0:0:0:0:
98,41,248891,1,0,0:0:0:0:
211,76,249122,2,0,P|262:90|369:41,1,161.999995056153,10|0,0:1|2:0,0:0:0:0:
389,33,249584,2,0,P|374:84|387:135,1,107.999996704102,8|0,0:2|2:0,0:0:0:0:
412,166,249930,1,0,0:0:0:0:
412,166,250045,2,0,P|419:243|363:298,1,161.999995056153,10|0,0:2|2:0,0:0:0:0:
328,306,250507,6,0,B|256:315|277:234|196:245|196:245|177:219|146:211,2,215.999993408203,10|8|10,0:1|2:2|2:2,0:0:0:0:
475,72,251891,6,0,P|427:38|385:119,1,161.999995056153,14|0,0:1|2:0,0:0:0:0:
362,141,252353,2,0,P|314:107|272:188,1,161.999995056153,10|0,0:2|2:0,0:0:0:0:
252,212,252815,1,10,0:2:0:0:
101,340,253276,5,10,0:1:0:0:
1,168,253738,1,10,0:2:0:0:
155,45,254199,2,0,B|180:112|240:92|308:123,1,180,2|8,0:2|2:2,0:0:0:0:
307,122,255584,6,0,B|237:141|181:89|181:89|191:120|191:120|182:185|132:205|138:246|138:246|128:218|96:200,1,360,2|2,0:0|0:0,0:0:0:0:
106,206,257430,1,6,0:2:0:0:
256,192,257545,12,4,262968,2:2:0:0:
