osu file format v14

[General]
AudioFilename: audio.mp3
AudioLeadIn: 0
PreviewTime: 128554
Countdown: 0
SampleSet: Drum
StackLeniency: 0.4
Mode: 0
LetterboxInBreaks: 0
WidescreenStoryboard: 1

[Editor]
Bookmarks: 32987,44987,56987,80987,149511,159946,175598,195574,229727
DistanceSpacing: 0.5
BeatDivisor: 4
GridSize: 32
TimelineZoom: 2.699999

[Metadata]
Title:SHALLYS
TitleUnicode:シャルイース
Artist:Aki Rosenthal
ArtistUnicode:アキ・ローゼンタール
Creator:Vararaup
Version:Collab Insane
Source:
Tags:folk construct language iredi nooj m_i_x frozz -keqing hololive ホロライブ vtuber virtual tuber
BeatmapID:4205031
BeatmapSetID:1948401

[Difficulty]
HPDrainRate:5
CircleSize:4
OverallDifficulty:8
ApproachRate:8
SliderMultiplier:2.1
SliderTickRate:1

[Events]
//Background and Video events
0,0,"yande.re 678495 aki_rosenthal hololive ninniku_mashimashi.jpg",0,0
//Break Periods
//Storyboard Layer 0 (Background)
//Storyboard Layer 1 (Fail)
//Storyboard Layer 2 (Pass)
//Storyboard Layer 3 (Foreground)
//Storyboard Layer 4 (Overlay)
//Storyboard Sound Samples

[TimingPoints]
2785,500,3,3,1,60,1,0
31487,500,3,3,1,60,1,0
32862,-100,3,2,1,5,0,0
32987,-100,3,2,1,60,0,0
33862,-100,3,2,1,5,0,0
33987,-100,3,3,1,60,0,0
36362,-100,3,2,1,5,0,0
36487,-100,3,3,1,60,0,0
43862,-100,3,2,1,5,0,0
43987,-100,3,3,1,60,0,0
44487,-200,3,3,1,60,0,0
44862,-200,3,2,1,5,0,0
44987,-100,3,3,1,60,0,0
48362,-100,3,2,1,5,0,0
48487,-100,3,3,1,60,0,0
51362,-100,3,2,1,5,0,0
51487,-100,3,3,1,60,0,0
60362,-100,3,2,1,5,0,0
60487,-100,3,3,1,60,0,0
61862,-100,3,2,1,5,0,0
61987,-100,3,3,1,60,0,0
62362,-100,3,2,1,5,0,0
62487,-100,3,3,1,60,0,0
65862,-100,3,2,1,5,0,0
65987,-100,3,3,1,60,0,0
68862,-100,3,2,1,5,0,0
68987,-100,3,3,1,60,0,0
69362,-100,3,2,1,5,0,0
69487,-100,3,3,1,60,0,0
73362,-100,3,2,1,5,0,0
73487,-100,3,3,1,60,0,0
73862,-100,3,2,1,5,0,0
73987,-100,3,3,1,60,0,0
78362,-100,3,2,1,5,0,0
78487,-100,3,3,1,60,0,0
80362,-100,3,2,1,5,0,0
80487,-200,3,3,1,60,0,0
80862,-200,3,2,1,5,0,0
80987,-100,3,3,1,60,0,0
84362,-100,3,2,1,5,0,0
84487,-100,3,3,1,60,0,0
86362,-100,3,2,1,5,0,0
86487,-100,3,3,1,60,0,0
91862,-100,3,2,1,5,0,0
91987,-100,3,3,1,60,0,0
92612,-100,3,3,1,5,0,0
92737,-100,3,3,1,60,0,0
92862,-100,3,3,1,5,0,0
92987,-100,3,3,1,60,0,0
96362,-100,3,2,1,5,0,0
96487,-100,3,3,1,60,0,0
99362,-100,3,2,1,5,0,0
99487,-100,3,3,1,60,0,0
104987,-90.9090909090909,3,3,1,60,0,0
105362,-90.9090909090909,3,2,1,5,0,0
105487,-90.9090909090909,3,3,1,60,0,0
106862,-90.9090909090909,3,2,1,5,0,0
106987,-90.9090909090909,3,3,1,60,0,0
110362,-90.9090909090909,3,2,1,5,0,0
110487,-200,3,3,1,60,0,0
110862,-200,3,2,1,5,0,0
110987,-90.9090909090909,3,3,1,60,0,0
111362,-90.9090909090909,3,2,1,5,0,0
111487,-90.9090909090909,3,3,1,60,0,0
113362,-90.9090909090909,3,2,1,5,0,0
113487,-90.9090909090909,3,3,1,60,0,0
117362,-90.9090909090909,3,2,1,5,0,0
117487,-90.9090909090909,3,3,1,60,0,0
120362,-90.9090909090909,3,2,1,5,0,0
120487,-90.9090909090909,3,3,1,60,0,0
122487,-200,3,3,1,60,0,0
122737,-200,3,2,1,5,0,0
122862,-200,3,3,1,60,0,0
122987,-100,3,3,1,60,0,0
123362,-100,3,2,1,5,0,0
123487,-100,3,3,1,60,0,0
124487,491.803278688525,3,3,1,60,1,0
125347,-100,3,2,1,5,0,0
125470,-100,3,3,1,60,0,0
125962,461.538461538462,3,3,1,60,1,0
126308,-100,3,2,1,5,0,0
126423,-100,3,3,1,60,0,0
127808,-100,3,2,1,5,0,0
128000,650.759219088937,3,3,1,60,1,0
128000,-133.333333333333,3,3,1,60,0,0
128489,-133.333333333333,3,2,1,5,0,0
128650,434.782608695652,3,3,2,70,1,0
128650,-76.9230769230769,3,3,2,70,0,0
128867,-76.9230769230769,3,3,1,70,0,0
128976,-76.9230769230769,3,2,1,5,0,0
129084,-83.3333333333333,3,3,1,70,0,0
129410,-83.3333333333333,3,2,1,5,0,0
129519,-83.3333333333333,3,3,1,70,0,0
132019,-83.3333333333333,3,2,1,5,0,0
132128,-83.3333333333333,3,3,1,70,0,0
133867,-76.9230769230769,3,3,2,70,0,0
134084,-76.9230769230769,3,3,1,70,0,0
134193,-76.9230769230769,3,2,1,5,0,0
134302,-83.3333333333333,3,3,1,70,0,0
135932,-83.3333333333333,3,2,1,5,0,0
136041,-83.3333333333333,3,3,1,70,0,0
138323,-83.3333333333333,3,2,1,5,0,0
138432,-83.3333333333333,3,3,1,70,0,0
138541,-83.3333333333333,3,2,1,5,0,0
138650,-142.857142857143,3,3,1,70,0,0
138976,-142.857142857143,3,2,1,5,0,0
139084,-76.9230769230769,3,3,2,70,0,0
139302,-76.9230769230769,3,3,1,70,0,0
139410,-76.9230769230769,3,2,1,5,0,0
139519,-83.3333333333333,3,3,1,70,0,0
139845,-83.3333333333333,3,2,1,5,0,0
139954,-83.3333333333333,3,3,1,70,0,0
142454,-83.3333333333333,3,2,1,5,0,0
142563,-83.3333333333333,3,3,1,70,0,0
144302,-71.4285714285714,3,3,2,70,0,0
144519,-71.4285714285714,3,3,1,70,0,0
144628,-71.4285714285714,3,2,1,5,0,0
144736,-74.0740740740741,3,3,1,70,0,0
145606,-74.0740740740741,3,3,2,70,0,0
145823,-74.0740740740741,3,3,1,70,0,0
145932,-74.0740740740741,3,2,1,5,0,0
146041,-74.0740740740741,3,3,1,70,0,0
146367,-74.0740740740741,3,2,1,5,0,0
146476,-74.0740740740741,3,3,1,70,0,0
146910,-74.0740740740741,3,3,2,70,0,0
147128,-74.0740740740741,3,3,1,70,0,0
147236,-74.0740740740741,3,2,1,5,0,0
147345,-74.0740740740741,3,3,1,70,0,0
149084,444.444444444445,3,3,1,70,1,0
149084,-83.3333333333333,3,3,1,70,0,0
149417,-83.3333333333333,3,2,1,5,0,0
149511,-111.111111111111,3,2,1,40,0,0
149528,434.782608695652,3,2,1,40,1,0
150831,-125,3,2,1,40,0,0
152136,-200,3,2,1,40,0,0
154310,-166.666666666667,3,2,1,40,0,0
157789,-166.666666666667,3,2,1,5,0,0
158006,-166.666666666667,3,2,1,40,0,0
159962,-90.9090909090909,3,3,1,70,0,0
160505,-90.9090909090909,3,2,1,5,0,0
160614,-90.9090909090909,3,3,1,70,0,0
160723,-90.9090909090909,3,2,1,5,0,0
160831,-90.9090909090909,3,3,1,70,0,0
161810,-90.9090909090909,3,2,1,5,0,0
161918,-90.9090909090909,3,3,1,70,0,0
162027,-90.9090909090909,3,2,1,5,0,0
162136,-133.333333333333,3,3,1,70,0,0
162462,-133.333333333333,3,2,1,5,0,0
162571,-90.9090909090909,3,3,1,70,0,0
163114,-90.9090909090909,3,2,1,5,0,0
163223,-90.9090909090909,3,3,1,70,0,0
163331,-90.9090909090909,3,2,1,5,0,0
163440,-90.9090909090909,3,3,1,70,0,0
164418,-90.9090909090909,3,2,1,5,0,0
164527,-90.9090909090909,3,3,1,70,0,0
164636,-90.9090909090909,3,2,1,5,0,0
164744,-90.9090909090909,3,3,1,70,0,0
165723,-90.9090909090909,3,2,1,5,0,0
165831,-90.9090909090909,3,3,1,70,0,0
165940,-90.9090909090909,3,2,1,5,0,0
166049,-133.333333333333,3,3,1,70,0,0
166375,-133.333333333333,3,2,1,5,0,0
166484,-90.9090909090909,3,3,1,70,0,0
167027,-90.9090909090909,3,2,1,5,0,0
167136,-90.9090909090909,3,3,1,70,0,0
167244,-90.9090909090909,3,2,1,5,0,0
167353,-86.9565217391304,3,3,1,70,0,0
168331,-86.9565217391304,3,2,1,5,0,0
168440,-86.9565217391304,3,3,1,70,0,0
168549,-86.9565217391304,3,2,1,5,0,0
168658,-133.333333333333,3,3,1,70,0,0
168984,-133.333333333333,3,2,1,5,0,0
169092,-86.9565217391304,3,3,1,70,0,0
169636,-86.9565217391304,3,2,1,5,0,0
169744,-86.9565217391304,3,3,1,70,0,0
169853,-86.9565217391304,3,2,1,5,0,0
169962,-133.333333333333,3,3,1,70,0,0
170288,-133.333333333333,3,2,1,5,0,0
170397,-86.9565217391304,3,3,1,70,0,0
170940,-86.9565217391304,3,2,1,5,0,0
171049,-86.9565217391304,3,3,1,70,0,0
172244,-86.9565217391304,3,2,1,5,0,0
172353,-83.3333333333333,3,3,1,70,0,0
173549,-83.3333333333333,3,2,1,5,0,0
173657,-83.3333333333333,3,3,1,70,0,0
175614,-90.9090909090909,3,3,1,70,0,0
177027,-90.9090909090909,3,2,1,5,0,0
177136,-90.9090909090909,3,3,1,70,0,0
177244,-90.9090909090909,3,2,1,5,0,0
177353,-90.9090909090909,3,3,1,70,0,0
180071,-90.9090909090909,3,2,1,5,0,0
180179,-90.9090909090909,3,3,1,70,0,0
180288,-90.9090909090909,3,2,1,5,0,0
180397,-90.9090909090909,3,3,1,70,0,0
182027,-90.9090909090909,3,2,1,5,0,0
182136,-90.9090909090909,3,3,1,70,0,0
184636,-90.9090909090909,3,2,1,5,0,0
184744,-90.9090909090909,3,3,1,70,0,0
186592,-90.9090909090909,3,2,1,5,0,0
186701,-90.9090909090909,3,3,1,70,0,0
189201,-90.9090909090909,3,2,1,5,0,0
189310,-90.9090909090909,3,3,1,70,0,0
189418,-90.9090909090909,3,2,1,5,0,0
189527,-90.9090909090909,3,3,1,70,0,0
189636,-90.9090909090909,3,2,1,5,0,0
189744,-90.9090909090909,3,3,1,70,0,0
189853,-90.9090909090909,3,2,1,5,0,0
189962,-90.9090909090909,3,3,1,70,0,0
190505,-90.9090909090909,3,2,1,5,0,0
190614,-90.9090909090909,3,3,1,70,0,0
190723,-90.9090909090909,3,2,1,5,0,0
190815,410.958904109589,3,3,1,70,1,0
191225,461.538461538461,3,3,1,50,1,0
191686,535.714285714285,3,3,1,46,1,0
192221,422.535211267605,3,3,1,42,1,0
192643,508.474576271186,3,3,1,38,1,0
192897,566.037735849056,3,3,1,34,1,0
194170,470.219435736677,3,3,1,40,1,0
195580,479.999999999999,3,2,1,50,1,0
195580,-125,3,2,1,50,0,0
198940,-125,3,2,1,5,0,0
199420,-125,3,2,1,50,0,0
200380,-125,3,2,1,5,0,0
200860,-125,3,2,1,50,0,0
204099,-125,3,2,1,5,0,0
204219,-125,3,2,1,50,0,0
206979,-125,3,2,1,5,0,0
207099,-100,3,3,1,50,0,0
210339,-100,3,2,1,5,0,0
210459,-100,3,3,1,50,0,0
214179,-100,3,2,1,5,0,0
214299,561.797752808989,3,3,1,50,1,0
214860,545.454545454545,3,3,1,50,1,0
215405,487.80487804878,3,3,1,50,1,0
215892,461.538461538461,3,3,1,50,1,0
218199,-100,3,2,1,5,0,0
218661,-76.9230769230769,3,3,2,70,0,0
218892,-76.9230769230769,3,3,1,70,0,0
224545,-76.9230769230769,3,2,1,5,0,0
224661,-76.9230769230769,3,3,1,70,0,0
226161,-76.9230769230769,3,2,1,5,0,0
226276,-76.9230769230769,3,3,1,70,0,0
226968,-62.5,3,3,1,70,0,0
228353,-76.9230769230769,3,3,1,70,0,0
229391,-76.9230769230769,3,2,1,5,0,0
229507,-76.9230769230769,3,3,1,70,0,0
229622,-76.9230769230769,3,2,1,5,0,0
229738,-66.6666666666667,3,3,2,70,0,0
229968,-66.6666666666667,3,3,1,70,0,0
231122,-76.9230769230769,3,3,1,70,0,0
233891,-86.9565217391304,3,3,1,70,0,0
235276,-76.9230769230769,3,3,1,70,0,0
235622,-76.9230769230769,3,2,1,5,0,0
235738,-76.9230769230769,3,3,1,70,0,0
240353,-100,3,3,1,70,0,0
240699,-100,3,2,1,5,0,0
240815,-66.6666666666667,3,3,2,70,0,0
241045,-66.6666666666667,3,3,1,70,0,0
241161,-66.6666666666667,3,2,1,5,0,0
241276,-76.9230769230769,3,3,1,70,0,0
242545,-76.9230769230769,3,2,1,5,0,0
242661,-76.9230769230769,3,3,1,70,0,0
243584,-66.6666666666667,3,3,2,70,0,0
243815,-66.6666666666667,3,3,1,70,0,0
243930,-66.6666666666667,3,2,1,5,0,0
244045,-76.9230769230769,3,3,1,70,0,0
245315,-76.9230769230769,3,2,1,5,0,0
245430,-76.9230769230769,3,3,1,70,0,0
246353,-66.6666666666667,3,3,2,70,0,0
246584,-66.6666666666667,3,3,1,70,0,0
246699,-66.6666666666667,3,2,1,5,0,0
246815,-76.9230769230769,3,3,1,70,0,0
250507,-66.6666666666667,3,3,1,70,0,0
251891,-66.6666666666667,3,3,2,70,0,0
252122,-66.6666666666667,3,3,1,70,0,0
252238,-66.6666666666667,3,2,1,5,0,0
252353,-76.9230769230769,3,3,1,70,0,0
253738,-100,3,3,1,70,0,0
254199,-142.857142857143,3,3,1,70,0,0
255584,-142.857142857143,3,2,1,50,0,0
256507,-142.857142857143,3,2,1,5,0,0
256738,-200,3,2,1,50,0,0
257315,-200,3,2,1,5,0,0
257430,-200,3,2,1,50,0,0

[Colours]
Combo1 : 184,239,69
Combo2 : 255,185,79
Combo3 : 255,85,85
Combo4 : 255,83,148

[HitObjects]
256,192,31487,12,0,32862,0:0:0:0:
114,102,32987,6,0,P|74:74|63:15,1,105,14|0,0:1|0:0,0:0:0:0:
41,185,33487,2,0,B|125:178|89:125|178:118,1,157.5,8|0,0:2|0:0,0:0:0:0:
256,131,33987,1,10,0:2:0:0:
425,76,34237,1,0,0:0:0:0:
457,4,34487,6,0,B|437:102|436:155|436:155|456:176|460:205,1,210,10|8,0:1|2:2,0:0:0:0:
355,267,35237,2,0,P|370:244|373:219,1,52.5,2|0,0:2|0:0,0:0:0:0:
287,193,35487,2,0,L|292:215,7,23.3333333333333,10|0|0|0|0|0|0|0,0:2|0:0|0:0|0:0|0:0|0:0|0:0|0:0,0:0:0:0:
277,350,35987,6,0,P|355:355|433:366,1,157.5,14|0,0:1|0:0,0:0:0:0:
511,355,36487,2,0,P|491:307|445:285,1,105,10|0,0:2|2:0,0:0:0:0:
292,215,36987,2,0,P|343:209|376:171,1,105,10|0,0:2|2:0,0:0:0:0:
399,22,37487,5,10,0:1:0:0:
428,31,37612,1,0,0:0:0:0:
441,59,37737,1,0,0:0:0:0:
512,160,37987,2,0,P|411:130|308:108,1,210,8|10,0:2|2:2,0:0:0:0:
216,157,38737,1,2,0:2:0:0:
72,16,38987,5,14,0:1:0:0:
72,16,39487,1,10,0:2:0:0:
159,62,39737,1,0,0:0:0:0:
248,12,39987,1,10,0:2:0:0:
159,73,40237,1,0,0:0:0:0:
13,159,40487,5,10,0:1:0:0:
31,244,40737,1,0,0:0:0:0:
31,244,40862,1,0,0:0:0:0:
31,244,40987,1,8,0:2:0:0:
46,323,41237,1,2,0:2:0:0:
147,281,41487,2,0,P|191:306|204:355,1,105,10|0,0:2|2:0,0:0:0:0:
309,146,41987,6,0,B|272:123|233:146|233:146|223:221|282:258,2,210,14|8|10,0:1|2:2|2:2,0:0:0:0:
203,216,43237,1,0,0:0:0:0:
73,133,43487,2,0,B|62:47|10:83|0:-1,1,157.5,10|0,0:1|0:0,0:0:0:0:
86,0,43987,2,0,P|51:39|23:84,1,105,8|0,0:2|2:0,0:0:0:0:
0,170,44362,5,0,0:0:0:0:
0,170,44487,2,0,P|32:192|45:228,1,78.75,10|0,0:2|0:0,0:0:0:0:
0,384,44987,6,0,B|48:285|107:351|148:223,1,210,14|8,0:1|0:2,0:0:0:0:
112,164,45737,1,0,0:0:0:0:
270,117,45987,2,0,P|337:93|382:74,1,105,10|0,0:2|2:0,0:0:0:0:
193,85,46487,5,10,0:1:0:0:
260,205,46737,1,0,0:0:0:0:
372,166,46987,2,0,P|425:220|404:279,1,105,8|2,0:2|2:2,0:0:0:0:
245,300,47487,2,0,P|205:325|171:372,1,105,10|0,0:2|2:0,0:0:0:0:
96,349,47862,5,0,0:0:0:0:
96,349,47987,2,0,P|32:342|6:250,1,157.5,14|0,0:1|0:0,0:0:0:0:
67,214,48487,2,0,P|51:160|36:98,1,105,10|0,0:2|2:0,0:0:0:0:
210,7,48987,5,10,0:2:0:0:
210,7,49237,1,0,0:0:0:0:
144,142,49487,5,10,0:1:0:0:
227,250,49737,1,0,0:0:0:0:
309,226,49987,1,8,0:2:0:0:
246,175,50237,5,0,0:0:0:0:
457,255,50487,1,10,0:2:0:0:
457,255,50987,6,0,B|452:207|409:194|407:200|354:185|361:130,1,157.5,14|0,0:1|0:0,0:0:0:0:
451,84,51487,1,10,0:2:0:0:
443,97,51612,1,0,0:0:0:0:
435,108,51737,1,0,0:0:0:0:
386,220,51987,5,10,0:2:0:0:
297,91,52237,1,0,0:0:0:0:
281,243,52487,1,10,0:1:0:0:
299,190,52612,1,0,0:0:0:0:
268,169,52737,2,0,P|222:190|153:201,1,105,0|10,0:0|2:2,0:0:0:0:
35,137,53237,5,0,0:0:0:0:
192,283,53487,1,10,0:2:0:0:
192,283,53987,6,0,B|197:306|216:332|216:332|161:264|116:312|85:232,1,210,14|8,0:1|0:2,0:0:0:0:
16,232,54737,1,2,0:2:0:0:
100,239,54987,1,10,0:2:0:0:
197,167,55237,1,0,0:0:0:0:
259,22,55487,1,10,0:1:0:0:
259,22,55987,5,8,0:2:0:0:
264,99,56487,2,0,L|257:133,5,35,10|0|0|0|0|0,0:2|0:0|0:0|0:0|0:0|0:0,0:0:0:0:
337,43,56987,6,0,P|434:43|447:141,1,210,14|8,0:1|2:2,0:0:0:0:
467,26,57737,1,0,0:0:0:0:
345,131,57987,2,0,P|359:181|370:232,1,105,10|0,0:2|2:0,0:0:0:0:
512,262,58487,6,0,B|442:237|452:316|370:320|370:320|358:345|341:357,1,210,10|8,0:1|2:2,0:0:0:0:
481,373,59237,1,2,0:2:0:0:
504,253,59487,1,10,0:2:0:0:
370,232,59737,1,0,0:0:0:0:
288,284,59987,6,0,P|276:208|323:147,1,157.5,10|0,0:1|0:0,0:0:0:0:
422,89,60487,2,0,P|371:80|335:43,1,105,10|0,0:2|2:0,0:0:0:0:
498,33,60987,1,10,0:2:0:0:
482,165,61237,1,0,0:0:0:0:
334,99,61487,6,0,B|283:83|246:120|246:120|246:152|229:177,1,157.5,10|0,0:1|0:0,0:0:0:0:
218,260,61987,2,0,B|137:245|177:200|85:183,1,157.5,8|0,0:2|0:0,0:0:0:0:
12,212,62487,1,10,0:2:0:0:
72,321,62737,1,2,0:2:0:0:
229,175,62987,6,0,B|216:127|232:88|226:16|226:16|198:27|177:30,1,210,14|8,0:1|2:2,0:0:0:0:
105,82,63737,1,0,0:0:0:0:
149,166,63987,5,10,0:2:0:0:
20,33,64237,1,0,0:0:0:0:
0,131,64487,6,0,P|16:180|22:232,1,105,10|0,0:1|2:0,0:0:0:0:
24,316,64862,1,0,0:0:0:0:
24,316,64987,1,8,0:2:0:0:
127,374,65237,1,2,0:2:0:0:
225,238,65487,2,0,P|149:231|103:291,1,157.5,10|0,0:2|0:0,0:0:0:0:
11,361,65987,6,0,B|112:332|181:319|181:319|197:323|215:323,2,210,10|8|8,0:1|2:2|2:2,0:0:0:0:
11,361,67237,1,0,0:0:0:0:
86,188,67487,5,8,0:1:0:0:
86,188,67612,2,0,P|80:135|34:93,1,105,0|0,0:0|2:0,0:0:0:0:
0,34,67987,1,8,0:2:0:0:
150,6,68237,1,0,0:0:0:0:
170,132,68487,2,0,P|112:183|109:259,1,157.5,10|0,0:2|0:0,0:0:0:0:
192,312,68987,6,0,B|218:303|250:295|250:295|270:268|270:268|301:261|330:249,1,157.5,14|0,0:1|0:0,0:0:0:0:
407,265,69487,1,8,0:2:0:0:
492,218,69737,1,0,0:0:0:0:
395,129,69987,1,10,0:2:0:0:
266,236,70237,1,0,0:0:0:0:
328,339,70487,6,0,P|370:371|421:374,1,105,10|0,0:1|2:0,0:0:0:0:
504,359,70862,1,0,0:0:0:0:
504,359,70987,2,0,B|477:313|477:313|490:264,1,105,8|2,0:2|2:2,0:0:0:0:
338,172,71487,2,0,P|367:214|360:265,1,105,10|0,0:2|2:0,0:0:0:0:
253,114,71987,6,0,P|328:185|431:191,1,210,10|10,0:1|2:2,0:0:0:0:
488,54,72737,1,0,0:0:0:0:
462,40,72862,1,0,0:0:0:0:
433,51,72987,2,0,B|419:76|397:91|397:91|359:53|306:45,1,157.5,10|0,0:2|0:0,0:0:0:0:
210,24,73487,6,0,P|238:98|242:176,1,157.5,10|0,0:1|0:0,0:0:0:0:
224,254,73987,1,8,0:2:0:0:
275,156,74237,1,0,0:0:0:0:
122,205,74487,5,10,0:2:0:0:
199,356,74737,1,2,0:2:0:0:
339,285,74987,6,0,B|319:309|266:285|266:285|226:292|181:294|181:294|162:311|131:319,1,210,14|8,0:1|2:2,0:0:0:0:
40,361,75737,1,2,0:2:0:0:
0,252,75987,1,10,0:2:0:0:
205,321,76237,1,0,0:0:0:0:
318,207,76487,2,0,B|289:183|285:138|285:138|214:169|158:138,2,210,10|8|10,0:1|2:2|2:2,0:0:0:0:
2,18,77987,6,0,B|45:42|53:95|53:95|72:205,1,157.5,10|0,0:1|0:0,0:0:0:0:
68,234,78487,1,8,0:2:0:0:
200,258,78737,1,0,0:0:0:0:
200,258,78862,1,0,0:0:0:0:
200,258,78987,1,8,0:2:0:0:
325,272,79237,1,0,0:0:0:0:
422,366,79487,6,0,B|377:257|504:253|509:147|509:147|458:177|450:245,1,367.5,8|0,0:1|0:0,0:0:0:0:
503,327,80487,6,0,P|439:285|426:292,1,78.75,10|0,0:2|0:0,0:0:0:0:
332,363,80987,6,0,B|250:359|228:277|228:277|242:313|282:324,1,210,14|8,0:1|2:2,0:0:0:0:
335,262,81737,1,0,0:0:0:0:
174,207,81987,2,0,P|120:222|72:234,1,105,10|0,0:2|2:0,0:0:0:0:
223,132,82487,6,0,P|273:138|310:177,2,105,10|0|8,0:1|2:0|2:2,0:0:0:0:
64,147,83237,2,0,P|42:121|37:98,1,52.5,2|0,0:2|0:0,0:0:0:0:
123,62,83487,2,0,L|118:84,7,23.3333333333333,10|0|0|0|0|0|0|0,0:2|0:0|0:0|0:0|0:0|0:0|0:0|0:0,0:0:0:0:
174,207,83987,6,0,B|189:250|224:271|224:271|187:253|133:258,1,157.5,14|0,0:1|0:0,0:0:0:0:
100,328,84487,2,0,P|63:263|84:204,1,105,10|0,0:2|2:0,0:0:0:0:
195,126,84987,2,0,P|248:113|296:98,1,105,10|0,0:2|2:0,0:0:0:0:
460,111,85487,5,10,0:1:0:0:
445,89,85612,1,0,0:0:0:0:
415,82,85737,1,0,0:0:0:0:
348,168,85987,2,0,P|321:244|307:320,1,157.5,8|0,0:2|0:0,0:0:0:0:
242,380,86487,1,10,0:2:0:0:
184,311,86737,1,2,0:2:0:0:
13,231,86987,6,0,P|68:241|114:258,1,105,14|0,0:1|2:0,0:0:0:0:
238,203,87487,1,10,0:2:0:0:
238,203,87737,1,0,0:0:0:0:
185,310,87987,1,10,0:2:0:0:
114,258,88237,1,0,0:0:0:0:
16,105,88487,5,10,0:1:0:0:
92,162,88737,1,0,0:0:0:0:
92,162,88862,1,0,0:0:0:0:
92,162,88987,1,8,0:2:0:0:
159,104,89237,1,2,0:2:0:0:
305,160,89487,2,0,P|362:136|385:75,1,105,10|0,0:2|2:0,0:0:0:0:
224,46,89987,6,0,P|278:71|375:201,2,210,14|8|10,0:1|2:2|2:2,0:0:0:0:
312,47,91237,1,0,0:0:0:0:
219,170,91487,6,0,P|226:237|327:279,1,157.5,10|0,0:1|0:0,0:0:0:0:
335,362,91987,1,8,0:2:0:0:
364,350,92112,1,0,0:0:0:0:
378,320,92237,1,0,0:0:0:0:
353,178,92487,6,0,L|303:192,1,52.5,10|0,0:2|0:0,0:0:0:0:
235,265,92737,2,0,L|184:251,1,52.5,2|0,0:2|0:0,0:0:0:0:
76,364,92987,6,0,P|26:324|17:251,2,105,14|0|8,0:1|2:0|2:2,0:0:0:0:
161,338,93737,1,0,0:0:0:0:
67,220,93987,2,0,P|55:164|39:118,1,105,10|0,0:2|2:0,0:0:0:0:
154,0,94487,5,10,0:1:0:0:
127,92,94737,1,0,0:0:0:0:
127,92,94862,1,0,0:0:0:0:
127,92,94987,1,8,0:2:0:0:
202,137,95237,1,2,0:2:0:0:
288,28,95487,2,0,P|329:82|384:83,1,105,10|0,0:2|2:0,0:0:0:0:
426,29,95862,1,0,0:0:0:0:
426,29,95987,6,0,B|456:9|493:23|493:23|495:87|447:134,1,157.5,14|0,0:1|0:0,0:0:0:0:
409,167,96487,2,0,P|425:220|465:245,1,105,10|0,0:2|2:0,0:0:0:0:
470,106,96987,5,10,0:2:0:0:
470,106,97237,1,0,0:0:0:0:
325,165,97487,5,10,0:1:0:0:
333,295,97737,1,0,0:0:0:0:
434,339,97987,1,8,0:2:0:0:
409,253,98237,5,0,0:0:0:0:
241,144,98487,1,10,0:2:0:0:
241,144,98987,6,0,P|177:173|153:281,1,157.5,14|0,0:1|0:0,0:0:0:0:
64,271,99487,1,10,0:2:0:0:
77,304,99612,1,0,0:0:0:0:
105,326,99737,1,0,0:0:0:0:
228,269,99987,5,10,0:2:0:0:
304,373,100237,1,0,0:0:0:0:
397,239,100487,1,10,0:1:0:0:
375,207,100612,1,0,0:0:0:0:
338,191,100737,2,0,P|327:242|310:292,1,105,0|10,0:0|2:2,0:0:0:0:
191,349,101237,5,0,0:0:0:0:
67,187,101487,1,10,0:2:0:0:
67,187,101987,6,0,B|57:151|27:136|27:136|13:52|99:9,1,210,14|8,0:1|2:2,0:0:0:0:
120,103,102737,5,2,0:2:0:0:
204,35,102987,1,10,0:2:0:0:
332,22,103237,1,0,0:0:0:0:
463,119,103487,1,10,0:1:0:0:
463,119,103987,5,8,0:2:0:0:
422,37,104487,2,0,L|429:3,5,35,8|0|0|0|0|0,0:2|0:0|0:0|0:0|0:0|0:0,0:0:0:0:
360,105,104987,6,0,P|354:168|446:246,1,173.250005287171,12|0,0:1|0:0,0:0:0:0:
512,210,105487,1,10,0:2:0:0:
452,140,105737,1,2,0:2:0:0:
315,181,105987,1,10,0:2:0:0:
254,284,106237,1,2,0:2:0:0:
125,209,106487,6,0,B|100:181|51:167|51:167|99:178|137:160,1,173.250005287171,10|0,0:1|0:0,0:0:0:0:
226,175,106987,2,0,B|254:157|255:113|255:113|240:141|207:155,1,115.50000352478,10|0,0:2|2:0,0:0:0:0:
138,161,107362,1,0,0:0:0:0:
138,161,107487,1,10,0:2:0:0:
184,62,107737,1,2,0:2:0:0:
8,9,107987,6,0,P|37:106|67:232,1,231.000007049561,10|8,0:1|2:2,0:0:0:0:
70,341,108737,1,2,0:2:0:0:
199,289,108987,1,10,0:2:0:0:
185,256,109112,1,0,0:0:0:0:
154,242,109237,1,2,0:2:0:0:
0,291,109487,5,10,0:1:0:0:
155,366,109737,1,2,0:2:0:0:
155,366,109987,2,0,P|184:300|286:282,1,173.250005287171,10|0,0:2|0:0,0:0:0:0:
334,346,110487,6,0,B|358:340|374:315|374:315|356:333|330:330,1,78.75,8|0,0:2|0:0,0:0:0:0:
276,278,110987,2,0,B|268:225|319:190|315:217|362:176|352:122,1,173.250005287171,12|0,0:1|0:0,0:0:0:0:
283,76,111487,1,2,0:2:0:0:
228,150,111737,1,2,0:2:0:0:
66,195,111987,1,10,0:2:0:0:
10,89,112237,1,2,0:2:0:0:
214,11,112487,5,10,0:1:0:0:
96,112,112737,1,2,0:2:0:0:
227,0,112987,2,0,P|263:75|344:94,1,173.250005287171,10|0,0:2|0:0,0:0:0:0:
415,149,113487,5,10,0:2:0:0:
498,61,113737,1,2,0:2:0:0:
326,3,113987,6,0,P|289:112|266:226,2,231.000007049561,10|8|8,0:1|2:2|2:2,0:0:0:0:
213,85,115237,1,0,0:0:0:0:
360,217,115487,5,8,0:1:0:0:
360,217,115612,2,0,P|377:271|389:328,1,115.50000352478,0|0,0:0|2:0,0:0:0:0:
443,384,115987,1,8,0:2:0:0:
282,308,116237,1,0,0:0:0:0:
244,313,116362,1,0,0:0:0:0:
209,296,116487,1,8,0:2:0:0:
209,296,116987,6,0,P|168:237|61:235,1,173.250005287171,12|0,0:1|0:0,0:0:0:0:
0,278,117487,1,10,0:2:0:0:
121,384,117737,1,2,0:2:0:0:
100,300,117987,1,10,0:2:0:0:
237,188,118237,1,2,0:2:0:0:
165,133,118487,5,10,0:1:0:0:
165,133,118737,1,2,0:2:0:0:
276,268,118987,5,10,0:2:0:0:
276,268,119237,1,2,0:2:0:0:
424,190,119487,5,10,0:2:0:0:
424,190,119737,1,2,0:2:0:0:
341,164,119987,6,0,P|355:241|437:274,1,173.250005287171,10|0,0:1|0:0,0:0:0:0:
480,345,120487,2,0,P|518:303|518:247,1,115.50000352478,8|2,0:2|2:2,0:0:0:0:
448,188,120862,1,0,0:0:0:0:
448,188,120987,1,10,0:2:0:0:
508,91,121237,1,2,0:2:0:0:
318,0,121487,5,10,0:1:0:0:
416,106,121737,1,2,0:2:0:0:
334,91,121987,1,10,0:2:0:0:
334,91,122112,1,0,0:0:0:0:
334,91,122237,1,0,0:0:0:0:
150,186,122487,6,0,P|111:173|79:167,1,52.5,8|0,0:2|0:0,0:0:0:0:
44,112,122862,1,0,0:0:0:0:
44,112,122987,6,0,P|76:52|186:54,1,157.5,12|0,0:1|0:0,0:0:0:0:
242,2,123487,5,10,0:2:0:0:
217,108,123737,1,2,0:2:0:0:
277,220,123987,1,10,0:2:0:0:
425,267,124237,1,2,0:2:0:0:
512,71,124487,5,10,0:1:0:0:
362,203,124732,1,2,0:2:0:0:
499,58,124978,2,0,P|434:64|433:154,1,157.5,10|0,0:2|0:0,0:0:0:0:
510,157,125470,5,10,0:2:0:0:
425,267,125716,1,2,0:2:0:0:
327,123,125962,6,0,P|250:105|175:82,1,157.5,10|0,0:1|0:0,0:0:0:0:
131,10,126423,1,8,0:2:0:0:
6,128,126654,5,0,0:0:0:0:
29,162,126769,1,0,0:0:0:0:
65,165,126885,2,0,P|94:142|85:79,1,105,8|0,0:2|2:0,0:0:0:0:
321,34,127346,6,0,P|235:85|188:185,1,210,8|0,0:1|0:0,0:0:0:0:
152,291,128000,6,0,B|117:263|117:227|117:227|133:253|159:263,1,118.125004506111,10|0,0:2|0:0,0:0:0:0:
211,363,128650,6,0,P|257:281|391:291,1,204.749990627289,14|0,0:1|0:0,0:0:0:0:
360,272,129084,1,0,0:0:0:0:
459,373,129302,6,0,P|490:372|509:348,1,62.9999980773926,10|0,0:2|0:0,0:0:0:0:
441,295,129519,1,2,0:2:0:0:
512,232,129736,1,8,0:2:0:0:
426,93,129954,6,0,P|398:162|340:167,1,125.999996154785,14|0,0:1|2:0,0:0:0:0:
266,185,130280,1,0,0:0:0:0:
266,185,130389,2,0,P|220:126|244:73,1,125.999996154785,10|0,0:2|2:0,0:0:0:0:
266,0,130715,1,0,0:0:0:0:
266,0,130823,1,10,0:2:0:0:
332,81,131041,1,0,0:0:0:0:
149,185,131258,6,0,P|88:164|27:152,1,125.999996154785,14|0,0:1|2:0,0:0:0:0:
19,148,131584,1,0,0:0:0:0:
11,144,131693,1,0,0:0:0:0:
152,36,131910,6,0,P|140:8|111:0,1,62.9999980773926,8|0,0:2|0:0,0:0:0:0:
73,70,132128,1,2,0:2:0:0:
149,185,132345,1,8,0:2:0:0:
0,237,132563,6,0,P|11:315|86:349,1,125.999996154785,10|0,0:1|2:0,0:0:0:0:
53,345,132889,1,0,0:0:0:0:
62,347,132997,1,8,0:2:0:0:
127,278,133215,1,0,0:0:0:0:
296,374,133432,1,10,0:2:0:0:
296,374,133867,6,0,B|263:303|317:248|317:248|359:255|378:310,1,204.749990627289,14|0,0:1|0:0,0:0:0:0:
368,287,134302,1,0,0:0:0:0:
446,364,134519,1,8,0:2:0:0:
498,220,134736,1,2,0:2:0:0:
373,141,134954,1,8,0:2:0:0:
512,0,135171,6,0,P|454:19|428:74,1,125.999996154785,14|0,0:1|2:0,0:0:0:0:
431,80,135497,1,0,0:0:0:0:
436,84,135606,1,8,0:2:0:0:
402,194,135823,6,0,P|395:163|373:141,1,62.9999980773926,2|0,0:2|0:0,0:0:0:0:
290,167,136041,1,10,0:2:0:0:
344,61,136258,1,0,0:0:0:0:
173,0,136476,6,0,P|193:59|205:121,1,125.999996154785,14|0,0:1|2:0,0:0:0:0:
202,129,136802,1,0,0:0:0:0:
199,137,136910,1,0,0:0:0:0:
4,129,137128,5,8,0:2:0:0:
0,159,137236,1,0,0:0:0:0:
17,183,137345,2,0,P|35:199|80:196,1,62.9999980773926,2|0,0:2|2:0,0:0:0:0:
105,106,137563,1,8,0:2:0:0:
221,219,137780,6,0,P|201:278|189:340,1,125.999996154785,10|0,0:1|2:0,0:0:0:0:
184,348,138106,1,0,0:0:0:0:
178,354,138215,2,0,P|160:370|115:367,1,62.9999980773926,8|0,0:2|0:0,0:0:0:0:
0,309,138432,2,0,P|18:293|63:296,1,62.9999980773926
250,300,138650,6,0,B|282:304|301:324|301:324|287:302|287:264,1,110.249996635437,8|0,0:2|0:0,0:0:0:0:
221,219,139084,6,0,P|221:116|316:73,1,204.749990627289,14|0,0:1|0:0,0:0:0:0:
301,71,139519,1,0,0:0:0:0:
434,193,139736,6,0,P|457:173|458:143,1,62.9999980773926,10|0,0:2|0:0,0:0:0:0:
372,128,139954,1,2,0:2:0:0:
506,65,140171,1,8,0:2:0:0:
344,206,140389,6,0,P|322:266|311:327,1,125.999996154785,14|0,0:1|2:0,0:0:0:0:
247,384,140715,1,0,0:0:0:0:
247,384,140823,2,0,P|205:335|157:294,1,125.999996154785,10|0,0:2|2:0,0:0:0:0:
141,210,141150,1,0,0:0:0:0:
141,210,141258,1,10,0:2:0:0:
12,312,141476,1,0,0:0:0:0:
219,232,141693,6,0,P|261:163|237:104,1,125.999996154785,14|0,0:1|2:0,0:0:0:0:
245,117,142019,1,0,0:0:0:0:
237,113,142128,1,0,0:0:0:0:
101,118,142345,6,0,P|131:118|157:96,1,62.9999980773926,8|0,0:2|0:0,0:0:0:0:
208,34,142563,1,2,0:2:0:0:
93,37,142780,1,8,0:2:0:0:
135,205,142997,6,0,P|67:220|13:237,1,125.999996154785,10|0,0:1|2:0,0:0:0:0:
7,235,143323,1,0,0:0:0:0:
0,233,143432,1,8,0:2:0:0:
19,140,143650,1,0,0:0:0:0:
150,290,143867,1,10,0:2:0:0:
150,290,144302,6,0,B|213:274|261:333|228:331|283:383|348:366,1,220.499993270874,14|0,0:1|0:0,0:0:0:0:
343,367,144736,1,0,0:0:0:0:
442,344,144954,1,8,0:2:0:0:
322,275,145171,1,2,0:2:0:0:
512,212,145389,1,8,0:2:0:0:
356,42,145606,6,0,P|386:134|410:247,1,212.6250008111,14|0,0:1|0:0,0:0:0:0:
410,247,146041,1,8,0:2:0:0:
473,82,146258,2,0,P|456:115|416:131,1,70.8750002703667,2|0,0:2|0:0,0:0:0:0:
355,185,146476,1,10,0:2:0:0:
173,141,146693,1,0,0:0:0:0:
387,42,146910,6,0,P|301:81|276:205,1,212.6250008111,14|0,0:1|0:0,0:0:0:0:
271,188,147345,1,0,0:0:0:0:
211,313,147563,1,8,0:2:0:0:
59,298,147780,1,0,0:2:0:0:
0,143,147997,1,8,0:2:0:0:
167,16,148215,5,8,0:1:0:0:
184,15,148323,1,0,0:0:0:0:
200,22,148432,1,0,0:0:0:0:
211,36,148541,1,0,0:0:0:0:
216,53,148650,2,0,P|197:80|186:122,1,70.8750002703667,8|0,0:2|2:0,0:0:0:0:
26,149,148867,5,0,0:0:0:0:
15,163,148976,1,0,0:0:0:0:
10,180,149084,2,0,B|16:224|59:235|59:235|128:204|102:92,1,188.999994232178,10|0,0:2|0:0,0:0:0:0:
37,96,149528,6,0,B|35:54|0:0|0:0|37:51|82:62,1,210,6|2,0:2|0:2,0:0:0:0:
272,222,150614,5,2,0:2:0:0:
272,222,150832,2,0,B|273:185|300:145|300:145|271:182|232:192,1,168,6|2,0:2|0:2,0:0:0:0:
67,364,152136,6,0,B|65:329|41:291|41:291|67:326|104:336,1,157.5,6|2,0:2|0:2,0:0:0:0:
173,293,153006,2,0,P|220:302|253:365,1,105,2|2,0:2|0:2,0:0:0:0:
326,376,154310,6,0,P|352:374|380:350,1,62.9999980773926,2|2,0:2|0:2,0:0:0:0:
470,370,154745,2,0,P|450:308|437:248,2,125.999996154785,6|2|2,0:2|0:2|0:2,0:0:0:0:
512,207,156049,5,2,0:2:0:0:
408,272,156484,1,2,0:2:0:0:
264,134,156919,1,2,0:2:0:0:
472,35,157354,6,0,P|450:95|439:156,1,125.999996154785,6|0,0:2|0:0,0:0:0:0:
363,199,158006,2,0,P|334:180|322:147,2,62.9999980773926,2|2|2,0:2|0:2|0:2,0:0:0:0:
408,272,158658,1,2,0:2:0:0:
187,279,159528,5,2,0:2:0:0:
187,279,159745,1,2,0:2:0:0:
113,377,159962,6,0,P|42:361|19:305,1,115.50000352478,14|0,0:1|2:0,0:0:0:0:
75,259,160288,1,0,0:0:0:0:
75,259,160397,2,0,L|91:197,1,57.7500017623902,2|0,0:2|0:0,0:0:0:0:
19,152,160614,2,0,L|2:90,1,57.7500017623902,8|0,0:2|0:0,0:0:0:0:
65,0,160832,2,0,P|134:0|173:50,1,115.50000352478,0|2,0:0|2:2,0:0:0:0:
176,189,161267,6,0,P|230:170|287:159,1,115.50000352478,14|0,0:1|2:0,0:0:0:0:
361,122,161593,1,0,0:0:0:0:
361,122,161701,2,0,P|376:95|374:62,1,57.7500017623902,10|0,0:2|0:0,0:0:0:0:
250,32,161919,2,0,P|265:58|295:73,1,57.7500017623902
431,0,162136,2,0,P|484:24|504:78,1,118.125004506111,8|0,0:2|0:0,0:0:0:0:
512,88,162571,6,0,P|493:142|482:199,1,115.50000352478,14|0,0:1|2:0,0:0:0:0:
392,205,162897,1,0,0:0:0:0:
392,205,163006,2,0,L|416:297,1,57.7500017623902
511,298,163223,2,0,P|495:333|464:354,1,57.7500017623902,10|0,0:2|0:0,0:0:0:0:
395,344,163441,1,2,0:2:0:0:
395,344,163875,6,0,L|339:358,3,57.7500017623902,10|0|0|0,0:1|0:0|0:0|0:0,0:0:0:0:
255,384,164310,2,0,P|232:355|226:326,1,57.7500017623902,8|0,0:2|0:0,0:0:0:0:
163,279,164528,2,0,P|176:244|198:224,1,57.7500017623902
296,283,164745,2,0,P|345:251|369:186,1,115.50000352478,10|2,0:2|2:2,0:0:0:0:
360,12,165180,6,0,P|341:66|330:123,1,115.50000352478,14|0,0:1|2:0,0:0:0:0:
261,170,165506,1,0,0:0:0:0:
261,170,165614,2,0,P|217:142|207:111,1,57.7500017623902,2|0,0:2|0:0,0:0:0:0:
254,46,165832,2,0,P|238:24|210:12,1,57.7500017623902,8|0,0:2|0:0,0:0:0:0:
56,4,166049,2,0,P|42:60|86:110,1,118.125004506111,2|0,0:2|0:0,0:0:0:0:
87,103,166484,6,0,P|129:146|121:247,1,115.50000352478,14|0,0:1|2:0,0:0:0:0:
75,257,166810,1,0,0:0:0:0:
75,257,166919,2,0,P|36:245|15:217,1,57.7500017623902,10|0,0:2|0:0,0:0:0:0:
122,332,167136,2,0,P|161:320|182:292,1,57.7500017623902
17,347,167354,1,8,0:2:0:0:
17,347,167788,6,0,P|43:276|115:253,1,120.750002303124,10|0,0:1|2:0,0:0:0:0:
145,190,168114,1,0,0:0:0:0:
145,190,168223,2,0,P|167:206|198:215,1,60.3750011515618,2|0,0:2|0:0,0:0:0:0:
276,121,168441,2,0,P|262:96|259:65,1,60.3750011515618,8|0,0:2|0:0,0:0:0:0:
403,111,168658,2,0,P|394:168|345:197,1,118.125004506111,2|0,0:2|0:0,0:0:0:0:
334,199,169093,6,0,P|277:247|288:316,1,120.750002303124,10|0,0:1|2:0,0:0:0:0:
336,358,169419,1,0,0:0:0:0:
336,358,169528,2,0,P|364:362|394:371,1,60.3750011515618,10|0,0:2|0:0,0:0:0:0:
451,261,169745,2,0,P|419:267|390:277,1,60.3750011515618
275,296,169962,2,0,P|249:341|175:357,1,118.125004506111,10|0,0:2|0:0,0:0:0:0:
171,355,170397,6,0,P|159:293|139:238,1,120.750002303124,14|0,0:1|2:0,0:0:0:0:
56,154,170723,1,0,0:0:0:0:
56,154,170832,2,0,P|77:132|105:123,1,60.3750011515618
128,4,171049,5,8,0:2:0:0:
160,1,171158,1,0,0:0:0:0:
184,22,171267,1,0,0:0:0:0:
384,0,171701,6,0,P|327:9|269:31,1,120.750002303124,12|0,0:1|2:0,0:0:0:0:
204,111,172028,1,0,0:0:0:0:
204,111,172136,2,0,L|188:170,1,60.3750011515618,8|0,0:2|0:0,0:0:0:0:
219,275,172354,5,0,0:0:0:0:
248,266,172462,1,0,0:0:0:0:
264,237,172571,1,8,0:2:0:0:
16,279,173006,6,0,P|64:260|136:247,1,125.999996154785,14|0,0:1|2:0,0:0:0:0:
227,171,173332,1,0,0:0:0:0:
227,171,173441,2,0,L|288:186,1,62.9999980773926
371,310,173658,5,8,0:2:0:0:
408,304,173767,1,0,0:0:0:0:
432,274,173875,2,0,P|436:245|419:205,3,62.9999980773926
512,158,174310,6,0,P|488:140|447:135,1,62.9999980773926,8|0,0:1|2:0,0:0:0:0:
325,4,174528,2,0,P|320:33|329:64,1,62.9999980773926,0|0,0:0|2:0,0:0:0:0:
465,23,174745,2,0,P|438:34|417:60,1,62.9999980773926,8|0,0:2|2:0,0:0:0:0:
237,112,174962,2,0,P|260:129|303:134,1,62.9999980773926,0|0,0:0|2:0,0:0:0:0:
376,140,175180,5,8,0:2:0:0:
145,212,175614,6,0,B|143:173|114:130|114:130|145:170|186:180,1,173.250005287171,10|0,0:0|2:0,0:0:0:0:
222,260,176049,5,0,0:0:0:0:
222,260,176158,1,0,0:0:0:0:
222,260,176267,2,0,B|258:251|289:210|289:210|260:253|258:292,1,173.250005287171,10|0,0:2|2:0,0:0:0:0:
187,339,176701,5,2,0:2:0:0:
187,339,176810,1,0,0:0:0:0:
187,339,176919,2,0,P|151:323|136:297,1,57.7500017623902,6|0,0:0|0:0,0:0:0:0:
48,379,177136,2,0,P|43:339|58:313,1,57.7500017623902,2|0,0:2|0:0,0:0:0:0:
0,219,177354,2,0,P|24:204|41:181,3,57.7500017623902,10|0|0|0,0:2|0:0|0:0|0:0,0:0:0:0:
0,43,177788,1,10,0:2:0:0:
0,43,178223,5,10,0:0:0:0:
2,28,178332,1,0,0:0:0:0:
10,15,178441,1,2,0:2:0:0:
20,7,178549,1,0,0:0:0:0:
34,2,178658,2,0,P|63:39|137:54,1,115.50000352478,2|10,0:2|2:2,0:0:0:0:
199,107,178984,1,0,0:0:0:0:
199,107,179093,2,0,P|216:63|192:-9,1,115.50000352478,2|2,0:2|2:2,0:0:0:0:
370,0,179528,5,6,0:0:0:0:
355,2,179636,1,0,0:0:0:0:
343,9,179745,1,0,0:0:0:0:
332,19,179854,1,0,0:0:0:0:
325,31,179962,2,0,P|311:62|310:86,1,57.7500017623902,8|0,0:2|0:0,0:0:0:0:
277,164,180180,2,0,P|296:191|317:204,1,57.7500017623902,2|0,0:2|0:0,0:0:0:0:
459,256,180397,1,10,0:2:0:0:
459,256,180832,6,0,P|401:268|347:285,1,115.50000352478,10|2,0:0|2:2,0:0:0:0:
264,271,181158,1,0,0:0:0:0:
264,271,181267,1,2,0:2:0:0:
160,384,181484,6,0,P|113:349|115:278,1,115.50000352478,10|2,0:2|2:2,0:0:0:0:
113,288,181810,1,0,0:0:0:0:
119,281,181919,2,0,P|138:262|147:230,1,57.7500017623902,2|0,0:2|0:0,0:0:0:0:
0,177,182136,6,0,P|55:169|111:147,1,115.50000352478,6|2,0:0|2:2,0:0:0:0:
138,64,182462,1,0,0:0:0:0:
138,64,182571,2,0,P|182:15|245:13,1,115.50000352478,10|2,0:2|2:2,0:0:0:0:
293,68,182897,1,0,0:0:0:0:
293,68,183006,1,10,0:2:0:0:
494,59,183223,5,2,0:2:0:0:
487,28,183332,1,0,0:0:0:0:
461,11,183441,2,0,P|399:51|382:103,1,115.50000352478,10|2,0:0|2:2,0:0:0:0:
436,165,183767,1,0,0:0:0:0:
436,165,183875,1,2,0:2:0:0:
243,143,184093,6,0,P|264:196|272:253,1,115.50000352478,10|2,0:2|2:2,0:0:0:0:
203,304,184419,1,0,0:0:0:0:
203,304,184528,2,0,P|169:288|150:250,1,57.7500017623902,2|0,0:2|0:0,0:0:0:0:
340,311,184745,5,6,0:0:0:0:
353,315,184854,1,0,0:0:0:0:
366,322,184962,1,0,0:0:0:0:
376,332,185071,1,0,0:0:0:0:
385,343,185180,2,0,P|449:339|473:290,1,115.50000352478,8|2,0:2|2:2,0:0:0:0:
512,224,185506,1,0,0:0:0:0:
512,224,185614,2,0,P|476:170|422:174,1,115.50000352478,10|2,0:2|2:2,0:0:0:0:
405,4,186049,6,0,P|376:39|375:69,3,57.7500017623902,10|0|0|0,0:0|0:0|0:0|0:0,0:0:0:0:
328,123,186484,2,0,P|338:149|342:178,1,57.7500017623902
237,266,186701,6,0,P|208:231|207:201,3,57.7500017623902,10|0|0|0,0:2|0:0|0:0|0:0,0:0:0:0:
107,239,187136,5,0,0:0:0:0:
78,221,187245,1,0,0:0:0:0:
65,192,187354,2,0,P|80:149|106:133,3,57.7500017623902,6|0|0|0,0:0|0:0|0:0|0:0,0:0:0:0:
70,10,187788,2,0,P|99:44|100:75,3,57.7500017623902,10|0|0|0,0:2|0:0|0:0|0:0,0:0:0:0:
181,140,188223,6,0,P|244:97|251:44,1,115.50000352478,10|2,0:2|2:2,0:0:0:0:
327,0,188549,1,0,0:0:0:0:
327,0,188658,2,0,P|401:23|426:87,1,115.50000352478,10|2,0:0|2:2,0:0:0:0:
503,105,188984,1,0,0:0:0:0:
503,105,189093,6,0,P|479:146|458:157,1,57.7500017623902,2|0,0:2|0:0,0:0:0:0:
324,146,189310,2,0,P|347:187|368:198,1,57.7500017623902,10|0,0:2|0:0,0:0:0:0:
478,266,189528,2,0,P|440:233|416:233,1,57.7500017623902,2|0,0:2|0:0,0:0:0:0:
241,261,189745,2,0,P|237:233|249:207,1,57.7500017623902,2|0,0:2|0:0,0:0:0:0:
394,310,189962,5,6,0:0:0:0:
359,301,190071,1,0,0:0:0:0:
324,310,190180,1,2,0:2:0:0:
298,334,190288,1,0,0:0:0:0:
286,368,190397,2,0,P|240:349|229:320,1,57.7500017623902,10|0,0:2|0:0,0:0:0:0:
94,327,190614,2,0,P|86:278|106:254,1,57.7500017623902,2|0,0:2|0:0,0:0:0:0:
190,134,190815,5,10,0:2:0:0:
184,80,190917,1,0,0:0:0:0:
151,36,191020,1,0,0:0:0:0:
102,21,191123,1,0,0:0:0:0:
48,26,191225,1,10,0:1:0:0:
256,192,191340,12,0,194170,0:0:0:0:
312,24,195580,6,0,P|320:72|275:104,1,84,10|0,0:1|2:0,0:0:0:0:
424,52,196060,2,0,P|469:69|474:124,1,84,0|0,0:0|2:0,0:0:0:0:
341,299,196540,2,0,B|329:268|340:213|392:145,2,168,2|2|0,0:2|2:2|2:0,0:0:0:0:
471,90,197980,5,2,0:2:0:0:
391,145,198220,1,0,0:0:0:0:
275,68,198460,2,0,B|212:68|202:126|129:145,1,168,10|0,0:1|0:0,0:0:0:0:
129,145,199420,2,0,P|120:107|112:60,1,84
0,5,199900,6,0,P|16:94|37:192,1,168,8|0,0:1|0:0,0:0:0:0:
31,169,200860,1,2,0:2:0:0:
183,255,201340,6,0,P|103:262|75:336,1,168,10|2,0:1|0:2,0:0:0:0:
290,199,202300,2,0,P|248:192|217:166,1,84,2|0,0:2|0:0,0:0:0:0:
289,344,202779,5,2,0:2:0:0:
393,290,203259,1,2,0:2:0:0:
497,236,203739,2,0,P|440:232|447:176,1,126,2|0,0:2|0:0,0:0:0:0:
475,158,204219,6,0,B|436:75|395:110|363:37,1,168,10|0,0:1|0:0,0:0:0:0:
363,37,205179,1,0,0:0:0:0:
438,25,205419,1,0,0:0:0:0:
365,50,205659,1,0,0:0:0:0:
365,50,206139,5,0,0:0:0:0:
294,23,206379,1,0,0:0:0:0:
219,36,206619,2,0,P|203:94|146:114,1,126,2|0,0:2|0:0,0:0:0:0:
84,55,207099,6,0,B|35:37|-2:72|-2:72|-17:135|22:182,1,210,10|0,0:1|3:0,0:0:0:0:
171,301,207819,1,8,0:2:0:0:
120,202,208059,2,0,P|100:250|85:300,1,105,10|0,0:3|2:0,0:0:0:0:
194,105,208539,6,0,B|218:175|243:237|243:237|276:256|296:280,1,210,10|8,0:1|2:2,0:0:0:0:
261,157,209259,1,2,0:2:0:0:
95,119,209499,2,0,P|79:72|110:32,1,105,2|0,0:2|2:0,0:0:0:0:
282,5,209979,6,0,P|355:33|429:59,1,157.5,10|0,0:1|0:0,0:0:0:0:
443,65,210459,1,2,0:2:0:0:
339,186,210699,1,0,0:0:0:0:
294,106,210939,2,0,P|243:121|193:135,1,105,2|0,0:2|2:0,0:0:0:0:
457,157,211419,6,0,P|369:197|400:288,2,210,10|8|0,0:1|2:2|0:0,0:0:0:0:
51,347,212859,5,10,0:1:0:0:
255,295,213339,1,2,0:2:0:0:
178,365,213579,1,8,0:2:0:0:
57,332,213819,2,0,P|47:252|35:169,1,157.5,2|0,0:2|0:0,0:0:0:0:
34,160,214299,5,10,0:1:0:0:
130,126,214860,5,2,0:2:0:0:
226,92,215405,5,2,0:2:0:0:
322,58,215892,5,10,0:1:0:0:
256,192,216007,12,0,218199,0:0:0:0:
414,255,218661,6,0,B|362:270|313:248|313:248|386:286|432:271|452:333,2,272.999987503052,14|0|10,0:1|2:0|2:2,0:0:0:0:
492,143,219815,1,0,0:0:0:0:
340,16,220045,6,0,B|199:134|177:50|86:79,1,272.999987503052,10|8,0:1|2:2,0:0:0:0:
234,171,220738,1,2,0:2:0:0:
249,39,220968,1,10,0:2:0:0:
55,162,221199,1,0,0:0:0:0:
122,323,221430,6,0,P|132:251|153:177,1,136.499993751526,14|0,0:1|2:0,0:0:0:0:
8,88,221892,2,0,P|29:152|44:219,1,136.499993751526,10|0,0:2|2:0,0:0:0:0:
216,350,222353,1,10,0:2:0:0:
409,219,222584,5,0,0:0:0:0:
395,250,222699,1,0,0:0:0:0:
371,274,222815,2,0,B|313:302|260:283|260:283|204:326|162:348|162:348|139:351|122:356,1,272.999987503052,10|8,0:1|2:2,0:0:0:0:
8,88,223738,5,10,0:2:0:0:
54,25,223968,1,2,0:2:0:0:
115,229,224199,6,0,P|65:276|14:184,1,204.749990627289,14|0,0:1|0:0,0:0:0:0:
83,147,224661,2,0,B|116:136|145:146|145:146|178:175|211:172,1,136.499993751526,10|0,0:2|2:0,0:0:0:0:
353,0,225122,2,0,P|290:16|275:79,1,136.499993751526,10|0,0:2|2:0,0:0:0:0:
467,187,225584,6,0,B|394:83|368:143|286:36|286:36|228:44|206:91,1,341.249984378815,10|0,0:1|0:0,0:0:0:0:
211,171,226276,1,2,0:2:0:0:
412,88,226507,1,10,0:2:0:0:
66,350,226968,6,0,B|101:304|22:68|36:19,2,336,14|10|10,0:1|2:2|2:2,0:0:0:0:
22,185,228122,1,0,0:0:0:0:
181,31,228353,6,0,B|301:26|361:109|361:109|396:101|416:72,1,272.999987503052,10|4,0:1|2:3,0:0:0:0:
416,72,229276,6,0,P|434:109|431:152,1,68.2499968757631,10|0,0:2|0:0,0:0:0:0:
498,186,229507,2,0,P|480:222|483:265,1,68.2499968757631,2|0,0:2|0:0,0:0:0:0:
375,359,229738,6,0,B|242:355|229:231|229:231|273:188|264:131,2,315.000012016297,14|8|10,0:1|2:2|2:2,0:0:0:0:
332,248,230891,1,0,0:0:0:0:
163,144,231122,2,0,B|120:146|89:115|89:115|26:157|21:264|107:307,1,272.999987503052,10|8,0:1|2:2,0:0:0:0:
221,222,231815,1,2,0:2:0:0:
75,378,232045,1,10,0:2:0:0:
141,232,232276,1,0,0:0:0:0:
369,329,232507,6,0,P|431:308|500:293,1,136.499993751526,14|0,0:1|2:0,0:0:0:0:
512,136,232968,2,0,P|445:121|380:100,1,136.499993751526,10|0,0:2|2:0,0:0:0:0:
435,214,233430,1,10,0:2:0:0:
314,32,233661,5,0,0:0:0:0:
288,65,233776,1,0,0:0:0:0:
284,105,233891,2,0,B|284:156|338:193|338:193|296:363,1,241.500004606247,10|4,0:1|2:3,0:0:0:0:
73,384,234815,5,10,0:2:0:0:
10,327,235045,1,2,0:2:0:0:
242,231,235276,6,0,P|153:197|149:88,1,204.749990627289,14|0,0:1|0:0,0:0:0:0:
187,14,235738,2,0,P|245:56|205:130,1,136.499993751526,10|0,0:2|2:0,0:0:0:0:
46,135,236199,2,0,P|-12:177|28:251,1,136.499993751526,10|0,0:2|2:0,0:0:0:0:
168,370,236661,6,0,P|208:335|313:325,1,136.499993751526,10|0,0:1|2:0,0:0:0:0:
408,246,237122,2,0,P|418:298|374:394,1,136.499993751526,10|0,0:2|2:0,0:0:0:0:
318,235,237584,1,10,0:2:0:0:
503,320,237815,1,0,0:0:0:0:
335,144,238045,6,0,B|355:85|424:47|424:47|352:86|287:81,1,272.999987503052,14|8,0:1|2:2,0:0:0:0:
177,0,238738,1,2,0:2:0:0:
248,155,238968,2,0,P|175:188|152:262,1,136.499993751526,10|0,0:2|2:0,0:0:0:0:
75,360,239430,5,10,0:1:0:0:
47,384,239545,2,0,P|31:315|11:252,1,136.499993751526,0|0,0:0|2:0,0:0:0:0:
74,193,239891,1,10,0:2:0:0:
359,281,240353,6,0,B|357:226|319:199|319:199|339:235|323:284,1,157.5,10|0,0:2|0:0,0:0:0:0:
313,355,240815,6,0,P|200:338|154:219,1,236.250009012223,14|0,0:1|0:0,0:0:0:0:
74,193,241276,2,0,P|137:107|209:109,1,136.499993751526,10|0,0:2|2:0,0:0:0:0:
277,0,241738,2,0,P|354:70|347:142,1,136.499993751526,10|0,0:2|2:0,0:0:0:0:
265,259,242199,6,0,P|357:231|462:206,1,204.749990627289,10|0,0:1|0:0,0:0:0:0:
502,126,242661,1,2,0:2:0:0:
503,99,242776,1,0,0:0:0:0:
498,75,242891,1,0,0:0:0:0:
485,53,243007,1,0,0:0:0:0:
465,36,243122,1,0,0:0:0:0:
252,171,243584,6,0,P|138:134|23:109,1,236.250009012223,14|0,0:1|0:0,0:0:0:0:
82,37,244045,2,0,P|101:96|117:168,1,136.499993751526,10|0,0:2|2:0,0:0:0:0:
0,336,244507,2,0,P|14:269|35:204,1,136.499993751526,10|0,0:2|2:0,0:0:0:0:
184,49,244968,6,0,P|283:38|366:100,1,204.749990627289,10|0,0:1|0:0,0:0:0:0:
337,185,245430,1,2,0:2:0:0:
342,211,245545,1,0,0:0:0:0:
354,233,245661,1,0,0:0:0:0:
372,251,245776,1,0,0:0:0:0:
395,262,245891,2,0,B|444:257|460:214|460:214|436:241|400:237,1,136.499993751526,0|2,0:0|2:2,0:0:0:0:
155,309,246353,6,0,P|88:228|167:69,1,236.250009012223,14|0,0:1|0:0,0:0:0:0:
184,49,246815,2,0,P|250:72|315:84,1,136.499993751526,10|0,0:2|2:0,0:0:0:0:
454,185,247276,2,0,P|500:120|485:55,1,136.499993751526,10|0,0:2|2:0,0:0:0:0:
361,172,247738,6,0,P|322:250|470:356,2,272.999987503052,10|10|10,0:1|2:2|2:2,0:0:0:0:
401,42,248891,1,0,0:0:0:0:
252,165,249122,6,0,P|180:180|120:200,1,136.499993751526,10|0,0:1|2:0,0:0:0:0:
20,48,249584,2,0,P|99:53|129:125,1,136.499993751526,8|0,0:2|2:0,0:0:0:0:
132,101,249930,1,0,0:0:0:0:
136,105,250045,1,10,0:2:0:0:
28,174,250276,1,0,0:0:0:0:
67,370,250507,6,0,P|218:326|371:288,2,315.000012016297,10|8|10,0:1|2:2|2:2,0:0:0:0:
321,64,251891,6,0,P|236:97|246:238,1,236.250009012223,14|0,0:1|0:0,0:0:0:0:
304,284,252353,2,0,P|370:296|435:319,1,136.499993751526,10|0,0:2|2:0,0:0:0:0:
512,169,252815,2,0,P|447:191|380:204,1,136.499993751526,10|0,0:2|2:0,0:0:0:0:
218,316,253276,6,0,P|146:273|136:203,1,136.499993751526,10|0,0:1|2:0,0:0:0:0:
227,75,253738,6,0,P|226:138|183:171,1,105,10|0,0:2|2:0,0:0:0:0:
46,152,254199,6,0,P|84:130|119:144,2,73.4999977569581,2|8|8,0:2|2:2|2:2,0:0:0:0:
14,373,255584,6,0,P|47:290|231:275,1,293.999991027832,2|0,0:0|0:0,0:0:0:0:
334,256,256738,2,0,P|332:204|258:190,1,131.25,2|0,0:0|0:0,0:0:0:0:
256,192,257430,1,6,0:2:0:0:
256,192,257545,12,4,262968,0:2:0:0:
