osu file format v14

[General]
AudioFilename: music.mp3
AudioLeadIn: 0
PreviewTime: 9504
Countdown: 0
SampleSet: Soft
StackLeniency: 0.7
Mode: 0
LetterboxInBreaks: 0
WidescreenStoryboard: 0

[Editor]
DistanceSpacing: 1
BeatDivisor: 4
GridSize: 4
TimelineZoom: 2.22

[Metadata]
Title:Shoujo Meiro de Tsukamaete (TVsize)
TitleUnicode:少女迷路でつかまえて (TVsize)
Artist:Aki Misato
ArtistUnicode:美郷あき
Creator:Lily Bread
Version:Normal
Source:ストロベリー・パニック
Tags:sodarose Strawberry Panic 百合 蒼井渚砂 花園静馬
BeatmapID:929661
BeatmapSetID:420229

[Difficulty]
HPDrainRate:3
CircleSize:3
OverallDifficulty:3
ApproachRate:4
SliderMultiplier:1.3
SliderTickRate:1

[Events]
//Background and Video events
0,0,"BG.jpg",0,0
//Break Periods
//Storyboard Layer 0 (Background)
//Storyboard Layer 1 (Fail)
//Storyboard Layer 2 (Pass)
//Storyboard Layer 3 (Foreground)
//Storyboard Sound Samples

[TimingPoints]
2446,441.176470588235,4,2,2,84,1,0
9725,-100,4,2,1,55,0,0
37740,-100,4,2,1,65,0,0
53622,-100,4,2,2,84,0,1
81857,-100,4,2,2,84,0,0
85497,-100,4,2,2,20,0,0

[Colours]
Combo1 : 242,24,57
Combo2 : 0,202,0
Combo3 : 18,124,255

[HitObjects]
332,76,2445,6,0,P|388:120|396:196,1,130,4|8,0:0|0:0,0:0:0:0:
348,296,3328,1,0,0:0:0:0:
268,196,3769,1,8,0:0:0:0:
148,244,4210,2,0,P|92:200|84:124,1,130,0|8,0:0|0:0,0:0:0:0:
132,24,5093,1,0,0:0:0:0:
212,128,5534,1,8,0:0:0:0:
148,244,5975,6,0,P|152:304|204:360,2,130,4|8|0,0:0|0:0|0:0,0:0:0:0:
276,252,7298,1,8,0:0:0:0:
304,124,7740,2,0,P|372:156|400:208,1,130,0|8,0:0|0:0,0:0:0:0:
436,256,8401,2,0,L|432:360,2,97.5
488,220,9284,2,0,L|492:144,1,65,0|4,0:0|0:0,0:0:0:0:
416,52,9945,5,8,0:0:0:0:
324,144,10387,2,0,P|256:152|188:144,1,130,2|8,0:0|0:0,0:0:0:0:
96,52,11269,1,2,0:0:0:0:
20,156,11710,1,8,0:0:0:0:
76,272,12151,2,0,P|140:265|204:273,1,130,0|8,0:0|0:0,0:0:0:0:
312,348,13034,6,0,P|376:354|444:328,1,130,0|8,0:0|0:0,0:0:0:0:
364,228,13916,2,0,P|370:163|348:103,1,130,2|8,0:0|0:0,0:0:0:0:
220,76,14798,2,0,P|144:120|96:120,1,130,2|8,0:0|0:0,0:0:0:0:
40,132,15460,1,0,0:0:0:0:
40,260,15901,2,0,L|116:272,1,65,0|8,0:0|0:0,0:0:0:0:
208,348,16563,6,0,P|244:284|232:228,1,130,0|8,0:0|0:0,0:0:0:0:
280,108,17445,2,0,L|412:60,1,130,2|8,0:0|0:0,0:0:0:0:
484,164,18328,2,0,P|492:232|476:308,1,130,2|8,0:0|0:0,0:0:0:0:
368,352,19210,1,0,0:0:0:0:
336,224,19651,1,8,0:0:0:0:
244,316,20093,6,0,P|144:316|40:296,1,195,2|0,0:0|0:0,0:0:0:0:
8,252,20975,2,0,L|16:100,1,130,0|8,0:0|0:0,0:0:0:0:
124,52,21857,2,0,P|200:76|280:76,1,130,2|8,0:0|0:0,0:0:0:0:
316,88,22519,2,0,L|396:88,1,65,0|0,0:0|0:0,0:0:0:0:
88,308,23622,6,0,P|48:256|36:188,1,130,4|8,0:0|0:0,0:0:0:0:
164,204,24504,1,2,0:0:0:0:
96,92,24945,1,8,0:0:0:0:
224,120,25387,2,0,L|376:120,1,130,2|8,0:0|0:0,0:0:0:0:
456,40,26269,2,0,P|492:108|480:164,1,130,0|8,0:0|0:0,0:0:0:0:
420,272,27151,6,0,P|360:296|272:280,1,130,0|8,0:0|0:0,0:0:0:0:
200,200,28034,1,2,0:0:0:0:
324,160,28475,1,8,0:0:0:0:
244,60,28916,2,0,P|168:60|112:88,1,130,2|8,0:0|0:0,0:0:0:0:
72,124,29578,2,0,L|64:264,1,130,0|0,0:0|0:0,0:0:0:0:
64,320,30240,1,8,0:0:0:0:
192,352,30681,6,0,L|200:208,1,130,0|8,0:0|0:0,0:0:0:0:
272,116,31563,2,0,P|360:124|396:152,1,130,2|8,0:0|0:0,0:0:0:0:
428,272,32445,2,0,P|340:264|304:236,1,130,2|8,0:0|0:0,0:0:0:0:
200,168,33328,1,0,0:0:0:0:
240,44,33769,1,8,0:0:0:0:
116,88,34210,6,0,P|84:180|144:272,1,195,2|0,0:0|0:0,0:0:0:0:
176,308,35093,2,0,L|316:312,1,130,0|8,0:0|0:0,0:0:0:0:
424,364,35975,2,0,P|436:308|408:236,1,130,2|0,0:0|0:0,0:0:0:0:
368,196,36637,2,0,P|276:228|176:224,1,195,0|0,0:0|0:0,0:0:0:0:
88,132,37740,6,0,P|156:96|236:124,1,130,4|8,0:0|0:0,0:0:0:0:
336,116,38622,2,0,P|394:84|417:10,1,130,0|8,0:0|0:0,0:0:0:0:
284,40,39504,2,0,L|128:48,1,130,0|8,0:0|0:0,0:0:0:0:
48,124,40387,2,0,P|32:188|76:276,1,130,0|8,0:0|0:0,0:0:0:0:
160,320,41269,5,0,0:0:0:0:
192,196,41710,1,8,0:0:0:0:
284,288,42151,2,0,L|428:268,1,130,0|8,0:0|0:0,0:0:0:0:
444,144,43034,2,0,P|452:64|440:16,2,130,0|8|0,0:0|0:0|0:0,0:0:0:0:
316,148,44357,1,8,0:0:0:0:
332,20,44798,6,0,P|264:28|204:96,1,130,0|8,0:0|0:0,0:0:0:0:
128,160,45681,2,0,L|176:308,1,130,0|8,0:0|0:0,0:0:0:0:
288,336,46563,1,0,0:0:0:0:
272,208,47004,1,8,0:0:0:0:
388,264,47445,2,0,P|400:204|380:136,1,130,0|8,0:0|0:0,0:0:0:0:
260,88,48328,6,0,L|112:96,1,130,0|8,0:0|0:0,0:0:0:0:
64,100,48990,1,0,0:0:0:0:
64,296,49651,2,0,P|132:272|204:296,1,130,8|0,0:0|0:0,0:0:0:0:
228,336,50313,6,0,P|396:232|240:88,1,455,0|8,0:0|0:0,0:0:0:0:
48,236,52740,1,0,0:0:0:0:
172,280,53181,1,8,0:0:0:0:
152,152,53622,6,0,P|240:168|288:216,1,130,4|8,0:0|0:0,0:0:0:0:
336,304,54504,1,0,0:0:0:0:
448,236,54945,1,8,0:0:0:0:
372,128,55387,2,0,P|324:88|248:48,1,130,2|8,0:0|0:0,0:0:0:0:
204,72,56048,2,0,P|120:96|56:100,1,130,0|0,0:0|0:0,0:0:0:0:
16,116,56710,1,8,0:0:0:0:
28,244,57151,6,0,P|96:228|140:164,1,130,2|8,0:0|0:0,0:0:0:0:
188,148,57813,2,0,P|248:132|320:144,1,130,0|0,0:0|0:0,0:0:0:0:
348,196,58475,2,0,L|364:264,1,65,8|0,0:0|0:0,0:0:0:0:
380,324,58916,2,0,P|440:344|512:316,1,130,0|8,0:0|0:0,0:0:0:0:
508,260,59578,1,0,0:0:0:0:
492,132,60019,2,0,L|428:132,1,65,0|8,0:0|0:0,0:0:0:0:
372,164,60460,1,0,0:0:0:0:
372,164,60681,6,0,P|316:196|236:196,1,130,2|8,0:0|0:0,0:0:0:0:
216,144,61343,2,0,P|136:128|76:164,1,130,0|0,0:0|0:0,0:0:0:0:
60,204,62004,1,8,0:0:0:0:
120,324,62445,2,0,P|176:356|256:356,1,130,2|8,0:0|0:0,0:0:0:0:
292,324,63107,1,0,0:0:0:0:
420,296,63548,2,0,L|488:296,2,65,0|8|0,0:0|0:0|0:0,0:0:0:0:
404,232,64210,6,0,P|340:184|268:164,1,130,2|8,0:0|0:0,0:0:0:0:
228,160,64872,2,0,P|184:144|152:68,1,130,0|0,0:0|0:0,0:0:0:0:
88,76,65534,2,0,L|24:132,1,65,8|0,0:0|0:0,0:0:0:0:
24,184,65975,2,0,P|44:248|104:288,1,130,0|8,0:0|0:0,0:0:0:0:
216,240,66857,1,0,0:0:0:0:
276,352,67298,1,8,0:0:0:0:
336,236,67740,6,0,L|456:156,1,130,4|8,0:0|0:0,0:0:0:0:
492,44,68622,1,0,0:0:0:0:
364,32,69063,1,8,0:0:0:0:
284,132,69504,2,0,L|160:224,1,130,2|8,0:0|0:0,0:0:0:0:
116,220,70166,2,0,P|56:184|48:96,1,130,0|0,0:0|0:0,0:0:0:0:
64,68,70828,1,8,0:0:0:0:
192,44,71269,6,0,L|336:44,1,130,2|8,0:0|0:0,0:0:0:0:
388,52,71931,2,0,P|456:104|472:184,1,130,0|0,0:0|0:0,0:0:0:0:
408,256,72813,2,0,P|340:236|272:276,1,130,0|0,0:0|0:0,0:0:0:0:
260,316,73475,2,0,P|168:332|68:288,1,195,8|0,0:0|0:0,0:0:0:0:
64,232,74357,2,0,L|64:136,1,65,8|0,0:0|0:0,0:0:0:0:
44,104,74798,6,0,P|112:60|180:72,1,130,2|8,0:0|0:0,0:0:0:0:
208,104,75460,2,0,L|268:140,1,65
388,184,76122,1,8,0:0:0:0:
388,184,76343,2,0,L|416:336,1,130,0|0,0:0|0:0,0:0:0:0:
284,340,77225,2,0,P|216:308|136:320,1,130,0|0,0:0|0:0,0:0:0:0:
96,316,77887,1,8,0:0:0:0:
24,208,78328,6,0,L|24:60,1,130,0|8,0:0|0:0,0:0:0:0:
76,40,78990,2,0,P|132:28|212:44,1,130
256,76,79651,1,8,0:0:0:0:
372,20,80093,1,0,0:0:0:0:
472,104,80534,1,8,0:0:0:0:
388,200,80975,2,0,P|332:308|184:308,1,260,0|4,0:0|0:0,0:0:0:0:
80,284,82298,5,8,0:0:0:0:
56,224,82519,2,0,L|56:80,1,130
64,28,83181,1,8,0:0:0:0:
192,56,83622,2,0,L|360:64,1,130,0|8,0:0|0:0,0:0:0:0:
388,68,84284,1,0,0:0:0:0:
416,160,84615,2,0,P|404:236|268:276,1,227.5,0|4,0:0|0:0,0:0:0:0:
256,192,85607,12,0,88695,0:0:0:0:
