osu file format v14

[General]
AudioFilename: music.mp3
AudioLeadIn: 0
PreviewTime: 9504
Countdown: 0
SampleSet: Soft
StackLeniency: 0.7
Mode: 0
LetterboxInBreaks: 0
WidescreenStoryboard: 0

[Editor]
Bookmarks: 38181,51857
DistanceSpacing: 1.3
BeatDivisor: 4
GridSize: 4
TimelineZoom: 3.419999

[Metadata]
Title:Shoujo Meiro de Tsukamaete (TVsize)
TitleUnicode:少女迷路でつかまえて (TVsize)
Artist:Aki Misato
ArtistUnicode:美郷あき
Creator:Lily Bread
Version:Insane Collab
Source:ストロベリー・パニック
Tags:sodarose Strawberry Panic 百合 蒼井渚砂 花園静馬
BeatmapID:909174
BeatmapSetID:420229

[Difficulty]
HPDrainRate:6.5
CircleSize:4
OverallDifficulty:6.5
ApproachRate:8
SliderMultiplier:2
SliderTickRate:1

[Events]
//Background and Video events
0,0,"BG.jpg",0,0
//Break Periods
//Storyboard Layer 0 (Background)
//Storyboard Layer 1 (Fail)
//Storyboard Layer 2 (Pass)
//Storyboard Layer 3 (Foreground)
//Storyboard Sound Samples

[TimingPoints]
2446.10360390419,441.176470588235,4,2,2,84,1,0
9725,-100,4,2,1,55,0,0
37740,-66.6666666666667,4,2,1,65,0,0
37960,-90.9090909090909,4,2,1,65,0,0
53622,-83.3333333333333,4,2,2,84,0,1
81857,-100,4,2,2,84,0,0
85497,-100,4,2,2,20,0,0

[Colours]
Combo1 : 242,24,57
Combo2 : 0,202,0
Combo3 : 18,124,255

[HitObjects]
200,76,2446,6,0,P|158:48|109:41,1,100,4|0,0:0|0:0,0:0:0:0:
4,140,2887,1,8,0:0:0:0:
80,256,3107,1,0,0:0:0:0:
80,256,3218,1,0,0:0:0:0:
80,256,3328,2,0,L|80:328,2,50
156,152,3769,2,0,P|192:196|204:240,1,100,8|0,0:0|0:0,0:0:0:0:
204,276,4100,1,0,0:0:0:0:
204,276,4210,6,0,P|252:284|324:264,1,100
432,256,4651,1,8,0:0:0:0:
432,128,4872,1,0,0:0:0:0:
432,128,4983,1,0,0:0:0:0:
432,128,5093,2,0,L|432:56,2,50
356,232,5534,2,0,P|320:188|308:144,1,100,8|0,0:0|0:0,0:0:0:0:
308,108,5865,1,0,0:0:0:0:
308,108,5975,6,0,P|260:100|188:120,1,100,4|0,0:0|0:0,0:0:0:0:
88,192,6416,1,8,0:0:0:0:
196,268,6637,2,0,L|220:192,1,50
301,220,6857,2,0,L|324:272,2,50
424,192,7299,1,8,0:0:0:0:
480,304,7519,2,0,L|436:328,1,50
324,348,7740,5,0,0:0:0:0:
286,353,7850,1,0,0:0:0:0:
249,355,7960,1,0,0:0:0:0:
212,354,8070,1,0,0:0:0:0:
175,348,8181,1,8,0:0:0:0:
32,304,8401,2,0,L|76:328,1,50
76,140,8732,2,0,L|32:164,1,50
175,36,9063,1,0,0:0:0:0:
256,148,9284,1,0,0:0:0:0:
256,148,9394,1,0,0:0:0:0:
256,148,9504,5,4,0:0:0:0:
280,288,9725,2,0,P|336:260|364:208,1,100,0|8,0:0|0:0,0:0:0:0:
380,92,10166,1,0,0:0:0:0:
436,188,10387,1,2,0:0:0:0:
436,188,10497,2,0,L|436:292,1,100
436,324,10828,2,0,P|404:364|348:364,1,100,8|0,0:0|0:0,0:0:0:0:
280,288,11269,5,2,0:0:0:0:
280,288,11379,2,0,L|176:288,1,100
144,288,11710,2,0,P|104:256|104:200,1,100,8|0,0:0|0:0,0:0:0:0:
188,100,12151,2,0,P|144:72|80:76,1,100
324,100,12593,2,0,P|368:72|432:76,1,100,8|0,0:0|0:0,0:0:0:0:
440,80,12924,1,0,0:0:0:0:
440,80,13034,5,0,0:0:0:0:
412,208,13254,2,0,P|406:256|367:285,1,100,0|8,0:0|0:0,0:0:0:0:
256,204,13696,1,0,0:0:0:0:
144,288,13916,1,2,0:0:0:0:
143,287,14026,2,0,P|105:258|99:210,1,100
104,184,14357,1,8,0:0:0:0:
180,64,14578,1,0,0:0:0:0:
331,142,14799,6,0,P|287:190|219:207,1,100,2|0,0:0|0:0,0:0:0:0:
72,304,15240,2,0,L|176:312,1,100,8|0,0:0|0:0,0:0:0:0:
439,304,15901,2,0,L|335:312,1,100,0|8,0:0|0:0,0:0:0:0:
256,204,16343,2,0,L|256:128,2,50
120,164,16784,6,0,P|64:152|28:92,1,100,0|8,0:0|0:0,0:0:0:0:
128,16,17225,1,0,0:0:0:0:
256,72,17446,1,2,0:0:0:0:
256,72,17556,2,0,L|356:72,1,100
384,72,17887,1,8,0:0:0:0:
512,128,18107,1,0,0:0:0:0:
384,188,18328,5,2,0:0:0:0:
384,188,18438,2,0,L|284:188,1,100
256,188,18769,1,8,0:0:0:0:
128,244,18989,1,0,0:0:0:0:
288,316,19210,2,0,P|236:312|184:284,1,100
384,316,19651,2,0,P|436:312|488:284,1,100,8|0,0:0|0:0,0:0:0:0:
496,268,19982,1,0,0:0:0:0:
500,240,20093,6,0,L|500:132,2,100,2|0|8,0:0|0:0|0:0,0:0:0:0:
384,160,20754,1,0,0:0:0:0:
384,160,20865,1,0,0:0:0:0:
384,160,20975,2,0,L|356:108,2,50
256,220,21416,1,8,0:0:0:0:
128,160,21637,2,0,L|156:108,1,50
220,96,21857,6,0,P|172:48|112:60,1,100,2|0,0:0|0:0,0:0:0:0:
32,152,22299,1,8,0:0:0:0:
108,268,22519,1,0,0:0:0:0:
108,268,22629,2,0,L|168:268,1,50,8|0,0:0|0:0,0:0:0:0:
224,308,22850,2,0,L|268:340,1,50
224,228,23071,2,0,L|272:196,1,50
300,268,23291,2,0,L|364:268,1,50
424,272,23512,1,0,0:0:0:0:
424,272,23622,6,0,P|456:232|472:152,1,100,4|0,0:0|0:0,0:0:0:0:
344,128,24063,2,0,P|292:120|232:100,1,100,8|0,0:0|0:0,0:0:0:0:
128,32,24504,2,0,P|108:100|132:184,1,150,2|0,0:0|0:0,0:0:0:0:
148,200,24946,2,0,L|144:308,1,100,8|0,0:0|0:0,0:0:0:0:
246,277,25387,5,2,0:0:0:0:
246,277,25497,2,0,P|294:263|344:256,1,100
368,272,25828,2,0,P|417:264|465:250,1,100,8|0,0:0|0:0,0:0:0:0:
465,134,26269,2,0,P|417:120|368:112,1,100
244,48,26710,1,8,0:0:0:0:
212,184,26931,2,0,L|131:209,2,50
316,244,27372,6,0,P|268:284|212:284,1,100,0|8,0:0|0:0,0:0:0:0:
164,200,27813,1,0,0:0:0:0:
64,248,28034,1,2,0:0:0:0:
64,248,28144,2,0,P|22:201|20:145,1,100
24,140,28475,2,0,L|52:44,1,100,8|0,0:0|0:0,0:0:0:0:
214,90,28916,6,0,P|150:106|90:82,1,100,2|0,0:0|0:0,0:0:0:0:
156,16,29357,1,8,0:0:0:0:
84,196,29578,2,0,P|176:208|284:164,1,200
356,56,30240,1,8,0:0:0:0:
448,160,30460,2,0,L|508:180,2,50
372,284,30901,6,0,B|352:348|352:348|320:356,1,100,0|8,0:0|0:0,0:0:0:0:
248,272,31343,1,0,0:0:0:0:
164,348,31563,1,2,0:0:0:0:
164,348,31674,2,0,P|100:340|72:300,1,100
64,292,32004,1,8,0:0:0:0:
148,200,32225,1,0,0:0:0:0:
68,112,32446,5,2,0:0:0:0:
68,112,32556,2,0,P|104:79|153:79,1,100
180,92,32887,1,8,0:0:0:0:
276,192,33107,1,0,0:0:0:0:
304,192,33218,1,0,0:0:0:0:
332,192,33328,2,0,L|396:192,2,50
316,108,33769,1,8,0:0:0:0:
316,276,33990,1,0,0:0:0:0:
316,304,34100,1,0,0:0:0:0:
316,332,34210,6,0,L|440:332,1,100,2|0,0:0|0:0,0:0:0:0:
464,192,34651,1,8,0:0:0:0:
416,52,34872,1,0,0:0:0:0:
416,52,34982,1,0,0:0:0:0:
416,52,35093,2,0,L|416:-8,2,50
316,108,35534,1,8,0:0:0:0:
216,2,35754,2,0,L|216:52,1,50
220,128,35975,6,0,P|268:123|328:104,1,100,2|0,0:0|0:0,0:0:0:0:
392,208,36416,1,0,0:0:0:0:
365,225,36526,1,0,0:0:0:0:
336,239,36636,1,0,0:0:0:0:
305,248,36746,1,0,0:0:0:0:
273,252,36857,1,0,0:0:0:0:
242,251,36967,1,0,0:0:0:0:
210,246,37077,1,0,0:0:0:0:
180,236,37188,1,0,0:0:0:0:
152,220,37299,6,0,L|112:196,6,25
120,256,37740,6,0,P|56:284|36:224,1,150.000005722046,4|2,0:0|0:0,0:0:0:0:
144,92,38181,1,8,0:0:0:0:
356,156,38401,1,0,0:0:0:0:
356,156,38512,1,0,0:0:0:0:
356,156,38622,2,0,L|348:84,1,55.0000016784668
412,44,38843,1,0,0:0:0:0:
412,44,38953,2,0,L|405:98,1,55.0000016784668,0|8,0:0|0:0,0:0:0:0:
344,240,39174,2,0,P|284:204|272:152,1,110.000003356934
356,156,39504,6,0,P|408:184|428:240,2,110.000003356934,2|2|8,0:0|0:0|0:0,0:0:0:0:
156,228,40166,1,0,0:0:0:0:
156,228,40277,1,0,0:0:0:0:
156,228,40387,2,0,L|164:300,1,55.0000016784668
100,340,40608,1,0,0:0:0:0:
100,340,40718,2,0,L|107:286,1,55.0000016784668,0|8,0:0|0:0,0:0:0:0:
168,144,40939,2,0,P|228:180|240:232,1,110.000003356934
156,228,41269,6,0,P|104:200|84:144,2,110.000003356934,2|2|8,0:0|0:0|0:0,0:0:0:0:
256,360,41931,2,0,L|284:308,1,55.0000016784668
347,218,42151,2,0,P|283:206|231:218,1,110.000003356934
380,352,42593,2,0,P|433:364|487:355,1,110.000003356934,8|0,0:0|0:0,0:0:0:0:
396,148,43034,6,0,P|296:124|172:148,1,220.000006713867,2|8,0:0|0:0,0:0:0:0:
118,281,43696,1,0,0:0:0:0:
118,281,43806,1,0,0:0:0:0:
118,281,43916,2,0,L|104:220,3,55.0000016784668
76,156,44357,2,0,L|100:96,3,55.0000016784668,8|0|0|0,0:0|0:0|0:0|0:0,0:0:0:0:
48,44,44799,6,0,L|188:44,1,110.000003356934,2|2,0:0|0:0,0:0:0:0:
256,132,45240,1,8,0:0:0:0:
416,44,45460,1,0,0:0:0:0:
416,44,45571,1,0,0:0:0:0:
416,44,45681,2,0,P|377:40|348:44,1,55.0000016784668
336,112,45901,1,0,0:0:0:0:
336,112,46012,2,0,P|374:117|404:112,1,55.0000016784668,0|8,0:0|0:0,0:0:0:0:
472,104,46232,2,0,L|472:224,1,110.000003356934
456,296,46563,6,0,B|420:288|404:264|404:264|368:260|324:264,2,110.000003356934,2|2|8,0:0|0:0|0:0,0:0:0:0:
280,336,47225,1,0,0:0:0:0:
280,336,47336,1,0,0:0:0:0:
280,336,47446,2,0,P|241:340|212:336,1,55.0000016784668
176,272,47666,1,0,0:0:0:0:
176,272,47777,2,0,P|138:267|108:272,1,55.0000016784668,0|8,0:0|0:0,0:0:0:0:
40,280,47997,2,0,L|40:160,1,110.000003356934
56,88,48328,6,0,B|92:96|108:120|108:120|144:124|188:120,1,110.000003356934,2|0,0:0|0:0,0:0:0:0:
256,220,48769,2,0,L|256:100,1,110.000003356934,8|0,0:0|0:0,0:0:0:0:
256,72,49100,1,0,0:0:0:0:
256,72,49210,1,0,0:0:0:0:
256,220,49431,1,0,0:0:0:0:
357,121,49651,2,0,P|421:113|465:129,1,110.000003356934,8|0,0:0|0:0,0:0:0:0:
492,156,49982,1,0,0:0:0:0:
492,156,50093,5,2,0:0:0:0:
452,292,50313,1,2,0:0:0:0:
344,200,50534,1,8,0:0:0:0:
328,344,50754,1,0,0:0:0:0:
328,344,50865,1,0,0:0:0:0:
328,344,50975,2,0,L|248:324,3,55.0000016784668
216,372,51416,2,0,L|136:352,3,55.0000016784668,8|0|0|0,0:0|0:0|0:0|0:0,0:0:0:0:
160,284,51857,5,8,0:0:0:0:
256,192,52078,1,0,0:0:0:0:
160,100,52299,1,8,0:0:0:0:
190,87,52409,1,0,0:0:0:0:
222,78,52519,1,0,0:0:0:0:
256,76,52629,1,0,0:0:0:0:
289,78,52740,1,0,0:0:0:0:
321,85,52850,1,0,0:0:0:0:
352,98,52960,1,0,0:0:0:0:
444,204,53181,1,8,0:0:0:0:
353,285,53401,1,0,0:0:0:0:
353,285,53512,1,0,0:0:0:0:
353,285,53622,6,0,P|421:320|475:317,2,119.999996337891,4|0|8,0:0|0:0|0:0,0:0:0:0:
109,160,54284,1,0,0:0:0:0:
176,336,54504,1,0,0:0:0:0:
225,150,54725,1,0,0:0:0:0:
280,320,54946,1,8,0:0:0:0:
158,98,55166,1,0,0:0:0:0:
158,98,55276,1,0,0:0:0:0:
158,98,55387,6,0,P|90:63|36:70,1,119.999996337891,2|0,0:0|0:0,0:0:0:0:
65,204,55828,1,8,0:0:0:0:
256,131,56049,1,0,0:0:0:0:
256,131,56159,1,0,0:0:0:0:
256,131,56269,2,0,L|256:58,2,59.9999981689454
256,317,56710,1,8,0:0:0:0:
402,228,56931,1,0,0:0:0:0:
428,256,57041,1,0,0:0:0:0:
450,285,57151,6,0,P|385:330|325:293,1,119.999996337891,2|0,0:0|0:0,0:0:0:0:
220,176,57593,1,8,0:0:0:0:
24,320,57813,2,0,P|75:357|131:337,1,119.999996337891
122,163,58254,2,0,P|61:143|28:86,1,119.999996337891,0|8,0:0|0:0,0:0:0:0:
216,40,58696,1,0,0:0:0:0:
256,32,58806,1,0,0:0:0:0:
296,40,58916,5,2,0:0:0:0:
389,163,59137,2,0,P|450:143|483:86,1,119.999996337891,2|8,0:0|0:0,0:0:0:0:
320,118,59578,1,0,0:0:0:0:
291,133,59688,1,0,0:0:0:0:
259,139,59798,1,0,0:0:0:0:
226,134,59908,1,0,0:0:0:0:
197,118,60019,1,0,0:0:0:0:
256,41,60240,1,8,0:0:0:0:
142,196,60460,1,0,0:0:0:0:
211,362,60681,6,0,P|237:301|235:240,1,119.999996337891,2|0,0:0|0:0,0:0:0:0:
252,213,61012,1,0,0:0:0:0:
252,213,61122,2,0,P|314:192|376:197,1,119.999996337891,8|0,0:0|0:0,0:0:0:0:
402,204,61453,1,0,0:0:0:0:
432,225,61563,1,0,0:0:0:0:
449,257,61673,1,0,0:0:0:0:
451,296,61783,1,0,0:0:0:0:
320,321,62004,1,8,0:0:0:0:
357,110,62225,1,0,0:0:0:0:
320,110,62335,1,0,0:0:0:0:
284,114,62446,6,0,P|215:131|154:183,1,119.999996337891,2|0,0:0|0:0,0:0:0:0:
69,309,62887,1,8,0:0:0:0:
12,151,63107,2,0,L|12:86,1,59.9999981689454
105,86,63328,2,0,L|105:21,1,59.9999981689454
195,45,63549,2,0,P|251:21|353:25,1,119.999996337891,0|8,0:0|0:0,0:0:0:0:
442,74,63990,1,0,0:0:0:0:
353,192,64210,6,0,P|296:216|195:212,1,119.999996337891,2|0,0:0|0:0,0:0:0:0:
101,167,64651,1,8,0:0:0:0:
12,298,64872,2,0,L|12:236,1,59.9999981689454
105,363,65093,2,0,L|105:301,1,59.9999981689454
195,338,65313,2,0,P|251:362|353:358,1,119.999996337891,0|8,0:0|0:0,0:0:0:0:
452,274,65754,1,0,0:0:0:0:
460,240,65865,1,0,0:0:0:0:
452,204,65975,5,0,0:0:0:0:
256,204,66196,1,0,0:0:0:0:
248,240,66307,1,0,0:0:0:0:
256,274,66417,1,8,0:0:0:0:
432,112,66637,1,0,0:0:0:0:
394,94,66747,1,0,0:0:0:0:
355,86,66857,1,0,0:0:0:0:
316,93,66967,1,0,0:0:0:0:
280,112,67078,1,0,0:0:0:0:
101,216,67299,1,8,0:0:0:0:
12,66,67519,1,0,0:0:0:0:
40,45,67629,1,0,0:0:0:0:
73,33,67740,6,0,P|138:21|207:41,2,119.999996337891,4|2|8,0:0|0:0|0:0,0:0:0:0:
199,167,68401,1,0,0:0:0:0:
16,200,68622,1,0,0:0:0:0:
146,330,68843,1,0,0:0:0:0:
97,106,69063,1,8,0:0:0:0:
308,188,69284,1,0,0:0:0:0:
324,220,69394,1,0,0:0:0:0:
342,251,69504,6,0,B|396:272|396:272|452:232,1,119.999996337891,2|0,0:0|0:0,0:0:0:0:
365,53,69946,1,8,0:0:0:0:
216,160,70166,1,0,0:0:0:0:
188,180,70276,1,0,0:0:0:0:
159,203,70387,2,0,L|101:244,2,59.9999981689454
240,276,70828,1,8,0:0:0:0:
160,100,71049,1,0,0:0:0:0:
148,68,71159,1,0,0:0:0:0:
138,37,71269,6,0,L|276:37,1,119.999996337891,2|0,0:0|0:0,0:0:0:0:
430,159,71710,1,8,0:0:0:0:
374,347,71931,2,0,L|236:347,1,119.999996337891
81,224,72372,2,0,L|227:224,1,119.999996337891,0|8,0:0|0:0,0:0:0:0:
49,142,72813,1,0,0:0:0:0:
16,162,72924,1,0,0:0:0:0:
0,196,73034,5,2,0:0:0:0:
130,330,73254,1,2,0:0:0:0:
207,102,73475,1,8,0:0:0:0:
349,171,73696,1,0,0:0:0:0:
363,139,73806,1,0,0:0:0:0:
368,104,73916,1,0,0:0:0:0:
362,69,74026,1,0,0:0:0:0:
344,39,74136,1,0,0:0:0:0:
511,102,74357,1,8,0:0:0:0:
349,212,74578,1,0,0:0:0:0:
363,244,74688,1,0,0:0:0:0:
368,279,74799,6,0,P|345:342|284:362,1,119.999996337891,2|0,0:0|0:0,0:0:0:0:
272,358,75129,1,0,0:0:0:0:
247,350,75240,2,0,P|191:317|122:317,1,119.999996337891,8|0,0:0|0:0,0:0:0:0:
105,330,75571,1,0,0:0:0:0:
72,336,75681,1,0,0:0:0:0:
40,328,75791,1,0,0:0:0:0:
12,308,75901,1,0,0:0:0:0:
130,53,76122,1,8,0:0:0:0:
77,171,76343,2,0,L|77:240,2,59.9999981689454,0|0|2,0:0|0:0|0:0,0:0:0:0:
256,86,76784,6,0,L|256:17,2,59.9999981689454,2|0|8,0:0|0:0|0:0,0:0:0:0:
211,212,77225,1,0,0:0:0:0:
242,221,77335,1,0,0:0:0:0:
275,220,77445,1,0,0:0:0:0:
306,210,77555,1,0,0:0:0:0:
333,192,77666,1,0,0:0:0:0:
381,53,77887,1,8,0:0:0:0:
426,236,78107,2,0,L|426:305,1,59.9999981689454
357,354,78328,5,2,0:0:0:0:
150,297,78549,2,0,L|85:297,1,59.9999981689454
28,232,78769,1,8,0:0:0:0:
130,118,78990,1,0,0:0:0:0:
156,99,79101,1,0,0:0:0:0:
187,89,79211,1,0,0:0:0:0:
220,89,79321,1,0,0:0:0:0:
251,98,79431,2,0,P|325:127|361:171,1,119.999996337891,0|8,0:0|0:0,0:0:0:0:
337,330,79872,1,0,0:0:0:0:
368,320,79982,1,0,0:0:0:0:
398,309,80093,5,0,0:0:0:0:
475,159,80313,1,0,0:0:0:0:
461,125,80423,1,0,0:0:0:0:
442,93,80533,1,8,0:0:0:0:
419,66,80643,1,0,0:0:0:0:
390,42,80754,1,0,0:0:0:0:
359,24,80864,1,0,0:0:0:0:
325,17,80975,2,0,L|264:17,1,59.9999981689454
131,98,81196,2,0,L|191:98,1,59.9999981689454
293,179,81416,6,0,L|264:179,6,29.9999990844727
272,232,81857,5,4,0:0:0:0:
428,264,82078,1,2,0:0:0:0:
272,152,82299,1,8,0:0:0:0:
428,100,82519,1,0,0:0:0:0:
428,100,82629,1,0,0:0:0:0:
428,100,82740,2,0,L|496:100,2,50
304,24,83181,2,0,P|256:12|200:28,1,100,8|0,0:0|0:0,0:0:0:0:
180,40,83512,1,0,0:0:0:0:
156,60,83622,6,0,L|64:136,1,100,2|0,0:0|0:0,0:0:0:0:
72,264,84063,2,0,L|152:200,1,100,8|0,0:0|0:0,0:0:0:0:
180,192,84394,2,0,L|236:192,1,50
352,176,84615,2,0,L|352:240,1,50
384,336,84835,2,0,L|316:336,1,50
200,354,85056,2,0,L|200:304,1,50
280,264,85276,1,0,0:0:0:0:
280,264,85387,5,4,0:0:0:0:
256,192,85497,12,0,88696,0:0:0:0:
