osu file format v14

[General]
AudioFilename: music.mp3
AudioLeadIn: 0
PreviewTime: 9504
Countdown: 0
SampleSet: Soft
StackLeniency: 0.7
Mode: 0
LetterboxInBreaks: 0
WidescreenStoryboard: 0

[Editor]
DistanceSpacing: 1.2
BeatDivisor: 4
GridSize: 4
TimelineZoom: 2.22

[Metadata]
Title:Shoujo Meiro de Tsukamaete (TVsize)
TitleUnicode:少女迷路でつかまえて (TVsize)
Artist:Aki Misato
ArtistUnicode:美郷あき
Creator:Lily Bread
Version:Hard
Source:ストロベリー・パニック
Tags:sodarose Strawberry Panic 百合 蒼井渚砂 花園静馬
BeatmapID:909173
BeatmapSetID:420229

[Difficulty]
HPDrainRate:5
CircleSize:4
OverallDifficulty:5
ApproachRate:7
SliderMultiplier:1.7
SliderTickRate:1

[Events]
//Background and Video events
0,0,"BG.jpg",0,0
//Break Periods
//Storyboard Layer 0 (Background)
//Storyboard Layer 1 (Fail)
//Storyboard Layer 2 (Pass)
//Storyboard Layer 3 (Foreground)
//Storyboard Sound Samples

[TimingPoints]
2446,441.176470588235,4,2,2,84,1,0
9725,-100,4,2,1,55,0,0
37740,-100,4,2,1,65,0,0
37960,-100,4,2,1,65,0,0
53622,-90.9090909090909,4,2,2,84,0,1
81857,-100,4,2,2,84,0,0
85497,-100,4,2,2,20,0,0

[Colours]
Combo1 : 242,24,57
Combo2 : 0,202,0
Combo3 : 18,124,255

[HitObjects]
144,96,2446,6,0,P|96:72|48:88,1,85,4|0,0:0|0:0,0:0:0:0:
92,176,2887,2,0,L|108:276,1,85,8|0,0:0|0:0,0:0:0:0:
76,356,3328,2,0,P|128:366|170:338,1,85,0|0,0:0|0:0,0:0:0:0:
216,272,3769,2,0,P|256:264|308:276,1,85,8|0,0:0|0:0,0:0:0:0:
356,354,4210,6,0,P|395:368|436:356,1,85,0|0,0:0|0:0,0:0:0:0:
406,259,4651,2,0,L|420:176,1,85,8|0,0:0|0:0,0:0:0:0:
445,76,5093,2,0,P|403:73|368:96,1,85,0|0,0:0|0:0,0:0:0:0:
256,120,5534,2,0,L|256:20,1,85,8|0,0:0|0:0,0:0:0:0:
156,28,5975,6,0,P|144:72|100:96,1,85,4|0,0:0|0:0,0:0:0:0:
32,152,6416,2,0,P|20:192|52:248,1,85,8|0,0:0|0:0,0:0:0:0:
113,290,6857,2,0,P|146:315|156:356,1,85,0|0,0:0|0:0,0:0:0:0:
256,349,7299,2,0,L|256:264,1,85,8|0,0:0|0:0,0:0:0:0:
327,198,7740,6,0,P|296:169|256:160,1,85,0|0,0:0|0:0,0:0:0:0:
184,88,8181,1,8,0:0:0:0:
184,88,8401,2,0,P|224:64|328:88,1,127.5,0|0,0:0|0:0,0:0:0:0:
328,88,8843,2,0,P|368:100|416:88,1,85,0|0,0:0|0:0,0:0:0:0:
472,192,9284,1,0,0:0:0:0:
472,192,9394,1,0,0:0:0:0:
472,192,9504,5,4,0:0:0:0:
409,292,9725,2,0,P|368:283|328:296,1,85,0|8,0:0|0:0,0:0:0:0:
255,224,10166,1,0,0:0:0:0:
185,296,10387,2,0,P|120:308|56:268,2,127.5,2|0|0,0:0|0:0|0:0,0:0:0:0:
184,152,11269,6,0,P|119:140|55:180,2,127.5,2|0|0,0:0|0:0|0:0,0:0:0:0:
284,136,12151,2,0,P|328:128|368:96,1,85,0|0,0:0|0:0,0:0:0:0:
368,4,12593,2,0,P|440:28|456:136,1,170,8|0,0:0|0:0,0:0:0:0:
404,192,13254,6,0,P|412:236|444:276,1,85,0|8,0:0|0:0,0:0:0:0:
504,192,13696,1,0,0:0:0:0:
512,292,13916,2,0,P|480:340|404:340,2,127.5,2|0|0,0:0|0:0|0:0,0:0:0:0:
368,272,14799,6,0,L|272:288,1,85,2|0,0:0|0:0,0:0:0:0:
292,184,15240,2,0,L|196:176,1,85,8|0,0:0|0:0,0:0:0:0:
24,272,15901,2,0,L|120:288,1,85,0|8,0:0|0:0,0:0:0:0:
196,320,16343,2,0,L|196:384,2,42.5,0|0|0,0:0|0:0|0:0,0:0:0:0:
228,224,16784,5,0,0:0:0:0:
128,208,17004,2,0,P|144:164|192:132,1,85,8|0,0:0|0:0,0:0:0:0:
272,108,17446,2,0,P|236:60|156:40,2,127.5,2|0|0,0:0|0:0|0:0,0:0:0:0:
316,200,18328,6,0,P|352:248|432:268,2,127.5,2|0|0,0:0|0:0|0:0,0:0:0:0:
415,168,19210,2,0,P|446:139|460:100,1,85,0|0,0:0|0:0,0:0:0:0:
355,93,19651,2,0,L|263:109,1,85,8|0,0:0|0:0,0:0:0:0:
196,36,20093,6,0,P|164:100|216:188,1,170,2|8,0:0|0:0,0:0:0:0:
284,248,20754,1,0,0:0:0:0:
364,311,20975,2,0,P|293:353|217:321,1,170,0|8,0:0|0:0,0:0:0:0:
136,260,21637,1,0,0:0:0:0:
44,300,21857,6,0,L|44:124,1,170,2|8,0:0|0:0,0:0:0:0:
128,72,22519,2,0,L|184:68,1,42.5,0|8,0:0|0:0,0:0:0:0:
260,120,22850,2,0,L|368:120,2,85,0|0|0,0:0|0:0|0:0,0:0:0:0:
168,160,23512,2,0,L|125:156,1,42.5,0|4,0:0|0:0,0:0:0:0:
136,260,23843,6,0,P|188:260|236:228,1,85,0|8,0:0|0:0,0:0:0:0:
304,196,24284,1,0,0:0:0:0:
344,288,24504,2,0,P|372:344|448:384,1,127.5,2|0,0:0|0:0,0:0:0:0:
492,240,25166,1,0,0:0:0:0:
484,140,25387,6,0,P|428:168|388:244,1,127.5,2|0,0:0|0:0,0:0:0:0:
272,312,26049,1,0,0:0:0:0:
296,212,26269,2,0,P|316:168|308:132,1,85,0|0,0:0|0:0,0:0:0:0:
396,80,26710,1,8,0:0:0:0:
396,80,26931,2,0,L|388:20,2,42.5,0|0|0,0:0|0:0|0:0,0:0:0:0:
308,133,27372,6,0,P|266:144|198:140,1,85,0|8,0:0|0:0,0:0:0:0:
164,64,27813,1,0,0:0:0:0:
100,140,28034,2,0,L|112:272,1,127.5,2|0,0:0|0:0,0:0:0:0:
240,352,28696,1,0,0:0:0:0:
284,260,28916,6,0,P|236:244|192:260,1,85,2|0,0:0|0:0,0:0:0:0:
111,266,29357,1,8,0:0:0:0:
28,324,29578,2,0,L|12:140,1,170,0|0,0:0|0:0,0:0:0:0:
116,80,30240,1,8,0:0:0:0:
116,80,30461,2,0,L|124:20,2,42.5,0|0|0,0:0|0:0|0:0,0:0:0:0:
208,124,30901,5,0,0:0:0:0:
276,48,31122,2,0,P|312:100|300:152,1,85,8|0,0:0|0:0,0:0:0:0:
248,200,31563,2,0,L|244:292,1,85,2|0,0:0|0:0,0:0:0:0:
244,324,31894,2,0,P|300:356|372:356,1,127.5,0|0,0:0|0:0,0:0:0:0:
452,324,32446,6,0,L|456:232,1,85,2|0,0:0|0:0,0:0:0:0:
456,200,32777,2,0,P|400:168|328:168,1,127.5,0|0,0:0|0:0,0:0:0:0:
236,180,33328,2,0,L|152:196,1,85,0|0,0:0|0:0,0:0:0:0:
156,92,33769,2,0,L|64:72,1,85,8|0,0:0|0:0,0:0:0:0:
28,164,34210,6,0,P|48:256|128:300,1,170,2|8,0:0|0:0,0:0:0:0:
208,272,34872,2,0,P|227:309|227:351,1,85
464,272,35534,1,8,0:0:0:0:
445,351,35755,1,0,0:0:0:0:
376,292,35975,6,0,P|336:268|296:220,1,85,2|0,0:0|0:0,0:0:0:0:
260,148,36416,2,0,L|264:100,3,42.5
216,124,36857,2,0,L|220:76,3,42.5,0|0|0|0,0:0|0:0|0:0|0:0,0:0:0:0:
172,104,37299,2,0,L|176:56,3,42.5,0|0|0|0,0:0|0:0|0:0|0:0,0:0:0:0:
124,68,37740,6,0,P|88:80|56:48,1,85,4|2,0:0|0:0,0:0:0:0:
8,132,38181,2,0,L|12:224,1,85,8|0,0:0|0:0,0:0:0:0:
44,316,38622,2,0,P|84:296|108:252,1,85,0|0,0:0|0:0,0:0:0:0:
104,160,39063,2,0,P|160:168|188:204,1,85,8|0,0:0|0:0,0:0:0:0:
204,284,39504,5,2,0:0:0:0:
308,284,39725,1,2,0:0:0:0:
332,186,39946,2,0,P|366:161|408:160,1,85,8|0,0:0|0:0,0:0:0:0:
406,262,40387,2,0,P|430:297|468:316,1,85,0|0,0:0|0:0,0:0:0:0:
500,216,40828,2,0,L|504:132,1,85,8|0,0:0|0:0,0:0:0:0:
448,48,41269,6,0,P|412:80|364:80,1,85,2|2,0:0|0:0,0:0:0:0:
296,20,41710,2,0,P|256:8|204:28,1,85,8|0,0:0|0:0,0:0:0:0:
135,83,42151,2,0,P|93:77|63:48,1,85,0|0,0:0|0:0,0:0:0:0:
0,120,42593,2,0,P|33:145|45:185,1,85,8|0,0:0|0:0,0:0:0:0:
52,288,43034,6,0,P|124:276|180:188,1,170,2|8,0:0|0:0,0:0:0:0:
256,132,43696,1,0,0:0:0:0:
333,201,43916,2,0,P|378:270|460:288,1,170,0|8,0:0|0:0,0:0:0:0:
256,302,44799,6,0,L|256:114,1,170,2|8,0:0|0:0,0:0:0:0:
52,144,45681,2,0,P|56:200|80:240,1,85,0|0,0:0|0:0,0:0:0:0:
112,320,46122,2,0,P|156:308|180:268,1,85,8|0,0:0|0:0,0:0:0:0:
208,180,46563,5,2,0:0:0:0:
304,180,46784,1,2,0:0:0:0:
334,277,47004,2,0,P|359:310|400:320,1,85,8|0,0:0|0:0,0:0:0:0:
443,225,47446,2,0,P|459:186|460:144,1,85,0|0,0:0|0:0,0:0:0:0:
376,88,47887,2,0,P|336:104|276:104,1,85,8|0,0:0|0:0,0:0:0:0:
232,28,48328,6,0,P|189:31|150:46,1,85,2|0,0:0|0:0,0:0:0:0:
68,108,48769,1,8,0:0:0:0:
156,156,48990,2,0,L|176:256,2,85,0|0|0,0:0|0:0|0:0,0:0:0:0:
252,184,49651,2,0,L|276:300,1,85,8|0,0:0|0:0,0:0:0:0:
200,340,50093,6,0,P|136:336|100:304,1,85,2|2,0:0|0:0,0:0:0:0:
60,240,50534,2,0,L|60:148,1,85,8|0,0:0|0:0,0:0:0:0:
119,58,50975,2,0,P|158:40|200:44,1,85,0|0,0:0|0:0,0:0:0:0:
269,116,51416,2,0,L|252:200,1,85,8|0,0:0|0:0,0:0:0:0:
244,300,51857,5,8,0:0:0:0:
332,248,52078,1,0,0:0:0:0:
404,328,52298,2,0,L|444:360,3,42.5,8|0|0|0,0:0|0:0|0:0|0:0,0:0:0:0:
440,304,52740,2,0,P|478:275|489:228,1,85,0|0,0:0|0:0,0:0:0:0:
400,192,53181,1,8,0:0:0:0:
300,168,53401,1,0,0:0:0:0:
300,168,53512,1,0,0:0:0:0:
300,168,53622,6,0,L|300:64,2,93.5000028533936,4|0|8,0:0|0:0|0:0,0:0:0:0:
192,228,54284,1,0,0:0:0:0:
264,316,54504,2,0,P|224:344|160:332,1,93.5000028533936,0|0,0:0|0:0,0:0:0:0:
84,284,54946,1,8,0:0:0:0:
128,180,55166,1,0,0:0:0:0:
17,184,55387,6,0,P|22:138|48:100,1,93.5000028533936,2|0,0:0|0:0,0:0:0:0:
140,36,55828,1,8,0:0:0:0:
208,124,56049,2,0,P|288:132|388:64,1,187.000005706787,0|0,0:0|0:0,0:0:0:0:
472,16,56710,1,8,0:0:0:0:
472,128,56931,1,0,0:0:0:0:
472,128,57041,1,0,0:0:0:0:
472,128,57151,6,0,L|472:256,1,93.5000028533936,2|0,0:0|0:0,0:0:0:0:
416,320,57593,1,8,0:0:0:0:
328,248,57813,2,0,L|384:144,1,93.5000028533936,0|0,0:0|0:0,0:0:0:0:
264,132,58254,2,0,L|224:44,1,93.5000028533936,0|8,0:0|0:0,0:0:0:0:
112,32,58696,2,0,L|48:32,2,46.7500014266968,0|0|2,0:0|0:0|0:0,0:0:0:0:
140,140,59137,6,0,P|120:184|68:212,2,93.5000028533936,2|8|0,0:0|0:0|0:0,0:0:0:0:
376,140,60019,1,0,0:0:0:0:
460,216,60240,2,0,P|412:256|360:256,1,93.5000028533936,8|0,0:0|0:0,0:0:0:0:
272,268,60681,6,0,L|272:68,1,187.000005706787,2|8,0:0|0:0,0:0:0:0:
160,84,61343,2,0,P|128:168|168:276,1,187.000005706787,0|0,0:0|0:0,0:0:0:0:
228,344,62004,1,8,0:0:0:0:
116,356,62225,1,0,0:0:0:0:
116,356,62335,1,0,0:0:0:0:
116,356,62446,6,0,P|64:316|52:276,1,93.5000028533936,2|0,0:0|0:0,0:0:0:0:
20,184,62887,1,8,0:0:0:0:
128,160,63107,1,0,0:0:0:0:
336,72,63549,2,0,P|374:98|392:140,2,93.5000028533936,0|8|0,0:0|0:0|0:0,0:0:0:0:
272,180,64210,6,0,P|312:264|400:280,1,187.000005706787,2|8,0:0|0:0,0:0:0:0:
496,224,64872,2,0,P|508:272|496:332,1,93.5000028533936,0|0,0:0|0:0,0:0:0:0:
400,364,65313,2,0,L|292:368,1,93.5000028533936,0|8,0:0|0:0,0:0:0:0:
232,284,65754,2,0,L|188:216,2,46.7500014266968,0|0|0,0:0|0:0|0:0,0:0:0:0:
104,280,66196,6,0,L|140:340,2,46.7500014266968,0|0|8,0:0|0:0|0:0,0:0:0:0:
28,196,66637,1,0,0:0:0:0:
40,84,66857,2,0,P|100:104|124:148,1,93.5000028533936,0|0,0:0|0:0,0:0:0:0:
200,204,67299,1,8,0:0:0:0:
228,96,67519,1,0,0:0:0:0:
228,96,67629,1,0,0:0:0:0:
228,96,67740,6,0,P|268:56|336:56,2,93.5000028533936,4|2|8,0:0|0:0|0:0,0:0:0:0:
324,152,68401,1,0,0:0:0:0:
300,260,68622,2,0,P|352:264|408:220,1,93.5000028533936,0|0,0:0|0:0,0:0:0:0:
480,180,69063,2,0,P|499:221|494:267,1,93.5000028533936,8|0,0:0|0:0,0:0:0:0:
428,360,69504,6,0,P|328:344|228:364,1,187.000005706787,2|8,0:0|0:0,0:0:0:0:
132,344,70166,2,0,L|108:148,1,187.000005706787,0|0,0:0|0:0,0:0:0:0:
116,48,70828,1,8,0:0:0:0:
216,100,71049,1,0,0:0:0:0:
216,100,71159,1,0,0:0:0:0:
216,100,71269,6,0,P|260:132|308:132,1,93.5000028533936,2|0,0:0|0:0,0:0:0:0:
380,56,71710,1,8,0:0:0:0:
428,156,71931,2,0,L|448:260,1,93.5000028533936,0|0,0:0|0:0,0:0:0:0:
348,300,72372,2,0,L|328:196,1,93.5000028533936,0|8,0:0|0:0,0:0:0:0:
216,204,72813,2,0,L|200:264,2,46.7500014266968,0|0|2,0:0|0:0|0:0,0:0:0:0:
236,92,73254,5,2,0:0:0:0:
128,120,73475,2,0,P|72:148|84:276,1,187.000005706787,8|0,0:0|0:0,0:0:0:0:
168,316,74137,1,0,0:0:0:0:
216,204,74357,2,0,P|266:208|312:228,1,93.5000028533936,8|0,0:0|0:0,0:0:0:0:
364,320,74799,6,0,P|420:292|408:164,1,187.000005706787,2|8,0:0|0:0,0:0:0:0:
344,96,75460,2,0,P|256:128|168:96,1,187.000005706787,0|0,0:0|0:0,0:0:0:0:
72,44,76122,1,8,0:0:0:0:
52,156,76343,2,0,P|80:208|76:272,1,93.5000028533936,0|2,0:0|0:0,0:0:0:0:
132,344,76784,6,0,P|172:320|196:272,1,93.5000028533936,2|8,0:0|0:0,0:0:0:0:
317,279,77225,2,0,P|340:320|380:344,1,93.5000028533936,0|0,0:0|0:0,0:0:0:0:
429,241,77666,2,0,P|435:195|460:156,1,93.5000028533936,0|8,0:0|0:0,0:0:0:0:
412,52,78107,2,0,L|376:16,2,46.7500014266968,0|0|2,0:0|0:0|0:0,0:0:0:0:
356,152,78549,6,0,L|344:208,2,46.7500014266968,0|0|8,0:0|0:0|0:0,0:0:0:0:
276,72,78990,2,0,P|192:44|108:88,1,187.000005706787,0|0,0:0|0:0,0:0:0:0:
32,168,79651,1,8,0:0:0:0:
136,208,79872,2,0,L|136:276,2,46.7500014266968,0|0|0,0:0|0:0|0:0,0:0:0:0:
252,192,80313,5,0,0:0:0:0:
252,192,80424,1,0,0:0:0:0:
252,192,80534,2,0,L|256:272,3,46.7500014266968,8|0|0|0,0:0|0:0|0:0|0:0,0:0:0:0:
320,220,80975,2,0,L|324:280,3,46.7500014266968,0|0|0|0,0:0|0:0|0:0|0:0,0:0:0:0:
384,248,81416,2,0,L|392:320,3,46.7500014266968,0|0|0|0,0:0|0:0|0:0|0:0,0:0:0:0:
452,280,81857,6,0,P|488:244|484:180,1,85,4|2,0:0|0:0,0:0:0:0:
408,152,82299,1,8,0:0:0:0:
472,72,82519,2,0,P|396:48|312:104,1,170,0|0,0:0|0:0,0:0:0:0:
256,168,83181,2,0,P|220:184|160:176,1,85,8|0,0:0|0:0,0:0:0:0:
156,80,83622,6,0,P|116:94|87:124,1,85,2|0,0:0|0:0,0:0:0:0:
68,224,84063,1,8,0:0:0:0:
68,224,84284,2,0,L|68:272,1,42.5,0|0,0:0|0:0,0:0:0:0:
168,248,84615,2,0,L|168:352,2,85,0|0|0,0:0|0:0|0:0,0:0:0:0:
268,262,85276,2,0,L|268:220,1,42.5,0|4,0:0|0:0,0:0:0:0:
256,192,85497,12,0,88695,0:0:0:0:
