osu file format v14

[General]
AudioFilename: music.mp3
AudioLeadIn: 0
PreviewTime: 9504
Countdown: 0
SampleSet: Soft
StackLeniency: 0.7
Mode: 0
LetterboxInBreaks: 0
WidescreenStoryboard: 0

[Editor]
DistanceSpacing: 1
BeatDivisor: 2
GridSize: 4
TimelineZoom: 2.22

[Metadata]
Title:Shoujo Meiro de Tsukamaete (TVsize)
TitleUnicode:少女迷路でつかまえて (TVsize)
Artist:Aki Misato
ArtistUnicode:美郷あき
Creator:Lily Bread
Version:Easy
Source:ストロベリー・パニック
Tags:sodarose Strawberry Panic 百合 蒼井渚砂 花園静馬
BeatmapID:930540
BeatmapSetID:420229

[Difficulty]
HPDrainRate:1
CircleSize:2.8
OverallDifficulty:1
ApproachRate:2
SliderMultiplier:1
SliderTickRate:1

[Events]
//Background and Video events
0,0,"BG.jpg",0,0
//Break Periods
//Storyboard Layer 0 (Background)
//Storyboard Layer 1 (Fail)
//Storyboard Layer 2 (Pass)
//Storyboard Layer 3 (Foreground)
//Storyboard Sound Samples

[TimingPoints]
2446,441.176470588235,4,2,2,84,1,0
9725,-100,4,2,1,55,0,0
37740,-100,4,2,1,65,0,0
37960,-100,4,2,1,65,0,0
53622,-100,4,2,2,84,0,1
81857,-100,4,2,2,84,0,0
85497,-100,4,2,2,20,0,0

[Colours]
Combo1 : 242,24,57
Combo2 : 0,202,0
Combo3 : 18,124,255

[HitObjects]
88,92,2445,6,0,P|80:216|236:300,1,300,4|8,0:0|0:0,0:0:0:0:
224,204,4210,2,0,B|296:200|320:288|320:288|352:368|480:344,1,300,0|8,0:0|0:0,0:0:0:0:
480,252,5975,6,0,B|480:152|480:152|464:88|396:52|396:52|312:52,1,300,4|8,0:0|0:0,0:0:0:0:
232,60,7740,2,0,P|156:78|72:80,2,150,0|0|0,0:0|0:0|0:0,0:0:0:0:
292,140,9504,6,0,L|316:348,1,200,4|2,0:0|0:0,0:0:0:0:
116,336,11269,2,0,L|88:120,1,200,2|0,0:0|0:0,0:0:0:0:
116,40,12593,1,8,0:0:0:0:
216,56,13034,6,0,P|328:68|400:152,1,200,0|2,0:0|0:0,0:0:0:0:
408,324,14798,2,0,P|340:340|244:324,1,150,2|0,0:0|0:0,0:0:0:0:
172,284,15901,2,0,L|144:204,1,50,0|8,0:0|0:0,0:0:0:0:
140,136,16563,6,0,P|181:71|305:62,1,200,0|2,0:0|0:0,0:0:0:0:
476,144,18328,2,0,L|460:344,1,200,2|0,0:0|0:0,0:0:0:0:
360,356,19651,1,8,0:0:0:0:
300,276,20093,6,0,P|184:244|108:288,1,200,2|0,0:0|0:0,0:0:0:0:
112,80,21857,2,0,P|204:60|328:100,2,200,2|0|4,0:0|0:0|0:0,0:0:0:0:
92,280,24504,5,2,0:0:0:0:
284,340,25387,2,0,P|348:292|424:192,1,200,2|0,0:0|0:0,0:0:0:0:
408,96,26710,1,8,0:0:0:0:
320,144,27151,6,0,P|255:223|164:276,1,200,0|2,0:0|0:0,0:0:0:0:
88,92,28916,2,0,P|17:161|4:240,2,150,2|0|8,0:0|0:0|0:0,0:0:0:0:
188,100,30681,6,0,L|200:328,1,200,0|2,0:0|0:0,0:0:0:0:
392,340,32445,2,0,B|408:296|444:256|444:256|404:220|384:152,1,200,2|0,0:0|0:0,0:0:0:0:
372,72,33769,1,8,0:0:0:0:
272,84,34210,6,0,B|224:176|224:176|136:224,1,200,2|0,0:0|0:0,0:0:0:0:
284,360,35975,2,0,B|372:308|372:308|404:248,2,150,8|0|0,0:0|0:0|0:0,0:0:0:0:
200,304,37740,5,4,0:0:0:0:
136,112,38622,2,0,B|184:92|232:116|232:116|280:140|344:124,1,200,2|0,0:0|0:0,0:0:0:0:
296,324,40387,2,0,B|248:344|200:320|200:320|152:296|88:312,1,200,2|0,0:0|0:0,0:0:0:0:
24,128,42151,6,0,P|44:80|96:36,1,100,0|8,0:0|0:0,0:0:0:0:
176,36,43034,2,0,L|388:40,1,200,0|0,0:0|0:0,0:0:0:0:
460,220,44798,1,0,0:0:0:0:
300,340,45681,2,0,P|240:260|276:156,1,200,2|0,0:0|0:0,0:0:0:0:
104,48,47445,5,0,0:0:0:0:
48,240,48328,2,0,P|68:320|184:324,1,200
260,284,49651,1,8,0:0:0:0:
360,300,50093,2,0,B|360:220|280:184|280:184|120:184,1,300,0|8,0:0|0:0,0:0:0:0:
80,96,51857,6,0,L|216:96,1,100,8|8,0:0|0:0,0:0:0:0:
248,24,52740,1,0,0:0:0:0:
308,104,53181,1,8,0:0:0:0:
376,28,53622,6,0,P|408:72|408:136,1,100,4|8,0:0|0:0,0:0:0:0:
392,216,54504,2,0,L|384:324,1,100,0|8,0:0|0:0,0:0:0:0:
288,340,55387,2,0,P|208:352|116:332,2,150,2|0|8,0:0|0:0|0:0,0:0:0:0:
264,244,57151,6,0,P|232:172|164:100,1,150,2|0,0:0|0:0,0:0:0:0:
96,72,58254,1,0,0:0:0:0:
64,168,58695,2,0,L|112:324,1,150,0|8,0:0|0:0,0:0:0:0:
200,348,59798,2,0,P|256:356|328:328,1,100,0|8,0:0|0:0,0:0:0:0:
364,268,60681,6,0,B|392:160|392:160|368:108,2,150,2|0|8,0:0|0:0|0:0,0:0:0:0:
292,200,62445,2,0,P|216:208|132:192,1,150,2|0,0:0|0:0,0:0:0:0:
48,172,63548,2,0,P|20:112|4:24,2,150,0|2|0,0:0|0:0|0:0,0:0:0:0:
116,100,65313,5,0,0:0:0:0:
216,112,65754,2,0,L|376:112,1,150,0|8,0:0|0:0,0:0:0:0:
460,148,66857,1,0,0:0:0:0:
388,216,67298,1,8,0:0:0:0:
472,268,67740,6,0,P|428:312|364:316,1,100,4|8,0:0|0:0,0:0:0:0:
304,272,68622,2,0,L|184:264,1,100,0|8,0:0|0:0,0:0:0:0:
108,244,69504,2,0,P|68:312|-4:360,2,150,2|0|8,0:0|0:0|0:0,0:0:0:0:
124,144,71269,6,0,B|176:100|176:100|284:96,1,150,2|0,0:0|0:0,0:0:0:0:
340,148,72372,1,0,0:0:0:0:
432,188,72813,2,0,B|380:232|380:232|276:228,1,150,0|8,0:0|0:0,0:0:0:0:
200,252,73916,2,0,L|68:252,1,100,0|8,0:0|0:0,0:0:0:0:
60,160,74798,6,0,P|61:90|135:42,1,150,2|0,0:0|0:0,0:0:0:0:
272,48,76122,2,0,P|320:100|380:132,1,100,8|0,0:0|0:0,0:0:0:0:
428,168,77004,2,0,L|436:292,1,100,8|0,0:0|0:0,0:0:0:0:
336,268,77887,1,8,0:0:0:0:
264,336,78328,6,0,P|140:312|104:136,1,300,0|8,0:0|0:0,0:0:0:0:
144,76,80093,2,0,P|288:116|440:64,1,300,0|0,0:0|0:0,0:0:0:0:
468,164,81857,6,0,B|452:240|404:260|364:264|308:264|276:248|276:248|240:280|192:288,1,300,4|8,0:0|0:0,0:0:0:0:
128,300,83622,2,0,P|92:216|128:144,1,150
256,192,84725,12,0,88695,0:0:0:0:
