osu file format v14

[General]
AudioFilename: audio.mp3
AudioLeadIn: 0
PreviewTime: 50971
Countdown: 0
SampleSet: Soft
StackLeniency: 0.6
Mode: 0
LetterboxInBreaks: 0
WidescreenStoryboard: 1

[Editor]
Bookmarks: 2971,8304,18971,29637,40304,45637,50971,51637,59637,62304,67637,72971,83637,104971,110304,115637,124304,126971,132304,134971,140304,153637,161637,164304,169637,174304,182971,185637,190971,196304,206804
DistanceSpacing: 1
BeatDivisor: 4
GridSize: 32
TimelineZoom: 1

[Metadata]
Title:Glitter
TitleUnicode:Glitter
Artist:Aki Misato
ArtistUnicode:美郷あき
Creator:timemon
Version:Normal
Source:月に寄りそう乙女の作法2
Tags:Tsuki ni Yorisou Otome no Sahou 2 Navel OP Eroge Visual Novels COMPLETE SOUNDTRACK Kazuya Yoshida Masaki Suzuki Acchorike Aoi Nishimata theme
BeatmapID:1509698
BeatmapSetID:713715

[Difficulty]
HPDrainRate:4
CircleSize:3.4
OverallDifficulty:5
ApproachRate:5
SliderMultiplier:0.85
SliderTickRate:1

[Events]
//Background and Video events
0,0,"bg.jpg",0,0
//Break Periods
2,135159,139092
2,153826,168426
//Storyboard Layer 0 (Background)
//Storyboard Layer 1 (Fail)
//Storyboard Layer 2 (Pass)
//Storyboard Layer 3 (Foreground)
//Storyboard Sound Samples

[TimingPoints]
1628,333.333333333333,4,2,1,60,1,0
2961,-100,4,2,1,60,0,0
8294,-100,4,2,1,60,0,0
17794,-100,4,2,1,50,0,0
18961,-100,4,2,1,40,0,0
28127,-100,4,2,1,50,0,0
29127,-100,4,2,1,50,0,0
29627,-100,4,2,1,60,0,0
45627,-100,4,2,1,60,0,0
50961,-100,4,2,1,50,0,0
51544,-100,4,2,1,5,0,0
51627,333.333333333333,4,2,1,70,1,1
51627,-100,4,2,1,70,0,1
59626,-100,4,2,1,70,0,0
62293,-100,4,2,1,70,0,1
67626,-100,4,2,1,60,0,0
72960,-100,4,2,1,60,0,0
82460,-100,4,2,1,50,0,0
83626,-100,4,2,1,50,0,0
85460,-100,4,2,1,50,0,0
86293,-100,4,2,1,60,0,0
88960,-100,4,2,1,60,0,0
110293,-100,4,2,1,60,0,0
115626,-100,4,2,1,50,0,0
116211,-100,4,2,1,5,0,0
116293,333.333333333333,4,2,1,70,1,1
116293,-100,4,2,1,70,0,1
124292,-100,4,2,1,70,0,0
126959,-100,4,2,1,70,0,1
132292,-100,4,2,1,60,0,0
134959,-100,4,2,1,60,0,0
148292,-100,4,2,1,60,0,0
164292,-100,4,2,1,50,0,0
169626,-100,4,2,1,40,0,0
170292,-100,4,2,1,45,0,0
170959,-100,4,2,1,50,0,0
171626,-100,4,2,1,55,0,0
172292,-100,4,2,1,60,0,0
174292,-100,4,2,1,50,0,0
175292,-100,4,2,1,70,0,0
175542,-100,4,2,1,5,0,0
175626,-100,4,2,1,70,0,0
176126,-100,4,2,1,70,0,0
176376,-100,4,2,1,5,0,0
176459,-100,4,2,1,70,0,0
177626,-100,4,2,1,70,0,1
182959,-100,4,2,1,70,0,0
185626,-100,4,2,1,70,0,1
190959,-100,4,2,1,60,0,0
196292,-100,4,2,1,60,0,0
209626,-100,4,2,1,5,0,0

[Colours]
Combo1 : 159,255,255
Combo2 : 255,226,159
Combo3 : 255,170,170
Combo4 : 207,207,207

[HitObjects]
332,159,2961,6,0,L|327:221,2,42.5,4|0|0,0:0|0:0|0:0,0:0:0:0:
337,116,3461,1,0,0:0:0:0:
265,70,3794,1,8,0:3:0:0:
194,117,4127,1,4,0:0:0:0:
226,198,4461,1,8,0:3:0:0:
226,198,4627,6,0,P|238:237|230:296,2,85,0|8|8,0:0|0:0|0:0,0:0:0:0:
194,117,5627,2,0,P|157:134|98:130,2,85,4|0|8,0:0|1:0|0:0,0:0:0:0:
258,60,6627,1,8,0:0:0:0:
258,60,6794,2,0,L|358:76,1,85,12|0,0:0|1:0,0:0:0:0:
383,80,7294,2,0,P|397:127|385:180,2,85,8|0|8,0:0|1:0|0:0,0:0:0:0:
308,38,8294,6,0,P|261:43|216:29,1,85,4|8,0:0|0:0,0:0:0:0:
210,118,8961,2,0,L|215:172,2,42.5,0|0|8,1:0|1:0|0:0,0:0:0:0:
171,99,9461,2,0,L|86:106,1,85,4|0,0:0|1:0,0:0:0:0:
43,109,9961,1,8,0:0:0:0:
14,189,10294,2,0,P|3:225|11:281,1,85,0|8,0:0|0:0,0:0:0:0:
77,319,10961,6,0,L|172:309,2,85,4|8|0,0:0|0:0|1:0,0:0:0:0:
7,271,11961,1,8,0:0:0:0:
7,271,12127,2,0,P|1:220|12:177,1,85,4|0,0:0|1:0,0:0:0:0:
60,120,12794,2,0,P|98:137|143:145,1,85,0|0,0:0|1:0,0:0:0:0:
181,155,13294,2,0,L|190:108,1,42.5,8|8,0:0|0:0,0:0:0:0:
218,82,13627,6,0,P|256:99|301:107,2,85,4|8|0,0:0|0:0|1:0,0:0:0:0:
150,30,14627,1,8,0:0:0:0:
150,30,14794,2,0,L|58:35,1,85,4|0,0:0|1:0,0:0:0:0:
37,66,15294,2,0,P|23:117|36:161,1,85,8|0,0:0|0:0,0:0:0:0:
77,217,15961,1,8,0:0:0:0:
47,296,16294,6,0,P|81:277|138:279,1,85,4|8,0:0|0:0,0:0:0:0:
158,303,16794,1,8,0:0:0:0:
158,303,16961,2,0,L|152:358,2,42.5,8|8|8,0:0|0:0|0:0,0:0:0:0:
191,277,17461,1,4,0:0:0:0:
270,306,17794,2,0,P|314:322|355:328,2,85,8|8|8,0:3|0:3|0:3,0:0:0:0:
228,294,18627,1,8,0:3:0:0:
236,205,18961,6,0,P|254:157|224:84,1,127.5,2|0,0:0|0:0,0:0:0:0:
191,67,19627,1,8,0:0:0:0:
129,125,19961,1,0,0:0:0:0:
129,125,20127,2,0,L|26:118,1,85,0|0,0:0|0:0,0:0:0:0:
4,194,20794,2,0,P|-1:242|21:317,1,127.5,0|0,0:0|0:0,0:0:0:0:
99,350,21627,6,0,L|193:344,1,85,2|0,0:0|0:0,0:0:0:0:
217,318,22127,2,0,B|207:266|207:266|218:218,2,85,0|0|0,0:0|0:0|0:0,0:0:0:0:
380,138,24294,6,0,L|372:241,1,85,2|0,0:0|0:0,0:0:0:0:
303,270,24961,2,0,P|250:278|207:262,1,85,8|0,0:0|0:0,0:0:0:0:
179,258,25461,2,0,P|171:205|187:162,1,85,0|0,0:0|0:0,0:0:0:0:
233,109,26127,2,0,L|334:120,1,85,0|0,0:0|0:0,0:0:0:0:
359,122,26627,1,0,0:0:0:0:
443,131,26961,6,0,P|439:173|427:233,1,85,2|0,0:0|0:0,0:0:0:0:
389,222,27461,2,0,P|393:264|405:324,2,85,0|0|2,0:0|0:0|0:0,0:0:0:0:
162,204,29127,6,0,L|167:146,2,42.5,0|8|0,1:0|0:0|1:0,0:0:0:0:
189,236,29627,6,0,P|226:250|281:236,1,85,4|8,0:0|0:0,0:0:0:0:
347,207,30294,2,0,P|359:251|351:307,1,85,0|8,0:0|0:0,0:0:0:0:
346,331,30794,1,0,1:0:0:0:
264,306,31127,1,0,1:0:0:0:
200,362,31461,2,0,L|102:357,1,85,0|0,0:0|1:0,0:0:0:0:
72,352,31961,1,8,0:0:0:0:
29,278,32294,6,0,P|21:233|31:185,1,85,0|8,1:0|0:0,0:0:0:0:
44,155,32794,2,0,P|52:110|42:62,2,85,0|0|0,1:0|0:0|1:0,0:0:0:0:
106,212,33794,1,0,1:0:0:0:
106,212,33961,2,0,L|195:205,1,85,8|0,0:0|0:0,0:0:0:0:
251,145,34627,1,8,0:0:0:0:
301,213,34961,6,0,P|311:254|300:305,1,85,0|8,1:0|0:0,0:0:0:0:
236,346,35627,2,0,P|195:356|144:345,1,85,0|8,0:0|0:0,0:0:0:0:
114,331,36127,2,0,L|117:234,1,85,0|0,1:0|1:0,0:0:0:0:
185,196,36794,2,0,L|182:99,1,85,0|0,0:0|1:0,0:0:0:0:
181,68,37294,1,8,0:0:0:0:
262,45,37627,6,0,P|302:61|351:55,1,85,0|8,1:0|0:0,0:0:0:0:
371,26,38127,2,0,L|464:34,1,85,0|0,1:0|0:0,0:0:0:0:
496,108,38794,1,4,1:2:0:0:
444,175,39127,1,0,1:0:0:0:
444,175,39294,2,0,L|433:278,1,85,8|8,0:0|0:0,0:0:0:0:
399,283,39794,2,0,L|405:343,2,42.5,8|8|8,0:3|0:3|0:3,0:0:0:0:
360,261,40294,6,0,P|324:282|263:277,1,85,4|8,0:0|0:0,0:0:0:0:
250,253,40794,2,0,L|162:264,1,85,0|0,1:0|1:0,0:0:0:0:
124,273,41294,1,12,0:0:0:0:
68,208,41627,2,0,L|70:154,1,42.5,0|0,1:0|1:0,0:0:0:0:
95,131,41961,2,0,P|137:146|183:140,2,85,8|0|8,0:0|1:0|0:0,0:0:0:0:
12,111,42961,6,0,L|15:208,1,85,4|8,0:0|0:0,0:0:0:0:
53,212,43461,2,0,L|50:309,1,85,0|0,1:0|1:0,0:0:0:0:
50,339,43961,1,12,0:0:0:0:
130,311,44294,2,0,L|179:320,1,42.5,0|0,1:0|1:0,0:0:0:0:
206,294,44627,2,0,P|195:246|204:194,2,85,8|8|8,0:0|0:0|0:3,0:0:0:0:
265,354,45627,6,0,L|395:342,1,127.5,4|0,0:0|1:0,0:0:0:0:
434,336,46294,1,8,0:0:0:0:
405,256,46627,1,0,1:0:0:0:
445,180,46961,2,0,P|450:137|436:87,2,85,0|0|8,0:0|1:0|0:0,0:0:0:0:
405,256,47961,1,0,1:0:0:0:
344,196,48294,6,0,L|288:204,2,42.5,10|2|2,1:2|1:2|1:2,0:0:0:0:
364,158,48794,1,2,1:2:0:0:
328,80,49127,1,2,0:2:0:0:
328,80,49294,2,0,L|336:24,2,42.5,10|2|2,0:2|1:2|1:2,0:0:0:0:
293,105,49794,1,2,1:2:0:0:
173,60,50294,5,8,0:0:0:0:
185,144,50627,1,8,0:0:0:0:
380,255,51627,6,0,P|340:264|285:249,1,85,4|8,0:0|0:0,0:0:0:0:
232,200,52293,2,0,P|192:191|137:206,1,85,0|8,1:0|0:0,0:0:0:0:
119,230,52793,2,0,L|125:323,1,85,0|0,1:0|1:0,0:0:0:0:
128,357,53293,1,8,0:0:0:0:
205,322,53627,1,0,0:0:0:0:
279,362,53960,1,8,0:0:0:0:
326,291,54293,6,0,P|331:245|322:193,1,85,0|8,1:0|0:0,0:0:0:0:
264,148,54960,2,0,P|224:168|181:168,1,85,0|8,1:0|0:0,0:0:0:0:
149,145,55460,2,0,B|152:99|152:99|143:51,1,85,0|0,1:0|1:0,0:0:0:0:
130,20,55960,1,8,0:0:0:0:
63,73,56293,2,0,L|66:173,1,85,0|8,0:0|0:0,0:0:0:0:
142,194,56960,6,0,L|139:294,1,85,0|8,1:0|0:0,0:0:0:0:
190,347,57626,2,0,P|245:331|290:338,1,85,0|8,1:0|0:0,0:0:0:0:
308,354,58126,2,0,L|299:255,1,85,0|0,1:0|1:0,0:0:0:0:
295,227,58626,1,8,0:0:0:0:
359,171,58960,2,0,L|366:86,1,85,0|8,0:0|0:0,0:0:0:0:
349,47,59460,1,8,0:0:0:0:
349,47,59626,6,0,P|307:62|257:56,1,85,4|8,0:0|0:0,0:0:0:0:
236,89,60126,2,0,P|193:91|154:76,1,85,4|0,0:0|1:0,0:0:0:0:
115,58,60626,1,12,0:0:0:0:
66,128,60960,2,0,L|7:120,2,42.5,0|0|8,1:0|1:0|0:0,0:0:0:0:
119,194,61626,1,8,0:0:0:0:
81,270,61960,1,8,0:0:0:0:
142,328,62293,6,0,P|176:345|231:341,1,85,4|8,0:0|0:0,0:0:0:0:
287,289,62960,2,0,P|330:278|375:291,1,85,0|8,1:0|0:0,0:0:0:0:
407,304,63460,2,0,B|417:263|417:263|411:212,1,85,0|0,1:0|1:0,0:0:0:0:
405,178,63960,1,8,0:0:0:0:
392,94,64293,1,0,0:0:0:0:
312,123,64626,1,8,0:0:0:0:
261,54,64960,6,0,L|163:66,1,85,0|8,1:0|0:0,0:0:0:0:
119,127,65626,2,0,P|107:173|122:222,1,85,0|8,1:0|0:0,0:0:0:0:
141,242,66126,2,0,P|153:288|138:337,1,85,0|0,1:0|1:0,0:0:0:0:
123,360,66626,2,0,L|33:350,2,85,8|8|8,0:0|0:0|0:3,0:0:0:0:
199,322,67626,6,0,P|211:258|186:190,1,127.5,4|0,0:0|1:0,0:0:0:0:
169,164,68293,1,8,0:0:0:0:
62,233,68793,2,0,L|68:328,2,85,8|8|0,0:0|0:0|1:0,0:0:0:0:
59,190,69626,1,12,0:0:0:0:
127,75,70293,6,0,P|168:91|216:91,1,85,12|8,0:0|0:0,0:0:0:0:
277,42,70960,2,0,P|318:26|366:26,1,85,8|8,0:3|0:0,0:0:0:0:
391,51,71460,1,4,0:0:0:0:
430,126,71793,2,0,L|423:212,1,85,8|0,0:3|1:0,0:0:0:0:
381,218,72293,2,0,L|388:304,1,85,8|8,0:0|0:0,0:0:0:0:
312,342,72960,6,0,L|305:257,1,85,4|8,0:0|0:0,0:0:0:0:
248,194,73626,2,0,L|193:203,2,42.5,0|0|8,1:0|1:0|0:0,0:0:0:0:
274,160,74126,2,0,P|282:113|268:64,1,85,4|0,0:0|1:0,0:0:0:0:
255,39,74626,1,8,0:0:0:0:
189,93,74960,2,0,L|87:84,1,85,0|8,0:0|0:0,0:0:0:0:
47,148,75626,6,0,B|53:196|53:196|44:242,1,85,4|8,0:0|0:0,0:0:0:0:
104,294,76293,2,0,L|96:350,2,42.5,0|0|8,1:0|1:0|0:0,0:0:0:0:
138,269,76793,2,0,P|181:262|226:281,1,85,4|0,0:0|1:0,0:0:0:0:
279,335,77460,2,0,L|368:328,1,85,0|0,0:0|1:0,0:0:0:0:
384,291,77960,2,0,L|375:246,1,42.5,8|8,0:0|0:0,0:0:0:0:
405,219,78293,6,0,L|425:118,2,85,4|8|0,0:0|0:0|1:0,0:0:0:0:
335,268,79293,1,8,0:0:0:0:
335,268,79460,2,0,P|288:277|243:261,1,85,4|0,0:0|1:0,0:0:0:0:
215,246,79960,1,8,0:0:0:0:
157,308,80293,2,0,L|61:299,1,85,0|8,0:0|0:0,0:0:0:0:
32,225,80960,6,0,P|47:179|40:128,1,85,4|8,0:0|0:0,0:0:0:0:
41,100,81460,1,8,0:0:0:0:
41,100,81626,2,0,L|-15:111,2,42.5,8|8|8,0:0|0:0|0:0,0:0:0:0:
72,71,82126,1,4,0:0:0:0:
128,134,82460,2,0,L|123:230,2,85,8|8|8,0:3|0:3|0:3,0:0:0:0:
129,91,83293,1,8,0:3:0:0:
196,39,83626,5,4,0:0:0:0:
342,177,86293,6,0,L|339:236,2,42.5,4|0|0,0:0|1:0|1:0,0:0:0:0:
379,157,86793,2,0,L|374:60,1,85,8|0,0:0|1:0,0:0:0:0:
303,24,87460,1,4,0:0:0:0:
239,80,87793,1,0,1:0:0:0:
239,80,87960,2,0,L|245:139,1,42.5,8|0,0:0|1:0,0:0:0:0:
249,164,88293,2,0,P|209:182|151:176,1,85,0|8,1:0|0:0,0:0:0:0:
88,212,88960,6,0,L|99:304,1,85,4|8,0:0|0:0,0:0:0:0:
163,350,89626,2,0,P|206:360|261:346,1,85,0|8,1:0|0:0,0:0:0:0:
269,317,90126,2,0,L|280:225,1,85,0|0,1:0|1:0,0:0:0:0:
221,169,90793,2,0,P|172:182|136:170,1,85,0|0,1:0|0:0,0:0:0:0:
83,108,91460,1,0,0:0:0:0:
83,108,91626,6,0,L|94:17,1,85,0|8,1:0|0:0,0:0:0:0:
132,39,92126,2,0,P|171:50|225:37,1,85,0|0,1:0|0:0,0:0:0:0:
296,22,92793,1,4,0:0:0:0:
340,94,93126,1,0,1:0:0:0:
340,94,93293,2,0,L|335:186,1,85,8|8,0:0|0:0,0:0:0:0:
296,196,93793,2,0,L|299:252,2,42.5,0|0|0,1:0|0:0|1:0,0:0:0:0:
266,165,94293,6,0,P|221:185|168:177,1,85,4|8,0:0|0:0,0:0:0:0:
122,240,94960,2,0,L|127:333,1,85,0|8,1:0|0:0,0:0:0:0:
162,348,95460,2,0,B|199:365|199:365|246:355,1,85,0|0,1:0|1:0,0:0:0:0:
288,284,96126,2,0,P|281:240|284:190,1,85,0|0,1:0|0:0,0:0:0:0:
331,129,96793,1,0,0:0:0:0:
331,129,96960,6,0,L|425:143,1,85,0|8,1:0|0:0,0:0:0:0:
447,168,97460,2,0,B|460:210|460:210|449:263,2,85,0|0|0,1:0|0:0|1:0,0:0:0:0:
390,104,98460,1,0,1:0:0:0:
390,104,98626,2,0,L|296:118,2,85,8|0|8,0:0|1:0|0:0,0:0:0:0:
447,168,99626,6,0,P|459:214|450:259,1,85,0|8,1:0|0:0,0:0:0:0:
390,307,100293,2,0,B|348:297|348:297|299:314,1,85,0|8,1:0|0:0,0:0:0:0:
287,348,100793,2,0,P|242:350|190:336,1,85,0|0,1:0|1:0,0:0:0:0:
149,275,101460,2,0,P|146:232|155:191,1,85,0|0,1:0|0:0,0:0:0:0:
187,162,101960,2,0,L|247:173,1,42.5,8|0,0:0|0:0,0:0:0:0:
267,151,102293,6,0,P|274:104|261:58,1,85,0|8,1:0|0:0,0:0:0:0:
247,29,102793,2,0,L|158:42,1,85,0|8,1:0|0:0,0:0:0:0:
107,105,103460,1,4,1:2:0:0:
155,180,103793,1,0,1:0:0:0:
155,180,103960,2,0,L|148:270,1,85,8|8,0:0|0:0,0:0:0:0:
112,289,104460,2,0,L|58:279,2,42.5,0|0|0,1:0|1:0|1:0,0:0:0:0:
136,323,104960,6,0,P|171:342|234:345,1,85,4|8,0:0|0:0,0:0:0:0:
246,318,105460,2,0,P|281:299|344:296,1,85,0|0,1:0|1:0,0:0:0:0:
363,313,105960,1,12,0:0:0:0:
395,234,106293,2,0,L|392:187,1,42.5,0|0,1:0|1:0,0:0:0:0:
391,149,106626,2,0,P|431:162|479:157,2,85,8|0|8,0:0|1:0|0:0,0:0:0:0:
327,92,107626,6,0,P|284:88|244:101,1,85,4|8,0:0|0:0,0:0:0:0:
213,131,108126,2,0,L|217:221,1,85,0|0,1:0|1:0,0:0:0:0:
219,258,108626,1,12,0:0:0:0:
158,318,108960,2,0,L|108:312,2,42.5,0|0|8,1:0|1:0|0:0,0:0:0:0:
222,372,109626,2,0,P|273:377|316:360,1,85,8|8,0:0|0:3,0:0:0:0:
356,299,110293,6,0,B|345:219|345:219|365:170,1,127.5,4|0,0:0|1:0,0:0:0:0:
383,138,110960,1,8,0:0:0:0:
333,68,111293,1,0,1:0:0:0:
400,16,111626,2,0,L|492:34,2,85,0|0|8,0:0|1:0|0:0,0:0:0:0:
333,68,112626,1,0,1:0:0:0:
384,135,112960,6,0,L|380:192,2,42.5,10|2|2,1:2|1:2|1:2,0:0:0:0:
412,103,113460,1,2,1:2:0:0:
333,68,113793,1,2,0:2:0:0:
333,68,113960,2,0,L|329:11,2,42.5,10|2|2,0:2|1:2|1:2,0:0:0:0:
302,97,114460,1,2,1:2:0:0:
253,215,114960,5,8,0:0:0:0:
175,180,115293,1,8,0:0:0:0:
296,316,116293,6,0,L|292:215,1,85,4|8,0:0|0:0,0:0:0:0:
229,173,116959,2,0,P|186:187|134:178,1,85,0|8,1:0|0:0,0:0:0:0:
106,169,117459,2,0,B|111:125|111:125|101:83,1,85,0|0,1:0|1:0,0:0:0:0:
85,46,117959,1,8,0:0:0:0:
18,99,118293,1,0,0:0:0:0:
18,183,118626,1,8,0:0:0:0:
74,246,118959,6,0,P|113:262|160:254,1,85,0|8,1:0|0:0,0:0:0:0:
226,211,119626,2,0,P|265:195|312:203,1,85,0|8,1:0|0:0,0:0:0:0:
339,227,120126,2,0,L|333:317,1,85,0|0,1:0|1:0,0:0:0:0:
328,354,120626,1,8,0:0:0:0:
256,307,120959,2,0,P|207:296|161:315,1,85,0|8,0:0|0:0,0:0:0:0:
108,253,121626,6,0,L|115:152,1,85,0|8,1:0|0:0,0:0:0:0:
190,130,122293,2,0,L|183:29,1,85,0|8,1:0|0:0,0:0:0:0:
214,14,122793,2,0,P|253:31|305:30,1,85,0|0,1:0|1:0,0:0:0:0:
336,24,123293,1,8,0:0:0:0:
390,88,123626,2,0,P|404:130|409:177,1,85,0|8,0:0|0:0,0:0:0:0:
390,208,124126,1,8,0:0:0:0:
390,208,124292,6,0,L|290:194,1,85,4|8,0:0|0:0,0:0:0:0:
283,160,124792,2,0,L|183:174,1,85,4|0,0:0|1:0,0:0:0:0:
157,182,125292,1,12,0:0:0:0:
132,263,125626,2,0,L|138:314,2,42.5,0|0|8,1:0|1:0|0:0,0:0:0:0:
62,213,126292,1,8,0:0:0:0:
78,129,126626,1,8,0:0:0:0:
94,45,126959,6,0,P|136:29|180:31,1,85,4|8,0:0|0:0,0:0:0:0:
237,87,127626,2,0,L|233:174,1,85,0|8,1:0|0:0,0:0:0:0:
230,214,128126,2,0,P|176:222|139:207,1,85,0|0,1:0|1:0,0:0:0:0:
109,195,128626,1,8,0:0:0:0:
62,266,128959,1,0,0:0:0:0:
106,338,129292,1,8,0:0:0:0:
189,321,129626,6,0,P|236:307|284:313,1,85,0|8,1:0|0:0,0:0:0:0:
343,354,130292,1,0,1:0:0:0:
382,278,130626,1,8,0:0:0:0:
382,278,130792,2,0,L|376:192,1,85,0|0,1:0|1:0,0:0:0:0:
342,166,131292,2,0,L|348:80,1,85,8|8,0:0|0:0,0:0:0:0:
379,53,131792,2,0,L|435:62,2,42.5,8|8|8,0:3|0:3|0:3,0:0:0:0:
349,22,132292,6,0,P|300:39|229:19,1,127.5,4|0,0:0|1:0,0:0:0:0:
190,38,132959,1,8,0:0:0:0:
114,140,133459,2,0,L|119:245,1,85,8|0,0:0|0:0,0:0:0:0:
122,267,133959,2,0,P|76:280|29:272,2,85,8|12|8,0:3|0:0|0:0,0:0:0:0:
188,320,134959,5,4,0:0:0:0:
442,143,140292,6,0,L|433:246,2,85,4|8|0,0:0|0:0|1:0,0:0:0:0:
389,75,141292,1,8,0:0:0:0:
389,75,141459,2,0,P|341:95|299:91,1,85,0|0,1:0|1:0,0:0:0:0:
243,147,142126,1,0,0:0:0:0:
243,147,142292,2,0,L|250:237,1,85,0|8,0:0|0:0,0:0:0:0:
197,298,142959,5,0,1:0:0:0:
258,356,143292,2,0,L|352:347,1,85,8|0,0:0|1:0,0:0:0:0:
390,277,143959,1,8,0:0:0:0:
390,277,144126,2,0,P|381:236|362:187,1,85,0|0,1:0|1:0,0:0:0:0:
298,144,144792,2,0,P|234:156|199:151,1,85,0|0,0:0|1:0,0:0:0:0:
145,104,145459,1,0,1:0:0:0:
145,104,145626,6,0,B|134:144|134:144|142:201,1,85,0|8,1:0|0:0,0:0:0:0:
164,268,146292,2,0,L|153:323,2,42.5,0|0|8,1:0|1:0|0:0,0:0:0:0:
199,245,146792,2,0,P|239:240|287:260,1,85,0|0,1:0|1:0,0:0:0:0:
343,198,147459,1,0,0:0:0:0:
343,198,147626,2,0,L|335:108,1,85,0|8,0:0|0:0,0:0:0:0:
294,38,148292,6,0,P|239:54|206:52,1,85,4|8,0:0|0:0,0:0:0:0:
190,89,148792,2,0,P|147:88|107:74,1,85,0|0,1:0|1:0,0:0:0:0:
70,53,149292,1,12,0:0:0:0:
41,132,149626,2,0,L|-13:122,2,42.5,0|0|8,1:0|1:0|0:0,0:0:0:0:
69,163,150126,2,0,P|82:199|76:251,1,85,0|0,1:0|1:0,0:0:0:0:
47,324,150792,1,8,0:0:0:0:
47,324,150959,6,0,L|139:332,1,85,4|0,0:0|1:0,0:0:0:0:
162,360,151459,2,0,L|246:352,1,85,12|0,0:0|1:0,0:0:0:0:
278,324,151959,1,12,0:0:0:0:
256,192,152126,12,2,153626,0:0:0:0:
408,78,169626,5,4,1:2:0:0:
408,78,170292,1,4,1:2:0:0:
408,78,170959,1,4,1:2:0:0:
408,78,171626,1,4,1:2:0:0:
335,231,172292,6,0,L|236:220,1,85,4|8,0:0|0:0,0:0:0:0:
192,159,172959,2,0,L|107:168,1,85,8|8,0:0|0:0,0:0:0:0:
65,176,173459,1,12,0:0:0:0:
25,100,173792,1,0,1:0:0:0:
25,100,173959,1,0,1:0:0:0:
84,287,175292,6,0,P|121:303|178:296,1,85,4|0,0:0|1:0,0:0:0:0:
235,253,175959,1,8,0:0:0:0:
235,253,176126,2,0,P|272:237|329:244,1,85,4|8,0:0|0:0,0:0:0:0:
355,255,176626,1,0,1:0:0:0:
384,175,176959,1,8,0:3:0:0:
346,98,177292,1,8,0:0:0:0:
276,49,177626,6,0,L|182:60,1,85,4|8,0:0|0:0,0:0:0:0:
128,116,178292,2,0,L|134:162,2,42.5,0|8|8,1:0|0:0|0:0,0:0:0:0:
121,73,178792,2,0,P|83:90|36:81,1,85,12|0,0:0|1:0,0:0:0:0:
1,68,179292,1,8,0:0:0:0:
1,152,179626,2,0,L|9:245,1,85,0|8,0:0|0:0,0:0:0:0:
38,266,180126,1,8,0:0:0:0:
38,266,180292,6,0,P|67:256|125:266,1,85,4|8,0:0|0:0,0:0:0:0:
188,313,180959,2,0,P|217:323|275:313,1,85,0|8,1:0|0:0,0:0:0:0:
309,298,181459,2,0,L|305:211,1,85,0|0,1:0|1:0,0:0:0:0:
303,170,181959,1,8,0:0:0:0:
237,115,182292,2,0,P|196:127|145:113,1,85,0|8,0:0|0:0,0:0:0:0:
117,99,182792,1,8,0:0:0:0:
117,99,182959,6,0,L|125:200,1,85,4|8,0:0|0:0,0:0:0:0:
154,213,183459,2,0,L|146:314,1,85,4|0,0:0|1:0,0:0:0:0:
141,339,183959,1,12,0:0:0:0:
65,299,184292,2,0,L|12:305,2,42.5,0|0|8,1:0|1:0|0:0,0:0:0:0:
141,339,184959,1,8,0:0:0:0:
202,280,185292,1,8,0:0:0:0:
174,199,185626,6,0,P|163:150|176:107,1,85,4|8,0:0|0:0,0:0:0:0:
240,67,186292,2,0,L|326:79,1,85,0|8,1:0|0:0,0:0:0:0:
351,111,186792,2,0,B|361:150|361:150|351:205,1,85,0|0,1:0|1:0,0:0:0:0:
339,234,187292,1,8,0:0:0:0:
279,294,187626,1,0,0:0:0:0:
332,359,187959,1,8,0:0:0:0:
394,301,188292,6,0,P|427:278|488:278,1,85,0|8,1:0|0:0,0:0:0:0:
501,194,188959,2,0,L|491:101,1,85,0|8,1:0|0:0,0:0:0:0:
486,67,189459,2,0,P|436:90|391:89,1,85,0|0,1:0|1:0,0:0:0:0:
367,75,189959,2,0,L|282:58,2,85,8|8|8,0:0|0:0|0:3,0:0:0:0:
408,149,190959,6,0,P|417:209|382:276,1,127.5,4|0,0:0|1:0,0:0:0:0:
356,294,191626,1,8,0:0:0:0:
247,226,192126,2,0,L|157:236,2,85,8|8|0,0:0|0:0|1:0,0:0:0:0:
289,220,192959,1,8,0:0:0:0:
390,143,193459,1,0,1:0:0:0:
390,143,193626,6,0,L|400:233,1,85,12|8,0:0|0:0,0:0:0:0:
453,293,194292,2,0,L|501:280,2,42.5,8|0|8,0:3|1:0|0:0,0:0:0:0:
432,330,194792,1,4,0:0:0:0:
359,285,195126,2,0,P|311:282|274:296,1,85,8|0,0:3|1:0,0:0:0:0:
241,318,195626,2,0,P|193:321|156:307,1,85,8|8,0:0|0:0,0:0:0:0:
91,256,196292,6,0,L|84:171,1,85,4|8,0:0|0:0,0:0:0:0:
41,97,196959,2,0,L|-14:106,2,42.5,0|0|8,1:0|1:0|0:0,0:0:0:0:
66,62,197459,2,0,P|112:77|161:65,1,85,4|0,0:0|1:0,0:0:0:0:
186,55,197959,1,8,0:0:0:0:
240,119,198292,2,0,L|231:210,1,85,0|8,0:0|0:0,0:0:0:0:
172,265,198959,6,0,P|129:246|76:255,2,85,4|8|0,0:0|0:0|1:0,0:0:0:0:
235,322,199959,1,8,0:0:0:0:
235,322,200126,2,0,L|334:317,1,85,4|0,0:0|1:0,0:0:0:0:
385,263,200792,1,0,0:0:0:0:
344,188,201126,2,0,L|338:133,2,42.5,0|8|8,1:0|0:0|0:0,0:0:0:0:
312,216,201626,6,0,P|271:229|221:213,1,85,4|8,0:0|0:0,0:0:0:0:
165,164,202292,2,0,P|124:151|74:167,1,85,0|8,1:0|0:0,0:0:0:0:
53,190,202792,2,0,L|63:286,1,85,4|0,0:0|1:0,0:0:0:0:
67,316,203292,1,8,0:0:0:0:
184,363,203792,1,0,1:0:0:0:
184,363,203959,2,0,L|235:346,1,42.5,8|0,0:0|0:0,0:0:0:0:
256,321,204292,6,0,P|244:276|255:223,1,85,4|8,0:0|0:0,0:0:0:0:
271,202,204792,1,8,0:0:0:0:
271,202,204959,2,0,L|323:206,2,42.5,8|8|8,0:0|0:0|0:0,0:0:0:0:
246,167,205459,2,0,P|193:182|146:170,1,85,4|0,0:0|1:0,0:0:0:0:
124,161,205959,1,8,0:0:0:0:
86,84,206292,1,10,0:0:0:0:
86,84,206459,1,10,0:0:0:0:
155,35,206792,5,4,0:0:0:0:
256,192,206959,12,0,209626,0:0:0:0:
