osu file format v14

[General]
AudioFilename: audio.mp3
AudioLeadIn: 0
PreviewTime: 50971
Countdown: 0
SampleSet: Soft
StackLeniency: 0.4
Mode: 0
LetterboxInBreaks: 0
WidescreenStoryboard: 0

[Editor]
Bookmarks: 2971,8304,18971,29637,40304,45637,50971,51637,59637,62304,67637,72971,83637,104971,110304,115637,124304,126971,132304,134971,140304,153637,161637,164304,169637,174304,182971,185637,190971,196304,206804
DistanceSpacing: 1.2
BeatDivisor: 4
GridSize: 32
TimelineZoom: 2.1

[Metadata]
Title:Glitter
TitleUnicode:Glitter
Artist:Aki Misato
ArtistUnicode:美郷あき
Creator:timemon
Version:Insane
Source:月に寄りそう乙女の作法2
Tags:Tsuki ni Yorisou Otome no Sahou 2 Navel OP Eroge Visual Novels COMPLETE SOUNDTRACK Kazuya Yoshida Masaki Suzuki Acchorike Aoi Nishimata theme
BeatmapID:1508907
BeatmapSetID:713715

[Difficulty]
HPDrainRate:5.5
CircleSize:3.8
OverallDifficulty:8
ApproachRate:8.8
SliderMultiplier:1.55
SliderTickRate:1

[Events]
//Background and Video events
0,0,"bg.jpg",0,0
//Break Periods
2,153826,168997
//Storyboard Layer 0 (Background)
//Storyboard Layer 1 (Fail)
//Storyboard Layer 2 (Pass)
//Storyboard Layer 3 (Foreground)
//Storyboard Sound Samples

[TimingPoints]
1628,333.333333333333,4,2,1,60,1,0
2961,-100,4,2,1,60,0,0
8294,-100,4,2,1,60,0,0
17794,-125,4,2,1,50,0,0
18961,-142.857142857143,4,2,1,40,0,0
28127,-285.714285714286,4,2,1,50,0,0
29127,-125,4,2,1,50,0,0
29627,-111.111111111111,4,2,1,60,0,0
45627,-125,4,2,1,60,0,0
50961,-250,4,2,1,50,0,0
51544,-250,4,2,1,5,0,0
51627,333.333333333333,4,2,1,70,1,1
51627,-90.9090909090909,4,2,1,70,0,1
59626,-90.9090909090909,4,2,1,70,0,0
62293,-90.9090909090909,4,2,1,70,0,1
67626,-125,4,2,1,60,0,0
72960,-100,4,2,1,60,0,0
82460,-125,4,2,1,50,0,0
83626,-250,4,2,1,50,0,0
85460,-125,4,2,1,50,0,0
86293,-100,4,2,1,60,0,0
88960,-111.111111111111,4,2,1,60,0,0
110293,-125,4,2,1,60,0,0
115626,-250,4,2,1,50,0,0
116210,-250,4,2,1,5,0,0
116293,333.333333333333,4,2,1,70,1,1
116293,-90.9090909090909,4,2,1,70,0,1
124292,-90.9090909090909,4,2,1,70,0,0
126959,-90.9090909090909,4,2,1,70,0,1
132292,-125,4,2,1,60,0,0
134959,-100,4,2,1,60,0,0
169626,-200,4,2,1,40,0,0
170292,-200,4,2,1,45,0,0
170959,-200,4,2,1,50,0,0
171626,-200,4,2,1,55,0,0
172292,-100,4,2,1,60,0,0
174292,-250,4,2,1,50,0,0
175292,-66.6666666666667,4,2,1,70,0,0
175542,-66.6666666666667,4,2,1,70,0,0
175626,-66.6666666666667,4,2,1,70,0,0
176126,-66.6666666666667,4,2,1,70,0,0
176626,-66.6666666666667,4,2,1,70,0,0
177626,-90.9090909090909,4,2,1,70,0,1
182959,-90.9090909090909,4,2,1,70,0,0
185626,-90.9090909090909,4,2,1,70,0,1
190959,-125,4,2,1,60,0,0
196292,-100,4,2,1,60,0,0
209626,-100,4,2,1,5,0,0

[Colours]
Combo1 : 159,255,255
Combo2 : 255,226,159
Combo3 : 255,170,170
Combo4 : 207,207,207

[HitObjects]
227,245,2961,6,0,L|320:242,2,77.5,4|0|0,0:0|0:0|0:0,0:0:0:0:
152,300,3461,1,0,0:0:0:0:
98,145,3627,1,8,0:0:0:0:
98,145,3794,2,0,L|101:238,1,77.5,8|0,0:3|0:0,0:0:0:0:
176,86,4127,1,4,0:0:0:0:
176,86,4461,5,8,0:3:0:0:
251,156,4627,2,0,P|219:178|175:191,1,77.5,0|0,0:0|1:0,0:0:0:0:
112,43,4961,2,0,P|147:59|180:91,1,77.5,8|8,0:0|0:3,0:0:0:0:
83,219,5294,2,0,P|79:180|90:135,1,77.5,8|8,0:0|0:0,0:0:0:0:
182,189,5627,5,4,0:0:0:0:
163,305,5794,1,0,1:0:0:0:
163,305,5877,1,0,1:0:0:0:
163,305,5961,1,0,1:0:0:0:
274,260,6127,1,8,0:0:0:0:
156,173,6294,1,8,0:0:0:0:
266,139,6461,1,8,0:0:0:0:
158,67,6627,1,8,0:0:0:0:
309,36,6794,1,12,0:0:0:0:
309,36,7127,5,0,1:0:0:0:
246,113,7294,2,0,L|257:204,1,77.5,8|0,0:0|0:0,0:0:0:0:
452,110,7627,1,0,1:0:0:0:
393,192,7794,1,8,0:0:0:0:
385,209,7877,1,8,0:0:0:0:
380,228,7961,1,8,0:0:0:0:
378,247,8044,1,8,0:0:0:0:
380,267,8127,1,8,0:0:0:0:
384,285,8211,1,8,0:0:0:0:
392,304,8294,6,0,P|327:258|235:281,1,155,4|8,0:0|0:0,0:0:0:0:
171,322,8794,1,0,0:0:0:0:
102,247,8961,2,0,L|0:252,2,77.5,0|0|8,1:0|1:0|0:0,0:0:0:0:
176,151,9461,6,0,P|191:75|168:2,1,155,4|0,0:0|1:0,0:0:0:0:
21,45,9961,2,0,P|58:63|102:78,1,77.5,8|0,0:0|0:0,0:0:0:0:
176,151,10294,1,0,0:0:0:0:
264,83,10461,1,0,1:0:0:0:
167,227,10627,2,0,P|169:185|178:140,1,77.5,8|0,0:0|0:0,0:0:0:0:
240,308,10961,6,0,P|191:332|85:305,2,155,4|8|0,0:0|0:0|1:0,0:0:0:0:
323,234,11794,1,0,1:0:0:0:
346,339,11961,1,8,0:0:0:0:
421,200,12127,5,4,0:0:0:0:
419,188,12211,1,0,0:0:0:0:
417,177,12294,1,0,0:0:0:0:
323,234,12461,1,0,1:0:0:0:
318,97,12627,1,8,0:0:0:0:
189,163,12794,2,0,P|262:185|322:233,1,155,0|0,0:0|1:0,0:0:0:0:
346,339,13294,1,8,0:0:0:0:
430,267,13461,1,8,0:0:0:0:
222,249,13627,6,0,L|237:94,2,155,4|8|0,0:0|0:0|1:0,0:0:0:0:
325,232,14461,1,0,1:0:0:0:
239,351,14627,1,8,0:0:0:0:
73,223,14794,6,0,P|142:249|230:248,1,155,4|0,0:0|1:0,0:0:0:0:
318,141,15294,2,0,L|311:59,2,77.5,8|0|0,0:0|0:0|0:0,0:0:0:0:
325,232,15794,1,0,1:0:0:0:
422,161,15961,2,0,L|415:243,1,77.5,8|0,0:0|0:0,0:0:0:0:
326,345,16294,6,0,P|250:358|173:327,1,155,4|8,0:0|0:0,0:0:0:0:
108,239,16794,1,8,0:0:0:0:
108,239,16877,1,8,0:0:0:0:
108,239,16961,1,8,0:0:0:0:
194,162,17127,1,8,0:0:0:0:
40,116,17294,1,8,0:0:0:0:
197,56,17461,1,4,0:0:0:0:
197,56,17794,6,0,P|245:68|326:42,2,124,8|8|8,0:3|0:3|0:3,0:0:0:0:
120,28,18627,1,8,0:3:0:0:
42,145,18961,6,0,B|45:264|45:263,1,108.499996688843,2|0,0:0|0:0,0:0:0:0:
108,304,19461,1,0,0:0:0:0:
108,304,19627,2,0,P|165:287|234:295,1,108.499996688843,8|0,0:0|0:0,0:0:0:0:
279,337,20127,2,0,P|336:354|405:346,1,108.499996688843,0|0,0:0|0:0,0:0:0:0:
450,252,20794,6,0,P|426:196|430:130,1,108.499996688843,0|0,0:0|0:0,0:0:0:0:
452,72,21294,1,0,0:0:0:0:
452,72,21461,1,0,0:0:0:0:
381,14,21627,6,0,B|254:20|255:20,1,108.499996688843,2|0,0:0|0:0,0:0:0:0:
147,100,22127,2,0,B|274:106|273:106,2,108.499996688843,0|0|0,0:0|0:0|0:0,0:0:0:0:
86,164,22961,1,0,0:0:0:0:
86,164,23127,2,0,L|93:234,2,54.2499983444214,0|0|0,0:0|0:0|0:0,0:0:0:0:
147,100,23627,2,0,L|154:30,2,54.2499983444214,8|0|8,0:0|0:0|0:0,0:0:0:0:
86,164,24127,1,8,0:0:0:0:
96,266,24294,6,0,P|141:283|202:272,1,108.499996688843,2|0,0:0|0:0,0:0:0:0:
246,206,24794,1,0,0:0:0:0:
246,206,24961,2,0,P|263:161|252:100,1,108.499996688843,8|0,0:0|0:0,0:0:0:0:
181,46,25461,2,0,P|164:91|175:152,1,108.499996688843,0|0,0:0|0:0,0:0:0:0:
297,282,26127,2,0,L|430:276,1,108.499996688843,0|0,0:0|0:0,0:0:0:0:
456,213,26627,1,0,0:0:0:0:
456,213,26794,1,0,0:0:0:0:
383,141,26961,6,0,L|388:30,1,108.499996688843,2|0,0:0|0:0,0:0:0:0:
288,71,27461,2,0,L|290:126,1,54.2499983444214,0|8,0:0|0:0,0:0:0:0:
380,195,27794,2,0,L|382:139,1,54.2499983444214,0|0,0:0|0:0,0:0:0:0:
431,280,28127,6,0,P|380:293|290:232,1,162.749995033264,2|0,0:0|1:0,0:0:0:0:
380,195,29294,1,8,0:0:0:0:
380,195,29461,1,0,1:0:0:0:
246,160,29627,6,0,L|251:302,1,139.499995742798,4|8,0:0|0:0,0:0:0:0:
144,353,30127,1,0,1:0:0:0:
144,353,30294,2,0,L|149:211,1,139.499995742798,0|8,0:0|0:0,0:0:0:0:
246,160,30794,2,0,P|310:186|391:188,1,139.499995742798,0|0,1:0|1:0,0:0:0:0:
448,120,31294,1,8,0:0:0:0:
487,232,31461,2,0,P|473:278|427:362,1,139.499995742798,0|0,0:0|1:0,0:0:0:0:
346,287,31961,1,8,0:0:0:0:
264,355,32127,1,0,0:0:0:0:
178,254,32294,6,0,P|170:179|190:112,1,139.499995742798,0|8,1:0|0:0,0:0:0:0:
338,56,32794,2,0,L|262:58,1,69.749997871399,0|0,1:0|0:0,0:0:0:0:
117,116,33127,2,0,L|193:118,1,69.749997871399,0|8,0:0|0:0,0:0:0:0:
272,200,33461,2,0,B|283:267|283:267|274:343,1,139.499995742798,0|0,1:0|1:0,0:0:0:0:
167,335,33961,2,0,B|156:268|156:268|165:192,1,139.499995742798,8|0,0:0|0:0,0:0:0:0:
272,200,34461,1,0,1:0:0:0:
344,122,34627,2,0,L|334:44,1,69.749997871399,8|0,0:0|0:0,0:0:0:0:
425,195,34961,6,0,P|341:226|269:202,1,139.499995742798,0|8,1:0|0:0,0:0:0:0:
215,294,35461,1,0,1:0:0:0:
78,134,35627,2,0,P|162:165|234:141,1,139.499995742798,0|8,0:0|0:0,0:0:0:0:
301,76,36127,2,0,L|293:236,1,139.499995742798,0|0,1:0|1:0,0:0:0:0:
215,294,36627,1,8,0:0:0:0:
215,294,36794,2,0,L|207:134,1,139.499995742798,0|0,0:0|1:0,0:0:0:0:
205,49,37294,1,8,0:0:0:0:
110,104,37461,1,0,0:0:0:0:
134,210,37627,6,0,P|186:239|272:221,1,139.499995742798,0|8,1:0|0:0,0:0:0:0:
262,111,38127,2,0,P|231:131|204:159,1,69.749997871399,0|0,1:0|0:0,0:0:0:0:
272,295,38461,2,0,P|270:258|259:220,1,69.749997871399,0|8,0:0|0:0,0:0:0:0:
198,360,38794,1,4,1:2:0:0:
198,360,39127,5,0,1:0:0:0:
143,273,39294,1,8,0:0:0:0:
327,208,39461,1,0,1:0:0:0:
272,295,39627,1,8,0:0:0:0:
212,186,39794,2,0,L|219:109,2,69.749997871399,8|8|8,0:3|0:3|0:3,0:0:0:0:
87,203,40294,6,0,L|99:345,1,139.499995742798,4|8,0:0|0:0,0:0:0:0:
206,255,40794,2,0,L|218:112,1,139.499995742798,0|0,1:0|1:0,0:0:0:0:
118,44,41294,1,12,0:0:0:0:
118,44,41627,1,0,1:0:0:0:
104,141,41794,1,0,1:0:0:0:
217,115,41961,2,0,L|211:36,1,69.749997871399,8|0,0:0|0:0,0:0:0:0:
104,141,42294,2,0,L|98:220,1,69.749997871399,0|0,1:0|0:0,0:0:0:0:
223,211,42627,2,0,P|261:199|300:180,1,69.749997871399,8|0,0:0|0:0,0:0:0:0:
149,284,42961,6,0,P|127:213|153:138,1,139.499995742798,4|8,0:0|0:0,0:0:0:0:
335,140,43461,2,0,P|284:194|206:209,1,139.499995742798,0|0,1:0|1:0,0:0:0:0:
218,76,43961,1,12,0:0:0:0:
218,76,44294,1,0,1:0:0:0:
143,151,44461,1,0,1:0:0:0:
317,105,44627,2,0,P|319:64|315:21,1,69.749997871399,8|0,0:0|0:0,0:0:0:0:
143,151,44961,2,0,P|141:192|145:235,1,69.749997871399,8|8,0:0|0:3,0:0:0:0:
202,296,45294,1,8,0:3:0:0:
202,296,45461,1,8,0:3:0:0:
133,372,45627,6,0,L|-1:363,1,124,4|0,0:0|0:0,0:0:0:0:
39,270,46127,1,0,1:0:0:0:
39,270,46294,2,0,P|51:204|43:143,1,124,8|0,0:0|1:0,0:0:0:0:
18,60,46794,1,8,0:0:0:0:
111,13,46961,6,0,L|180:22,2,62,0|0|0,0:0|0:0|1:0,0:0:0:0:
219,107,47461,1,0,0:0:0:0:
219,107,47627,2,0,L|281:99,1,62,8|0,0:0|1:0,0:0:0:0:
355,29,47961,1,0,1:0:0:0:
355,29,48127,1,0,1:0:0:0:
330,205,48294,5,10,1:2:0:0:
281,99,48461,1,2,1:2:0:0:
412,133,48627,1,2,1:2:0:0:
302,226,48794,1,2,1:2:0:0:
302,226,49127,5,2,0:2:0:0:
172,202,49294,1,10,0:2:0:0:
221,309,49461,1,2,1:2:0:0:
114,340,49627,1,2,1:2:0:0:
181,173,49794,1,2,1:2:0:0:
181,173,50127,5,0,1:0:0:0:
297,358,50294,5,8,0:0:0:0:
31,213,50627,1,8,0:0:0:0:
41,56,50961,6,0,L|157:74,1,108.5,2|0,0:0|0:0,0:0:0:0:
224,87,51627,6,0,P|235:168|203:257,1,170.500005203247,4|8,0:0|0:0,0:0:0:0:
132,335,52127,1,0,0:0:0:0:
63,241,52293,2,0,L|71:148,1,85.2500026016236,0|0,1:0|1:0,0:0:0:0:
138,73,52627,1,8,0:0:0:0:
226,140,52793,6,0,P|139:177|47:134,1,170.500005203247,0|0,1:0|1:0,0:0:0:0:
138,73,53293,1,8,0:0:0:0:
244,247,53460,1,0,0:0:0:0:
329,126,53627,2,0,P|322:81|316:41,1,85.2500026016236,0|0,0:0|1:0,0:0:0:0:
226,140,53960,2,0,P|219:185|213:225,1,85.2500026016236,8|0,0:0|0:0,0:0:0:0:
355,294,54293,6,0,P|339:196|326:110,1,170.500005203247,0|8,1:0|0:0,0:0:0:0:
432,135,54793,1,0,0:0:0:0:
316,41,54960,2,0,P|276:58|222:66,1,85.2500026016236,0|0,1:0|1:0,0:0:0:0:
166,151,55293,1,8,0:0:0:0:
66,104,55460,2,0,P|58:146|64:193,1,85.2500026016236,0|0,1:0|0:0,0:0:0:0:
126,280,55793,5,0,1:0:0:0:
166,151,55960,1,8,0:0:0:0:
231,233,56126,1,0,0:0:0:0:
49,354,56293,2,0,P|31:316|27:274,1,85.2500026016236,0|0,0:0|1:0,0:0:0:0:
171,310,56626,2,0,P|209:326|252:331,1,85.2500026016236,8|0,0:0|1:0,0:0:0:0:
188,70,56960,6,0,P|198:158|235:239,1,170.500005203247,0|8,1:0|0:0,0:0:0:0:
333,191,57460,1,0,0:0:0:0:
395,275,57626,2,0,P|390:319|371:359,1,85.2500026016236,0|0,1:0|1:0,0:0:0:0:
333,191,57960,1,8,0:0:0:0:
369,88,58126,2,0,P|404:114|430:150,1,85.2500026016236,0|0,1:0|0:0,0:0:0:0:
395,275,58460,1,0,1:0:0:0:
252,213,58626,6,0,P|294:208|333:190,1,85.2500026016236,8|0,0:0|0:0,0:0:0:0:
203,50,58960,2,0,P|237:75|262:109,1,85.2500026016236,0|0,0:0|1:0,0:0:0:0:
145,232,59293,2,0,P|149:189|166:150,1,85.2500026016236,8|8,0:0|0:0,0:0:0:0:
413,168,59626,6,0,P|335:203|251:212,1,170.500005203247,4|8,0:0|0:0,0:0:0:0:
100,65,60126,2,0,P|177:99|262:109,1,170.500005203247,4|0,0:0|1:0,0:0:0:0:
240,308,60626,1,12,0:0:0:0:
240,308,60960,5,0,1:0:0:0:
145,243,61126,1,0,1:0:0:0:
250,212,61293,1,8,0:0:0:0:
142,341,61460,1,0,0:0:0:0:
70,204,61626,2,0,P|105:229|151:244,1,85.2500026016236,8|0,0:0|1:0,0:0:0:0:
243,103,61960,2,0,P|202:117|168:141,1,85.2500026016236,8|0,0:0|0:0,0:0:0:0:
349,341,62293,6,0,P|312:258|237:206,1,170.500005203247,4|8,0:0|0:0,0:0:0:0:
144,242,62793,1,0,0:0:0:0:
185,57,62960,2,0,L|165:152,1,85.2500026016236,0|0,1:0|1:0,0:0:0:0:
56,175,63293,1,8,0:0:0:0:
89,333,63460,6,0,P|143:348|241:278,1,170.500005203247,0|0,1:0|1:0,0:0:0:0:
144,242,63960,1,8,0:0:0:0:
167,140,64126,1,0,0:0:0:0:
319,281,64293,2,0,P|279:289|215:289,1,85.2500026016236,0|0,0:0|1:0,0:0:0:0:
303,107,64626,2,0,P|289:145|257:201,1,85.2500026016236,8|0,0:0|0:0,0:0:0:0:
351,9,64960,6,0,P|393:48|392:169,1,170.500005203247,0|8,1:0|0:0,0:0:0:0:
303,107,65460,1,0,0:0:0:0:
271,289,65626,2,0,L|262:205,1,85.2500026016236,0|0,1:0|1:0,0:0:0:0:
386,261,65960,1,8,0:0:0:0:
386,261,66126,2,0,L|377:345,1,85.2500026016236,0|0,1:0|0:0,0:0:0:0:
271,289,66460,5,0,1:0:0:0:
386,261,66626,1,8,0:0:0:0:
241,110,66793,1,0,1:0:0:0:
198,203,66960,1,8,0:0:0:0:
364,81,67126,1,8,0:3:0:0:
208,117,67293,1,8,0:3:0:0:
330,200,67460,1,8,0:3:0:0:
287,7,67626,6,0,L|288:150,1,124,4|0,0:0|0:0,0:0:0:0:
221,206,68126,1,0,1:0:0:0:
221,206,68293,2,0,P|155:218|90:197,1,124,8|0,0:0|0:0,0:0:0:0:
38,131,68793,2,0,L|41:65,1,62,8|0,0:0|0:0,0:0:0:0:
135,81,69126,2,0,L|132:15,1,62,8|0,0:0|0:0,0:0:0:0:
223,116,69460,1,0,1:0:0:0:
223,116,69626,2,0,P|289:128|354:107,1,124,12|0,0:0|0:0,0:0:0:0:
428,79,70126,1,0,1:0:0:0:
481,156,70293,6,0,P|473:224|470:292,1,124,12|8,0:0|0:0,0:0:0:0:
405,362,70793,1,8,0:0:0:0:
321,307,70960,1,8,0:3:0:0:
470,279,71126,1,0,1:0:0:0:
424,195,71293,1,8,0:0:0:0:
405,362,71460,1,4,0:0:0:0:
405,362,71793,6,0,L|329:374,1,62,8|0,0:3|0:0,0:0:0:0:
283,303,72126,2,0,L|221:293,1,62,0|8,1:0|0:0,0:0:0:0:
147,225,72460,1,8,0:0:0:0:
138,206,72543,1,8,0:0:0:0:
134,186,72626,1,8,0:0:0:0:
134,165,72710,1,8,0:0:0:0:
139,145,72793,1,8,0:0:0:0:
148,127,72876,1,8,0:0:0:0:
161,111,72960,6,0,P|234:130|318:107,1,155,4|8,0:0|0:0,0:0:0:0:
401,68,73460,1,0,0:0:0:0:
449,163,73626,2,0,L|442:255,2,77.5,0|0|8,1:0|1:0|0:0,0:0:0:0:
321,266,74126,6,0,L|308:107,1,155,4|0,0:0|1:0,0:0:0:0:
227,45,74626,2,0,P|190:66|141:81,1,77.5,8|0,0:0|0:0,0:0:0:0:
69,17,74960,1,0,0:0:0:0:
53,125,75126,1,0,1:0:0:0:
127,248,75293,2,0,P|146:214|159:178,1,77.5,8|0,0:0|0:0,0:0:0:0:
26,286,75626,6,0,P|56:332|161:353,1,155,4|8,0:0|0:0,0:0:0:0:
127,248,76126,1,0,0:0:0:0:
252,219,76293,2,0,L|236:308,2,77.5,0|0|8,1:0|1:0|0:0,0:0:0:0:
196,117,76793,5,4,0:0:0:0:
196,117,76876,1,0,0:0:0:0:
196,117,76960,1,0,0:0:0:0:
318,65,77126,1,0,1:0:0:0:
211,10,77293,1,8,0:0:0:0:
114,185,77460,2,0,P|162:212|263:199,1,155,0|0,0:0|1:0,0:0:0:0:
341,145,77960,1,8,0:0:0:0:
341,145,78126,1,8,0:0:0:0:
430,222,78293,6,0,L|413:383,2,155,4|8|0,0:0|0:0|1:0,0:0:0:0:
341,145,79126,1,0,1:0:0:0:
441,103,79293,1,8,0:0:0:0:
285,62,79460,6,0,L|302:223,1,155,4|0,0:0|1:0,0:0:0:0:
231,293,79960,1,8,0:0:0:0:
315,361,80126,2,0,P|349:339|384:309,2,77.5,0|0|0,0:0|0:0|1:0,0:0:0:0:
222,216,80626,2,0,P|229:254|231:293,1,77.5,8|0,0:0|0:0,0:0:0:0:
123,167,80960,6,0,P|161:128|265:118,1,155,4|8,0:0|0:0,0:0:0:0:
230,224,81460,1,8,0:0:0:0:
230,224,81543,1,8,0:0:0:0:
230,224,81626,1,8,0:0:0:0:
257,115,81793,1,8,0:0:0:0:
323,264,81960,1,8,0:0:0:0:
123,167,82126,1,4,0:0:0:0:
123,167,82460,6,0,P|128:234|117:292,2,124,8|8|8,0:3|0:3|0:3,0:0:0:0:
80,82,83293,1,8,0:3:0:0:
80,82,83460,1,0,0:0:0:0:
197,62,83626,5,4,0:0:0:0:
239,165,84626,5,8,0:0:0:0:
239,165,84793,1,8,0:0:0:0:
72,242,85460,6,0,P|72:276|69:309,2,62,8|8|0,0:3|0:0|0:0,0:0:0:0:
0,153,85960,1,0,1:0:0:0:
59,55,86126,1,0,1:0:0:0:
175,143,86293,6,0,L|85:149,2,77.5,4|0|0,0:0|1:0|1:0,0:0:0:0:
299,57,86793,2,0,L|209:51,2,77.5,8|0|0,0:0|1:0|1:0,0:0:0:0:
356,144,87293,1,0,1:0:0:0:
421,7,87460,1,4,0:0:0:0:
421,7,87793,5,0,1:0:0:0:
477,90,87960,1,8,0:0:0:0:
445,186,88126,1,0,1:0:0:0:
445,186,88210,1,0,1:0:0:0:
445,186,88293,2,0,L|449:235,1,38.75,0|0,1:0|0:0,0:0:0:0:
512,291,88460,1,8,0:0:0:0:
512,291,88543,1,8,0:0:0:0:
512,291,88626,2,0,L|508:340,3,38.75,8|8|8|8,0:0|0:0|0:0|0:0,0:0:0:0:
428,359,88960,6,0,P|365:326|276:333,1,139.499995742798,4|8,0:0|0:0,0:0:0:0:
215,363,89460,1,0,1:0:0:0:
215,363,89626,2,0,L|71:354,1,139.499995742798,0|8,1:0|0:0,0:0:0:0:
26,259,90126,2,0,P|13:190|30:116,1,139.499995742798,0|0,1:0|1:0,0:0:0:0:
86,54,90626,1,8,0:0:0:0:
149,119,90793,6,0,P|216:134|289:115,1,139.499995742798,0|0,1:0|0:0,0:0:0:0:
334,42,91293,1,8,0:0:0:0:
244,25,91460,1,0,0:0:0:0:
397,119,91626,2,0,L|383:263,1,139.499995742798,0|8,1:0|0:0,0:0:0:0:
289,302,92126,2,0,P|279:266|281:223,1,69.749997871399,0|0,1:0|1:0,0:0:0:0:
383,257,92460,2,0,P|392:220|415:184,1,69.749997871399,0|8,0:0|0:0,0:0:0:0:
451,333,92793,1,4,0:0:0:0:
451,333,93126,5,0,1:0:0:0:
383,257,93293,1,8,0:0:0:0:
505,181,93460,1,0,1:0:0:0:
437,105,93626,1,8,0:0:0:0:
349,154,93793,2,0,P|310:159|271:158,2,69.749997871399,0|0|0,1:0|0:0|1:0,0:0:0:0:
201,83,94293,6,0,P|179:141|188:227,1,139.499995742798,4|8,0:0|0:0,0:0:0:0:
238,289,94793,1,0,1:0:0:0:
238,289,94960,2,0,L|387:284,1,139.499995742798,0|8,1:0|0:0,0:0:0:0:
427,188,95460,2,0,P|436:112|421:44,1,139.499995742798,0|0,1:0|1:0,0:0:0:0:
341,89,95960,1,8,0:0:0:0:
276,25,96126,2,0,P|202:39|127:32,1,139.499995742798,0|0,1:0|0:0,0:0:0:0:
83,106,96626,1,8,0:0:0:0:
119,189,96793,1,0,0:0:0:0:
54,272,96960,6,0,P|94:293|193:265,1,139.499995742798,0|8,1:0|0:0,0:0:0:0:
249,213,97460,2,0,L|326:225,1,69.749997871399,0|0,1:0|1:0,0:0:0:0:
430,291,97793,2,0,L|362:302,1,69.749997871399,0|8,0:0|0:0,0:0:0:0:
377,156,98126,1,0,1:0:0:0:
377,156,98460,5,0,1:0:0:0:
286,110,98626,1,8,0:0:0:0:
434,73,98793,1,0,1:0:0:0:
479,163,98960,2,0,L|471:246,1,69.749997871399,0|0,1:0|0:0,0:0:0:0:
395,347,99293,2,0,L|387:264,1,69.749997871399,8|0,0:0|0:0,0:0:0:0:
245,136,99626,6,0,P|315:164|388:151,1,139.499995742798,0|8,1:0|0:0,0:0:0:0:
320,68,100126,1,0,1:0:0:0:
320,68,100293,2,0,P|250:40|177:53,1,139.499995742798,0|8,1:0|0:0,0:0:0:0:
123,112,100793,2,0,L|127:261,1,139.499995742798,0|0,1:0|1:0,0:0:0:0:
202,301,101293,1,8,0:0:0:0:
269,210,101460,2,0,P|340:250|410:244,1,139.499995742798,0|0,1:0|0:0,0:0:0:0:
459,183,101960,1,8,0:0:0:0:
457,92,102126,1,0,0:0:0:0:
344,18,102293,6,0,L|351:159,1,139.499995742798,0|8,1:0|0:0,0:0:0:0:
460,223,102793,2,0,P|429:240|383:249,1,69.749997871399,0|0,1:0|0:0,0:0:0:0:
328,331,103126,1,8,0:0:0:0:
328,331,103293,1,8,0:0:0:0:
350,157,103460,1,4,1:2:0:0:
350,157,103793,5,0,1:0:0:0:
243,196,103960,1,8,0:0:0:0:
395,248,104126,1,0,1:0:0:0:
365,346,104293,1,8,0:0:0:0:
252,264,104460,2,0,P|243:224|247:164,2,69.749997871399,0|0|0,1:0|1:0|1:0,0:0:0:0:
365,346,104960,6,0,P|379:281|373:183,1,139.499995742798,4|8,0:0|0:0,0:0:0:0:
239,126,105460,2,0,P|237:195|251:263,1,139.499995742798,0|0,1:0|1:0,0:0:0:0:
377,208,105960,1,12,0:0:0:0:
377,208,106293,1,0,1:0:0:0:
272,149,106460,1,0,1:0:0:0:
352,82,106626,2,0,P|358:43|354:1,1,69.749997871399,8|0,0:0|0:0,0:0:0:0:
272,149,106960,2,0,P|302:173|341:191,1,69.749997871399,0|0,1:0|0:0,0:0:0:0:
253,46,107293,2,0,P|216:60|181:84,1,69.749997871399,8|0,0:0|0:0,0:0:0:0:
122,151,107626,6,0,P|105:218|121:302,1,139.499995742798,4|8,0:0|0:0,0:0:0:0:
238,363,108126,2,0,P|247:294|230:227,1,139.499995742798,0|0,1:0|1:0,0:0:0:0:
114,286,108626,1,12,0:0:0:0:
114,286,108960,1,0,1:0:0:0:
125,182,109126,1,0,1:0:0:0:
22,164,109293,2,0,L|27:239,1,69.749997871399,8|0,0:0|0:0,0:0:0:0:
109,355,109626,2,0,L|114:280,1,69.749997871399,8|8,0:0|0:3,0:0:0:0:
125,182,109960,1,8,0:3:0:0:
125,182,110126,1,8,0:3:0:0:
227,240,110293,6,0,P|289:254|346:232,1,124,4|0,0:0|0:0,0:0:0:0:
403,179,110793,1,0,1:0:0:0:
403,179,110960,2,0,L|396:52,1,124,8|0,0:0|1:0,0:0:0:0:
308,95,111460,1,8,0:0:0:0:
308,95,111626,2,0,L|240:83,2,62,0|0|0,0:0|0:0|1:0,0:0:0:0:
464,168,112126,1,0,0:0:0:0:
464,168,112293,2,0,L|403:179,1,62,8|0,0:0|1:0,0:0:0:0:
329,257,112626,1,0,1:0:0:0:
329,257,112793,1,0,1:0:0:0:
302,144,112960,5,10,1:2:0:0:
256,328,113126,1,2,1:2:0:0:
207,223,113293,1,2,1:2:0:0:
241,365,113460,1,2,1:2:0:0:
241,365,113793,5,2,0:2:0:0:
358,312,113960,1,10,0:2:0:0:
207,223,114126,1,2,1:2:0:0:
241,365,114293,1,2,1:2:0:0:
311,192,114460,1,2,1:2:0:0:
311,192,114793,5,0,1:0:0:0:
241,365,114960,5,8,0:0:0:0:
79,108,115293,1,8,0:0:0:0:
79,108,115626,6,0,P|120:124|193:112,1,108.5,2|0,0:0|0:0,0:0:0:0:
242,45,116293,6,0,P|270:96|212:212,1,170.500005203247,4|8,0:0|0:0,0:0:0:0:
170,285,116793,1,0,0:0:0:0:
248,360,116959,2,0,L|343:348,1,85.2500026016236,0|0,1:0|1:0,0:0:0:0:
433,331,117293,1,8,0:0:0:0:
393,189,117459,6,0,P|315:221|225:187,1,170.500005203247,0|0,1:0|1:0,0:0:0:0:
311,115,117959,1,8,0:0:0:0:
233,47,118126,1,0,0:0:0:0:
366,25,118293,2,0,P|397:54|415:109,1,85.2500026016236,0|0,0:0|1:0,0:0:0:0:
236,150,118626,2,0,P|277:140|320:101,1,85.2500026016236,8|0,0:0|0:0,0:0:0:0:
395,355,118959,6,0,L|383:184,1,170.500005203247,0|8,1:0|0:0,0:0:0:0:
310,114,119459,1,0,0:0:0:0:
413,92,119626,2,0,L|508:102,1,85.2500026016236,0|0,1:0|1:0,0:0:0:0:
339,22,119959,1,8,0:0:0:0:
339,22,120126,2,0,L|244:32,1,85.2500026016236,0|0,1:0|0:0,0:0:0:0:
162,82,120459,5,0,1:0:0:0:
279,137,120626,1,8,0:0:0:0:
176,215,120793,1,0,0:0:0:0:
254,30,120959,2,0,L|256:123,1,85.2500026016236,0|0,0:0|1:0,0:0:0:0:
151,281,121293,2,0,L|153:188,1,85.2500026016236,8|0,0:0|1:0,0:0:0:0:
240,357,121626,6,0,P|273:314|393:300,1,170.500005203247,0|8,1:0|0:0,0:0:0:0:
469,355,122126,1,0,0:0:0:0:
508,260,122293,2,0,P|506:217|496:171,1,85.2500026016236,0|0,1:0|1:0,0:0:0:0:
487,71,122626,1,8,0:0:0:0:
401,147,122793,6,0,P|359:167|313:170,1,85.2500026016236,0|0,1:0|0:0,0:0:0:0:
328,60,123126,1,0,1:0:0:0:
211,190,123293,2,0,P|214:143|235:102,1,85.2500026016236,8|0,0:0|0:0,0:0:0:0:
268,3,123626,2,0,P|306:29|331:67,1,85.2500026016236,0|0,0:0|1:0,0:0:0:0:
401,147,123959,2,0,P|359:167|313:170,1,85.2500026016236,8|8,0:0|0:0,0:0:0:0:
71,87,124292,6,0,P|136:121|238:104,1,170.500005203247,4|8,0:0|0:0,0:0:0:0:
419,44,124792,2,0,P|357:83|320:180,1,170.500005203247,4|0,0:0|1:0,0:0:0:0:
351,299,125292,1,12,0:0:0:0:
351,299,125626,5,0,1:0:0:0:
253,355,125792,1,0,1:0:0:0:
381,286,125959,1,8,0:0:0:0:
265,237,126126,1,0,0:0:0:0:
411,273,126292,2,0,L|404:185,1,85.2500026016236,8|0,0:0|1:0,0:0:0:0:
265,237,126626,2,0,L|258:325,1,85.2500026016236,8|0,0:0|0:0,0:0:0:0:
172,191,126959,6,0,P|202:153|321:151,1,170.500005203247,4|8,0:0|0:0,0:0:0:0:
401,81,127459,1,0,0:0:0:0:
487,173,127626,2,0,P|447:184|399:187,1,85.2500026016236,0|0,1:0|1:0,0:0:0:0:
283,268,127959,1,8,0:0:0:0:
283,268,128126,2,0,P|323:279|371:282,1,85.2500026016236,0|0,1:0|0:0,0:0:0:0:
403,187,128459,5,0,1:0:0:0:
471,277,128626,1,8,0:0:0:0:
489,136,128792,1,0,0:0:0:0:
366,282,128959,2,0,P|332:252|310:211,1,85.2500026016236,0|0,0:0|1:0,0:0:0:0:
457,122,129292,2,0,P|435:158|403:186,1,85.2500026016236,8|0,0:0|0:0,0:0:0:0:
205,35,129626,6,0,P|290:94|364:93,1,170.500005203247,0|8,1:0|0:0,0:0:0:0:
402,186,130126,1,0,0:0:0:0:
289,278,130292,2,0,L|298:183,1,85.2500026016236,0|0,1:0|1:0,0:0:0:0:
395,284,130626,1,8,0:0:0:0:
262,376,130792,2,0,P|224:356|197:321,1,85.2500026016236,0|0,1:0|0:0,0:0:0:0:
289,278,131126,5,0,1:0:0:0:
196,197,131292,1,8,0:0:0:0:
330,166,131459,1,0,1:0:0:0:
159,207,131626,1,8,0:0:0:0:
230,86,131792,1,8,0:3:0:0:
322,200,131959,1,8,0:3:0:0:
366,43,132126,1,8,0:3:0:0:
447,155,132292,6,0,L|429:292,1,124,4|0,0:0|0:0,0:0:0:0:
388,346,132792,1,0,1:0:0:0:
336,283,132959,2,0,P|273:302|194:290,1,124,8|0,0:0|0:0,0:0:0:0:
167,232,133459,1,8,0:0:0:0:
167,232,133626,2,0,P|174:165|157:98,1,124,4|8,1:2|0:3,0:0:0:0:
121,40,134126,1,0,1:0:0:0:
76,132,134292,1,12,0:0:0:0:
76,132,134459,1,8,0:0:0:0:
219,46,134626,1,8,0:0:0:0:
219,46,134792,1,8,0:0:0:0:
285,139,134959,6,0,L|192:142,2,77.5,4|0|0,0:0|0:0|0:0,0:0:0:0:
366,78,135459,1,0,0:0:0:0:
414,239,135626,1,8,0:0:0:0:
414,239,135792,2,0,L|411:146,1,77.5,8|0,0:3|0:0,0:0:0:0:
336,298,136126,1,4,0:0:0:0:
336,298,136459,5,8,0:3:0:0:
261,228,136626,2,0,P|293:206|337:193,1,77.5,0|0,0:0|1:0,0:0:0:0:
400,341,136959,2,0,P|365:325|332:293,1,77.5,8|8,0:0|0:3,0:0:0:0:
429,165,137292,2,0,P|433:204|422:249,1,77.5,8|8,0:0|0:0,0:0:0:0:
330,195,137626,5,4,0:0:0:0:
349,79,137792,1,0,1:0:0:0:
349,79,137876,1,0,1:0:0:0:
349,79,137959,1,0,1:0:0:0:
238,124,138126,1,8,0:0:0:0:
356,211,138292,1,8,0:0:0:0:
246,245,138459,1,8,0:0:0:0:
354,317,138626,1,8,0:0:0:0:
203,348,138792,1,12,0:0:0:0:
203,348,139126,5,0,1:0:0:0:
246,245,139292,2,0,P|207:264|166:271,1,77.5,8|0,0:0|0:0,0:0:0:0:
60,274,139626,1,0,1:0:0:0:
119,192,139792,1,8,0:0:0:0:
127,175,139876,1,8,0:0:0:0:
132,156,139959,1,8,0:0:0:0:
134,137,140042,1,8,0:0:0:0:
132,117,140126,1,8,0:0:0:0:
128,99,140209,1,8,0:0:0:0:
120,80,140292,6,0,P|185:126|277:103,1,155,4|8,0:0|0:0,0:0:0:0:
342,68,140792,1,0,0:0:0:0:
363,209,140959,1,0,1:0:0:0:
256,117,141126,1,0,1:0:0:0:
420,130,141292,1,8,0:0:0:0:
320,276,141459,6,0,L|336:118,1,155,0|0,1:0|1:0,0:0:0:0:
352,23,141959,1,8,0:0:0:0:
251,68,142126,1,0,0:0:0:0:
411,108,142292,2,0,P|373:118|318:120,1,77.5,0|0,0:0|1:0,0:0:0:0:
219,198,142626,2,0,P|257:208|312:210,1,77.5,8|0,0:0|0:0,0:0:0:0:
384,276,142959,5,0,1:0:0:0:
382,295,143042,1,0,0:0:0:0:
380,314,143126,1,0,0:0:0:0:
378,333,143209,1,0,0:0:0:0:
376,353,143292,2,0,P|296:362|221:336,1,155,8|0,0:0|1:0,0:0:0:0:
140,265,143792,1,0,1:0:0:0:
240,246,143959,1,8,0:0:0:0:
58,329,144126,6,0,P|40:284|81:187,1,155,0|0,1:0|1:0,0:0:0:0:
140,265,144626,1,8,0:0:0:0:
202,342,144792,2,0,P|277:341|332:289,1,155,0|0,0:0|1:0,0:0:0:0:
240,246,145292,1,8,0:0:0:0:
364,185,145459,1,0,1:0:0:0:
364,185,145542,1,0,0:0:0:0:
364,185,145626,6,0,P|369:109|345:29,1,155,0|8,1:0|0:0,0:0:0:0:
255,93,146126,1,0,0:0:0:0:
238,82,146209,1,0,0:0:0:0:
221,71,146292,1,0,1:0:0:0:
347,33,146459,1,0,1:0:0:0:
336,153,146626,1,8,0:0:0:0:
442,101,146792,1,0,1:0:0:0:
442,101,146876,1,0,0:0:0:0:
442,101,146959,6,0,B|450:197|450:197|432:263,1,155,0|8,0:0|0:0,0:0:0:0:
383,340,147459,1,0,0:0:0:0:
316,264,147626,2,0,P|277:247|167:278,1,155,0|8,0:0|0:0,0:0:0:0:
99,348,148126,1,0,0:0:0:0:
31,244,148292,6,0,L|35:195,3,38.75,4|0|0|0,0:0|0:0|0:0|0:0,0:0:0:0:
114,178,148626,2,0,L|110:129,3,38.75,8|0|0|0,0:0|0:0|1:0|0:0,0:0:0:0:
32,113,148959,2,0,L|36:64,3,38.75,0|0|0|0,0:0|0:0|1:0|0:0,0:0:0:0:
115,47,149292,2,0,L|111:-2,3,38.75,12|0|0|0,0:0|0:0|0:0|0:0,0:0:0:0:
224,89,149626,6,0,P|204:95|185:97,3,38.75,0|0|0|0,1:0|0:0|1:0|0:0,0:0:0:0:
295,37,149959,2,0,P|299:16|307:0,3,38.75,8|0|0|0,0:0|0:0|1:0|0:0,0:0:0:0:
350,112,150292,1,8,0:0:0:0:
347,140,150376,1,0,0:0:0:0:
345,169,150459,1,0,1:0:0:0:
342,198,150542,1,0,0:0:0:0:
340,228,150626,6,0,L|345:282,1,38.75,8|0,0:0|0:0,0:0:0:0:
170,219,150792,2,0,L|175:165,1,38.75,8|0,0:0|0:0,0:0:0:0:
225,350,150959,5,4,0:0:0:0:
49,293,151126,1,0,1:0:0:0:
49,293,151292,1,0,1:0:0:0:
345,169,151459,5,12,0:0:0:0:
170,219,151626,1,0,1:0:0:0:
170,219,151792,1,0,1:0:0:0:
375,156,151959,5,12,0:0:0:0:
256,192,152042,12,2,153626,0:0:0:0:
419,330,169626,5,4,1:2:0:0:
385,200,170292,1,4,1:2:0:0:
283,313,170959,1,4,1:2:0:0:
385,200,171626,1,4,1:2:0:0:
185,52,172292,6,0,L|187:211,1,155,4|8,0:0|0:0,0:0:0:0:
188,313,172792,1,0,0:0:0:0:
283,263,172959,1,8,0:0:0:0:
153,198,173126,1,8,0:0:0:0:
190,342,173292,1,8,0:0:0:0:
304,238,173459,1,12,0:0:0:0:
47,350,173792,5,0,1:0:0:0:
47,350,173959,1,0,1:0:0:0:
153,198,174292,6,0,P|198:179|270:198,1,124,2|0,0:0|0:0,0:0:0:0:
268,196,175292,6,0,P|327:224|436:188,1,174.375006651879,4|0,0:0|0:0,0:0:0:0:
465,123,175626,6,0,P|474:58|446:10,1,116.250004434586,0|0,1:0|0:0,0:0:0:0:
393,77,175876,1,8,0:0:0:0:
393,77,175959,1,8,0:0:0:0:
315,311,176126,6,0,P|321:205|428:195,1,232.500008869171,4|8,0:0|0:0,0:0:0:0:
404,370,176626,1,0,1:0:0:0:
450,225,176792,1,0,1:0:0:0:
315,311,176959,1,8,0:3:0:0:
488,321,177126,1,0,1:0:0:0:
356,221,177292,1,8,0:0:0:0:
495,130,177459,1,8,0:0:0:0:
495,130,177542,1,8,0:0:0:0:
495,130,177626,6,0,P|431:140|338:87,1,170.500005203247,4|8,0:0|0:0,0:0:0:0:
437,35,178126,1,0,0:0:0:0:
264,14,178292,1,0,1:0:0:0:
363,206,178459,1,8,0:0:0:0:
341,91,178626,1,8,0:0:0:0:
238,166,178792,6,0,P|212:246|223:330,1,170.500005203247,12|0,0:0|1:0,0:0:0:0:
321,263,179292,1,8,0:0:0:0:
371,368,179459,1,0,0:0:0:0:
446,269,179626,1,0,0:0:0:0:
313,227,179792,1,0,1:0:0:0:
439,303,179959,1,8,0:0:0:0:
403,167,180126,1,8,0:0:0:0:
371,368,180292,6,0,L|196:349,1,170.500005203247,4|8,0:0|0:0,0:0:0:0:
144,253,180792,1,0,0:0:0:0:
205,165,180959,2,0,P|200:121|181:77,1,85.2500026016236,0|0,1:0|1:0,0:0:0:0:
101,148,181292,1,8,0:0:0:0:
144,253,181459,6,0,P|199:277|299:225,1,170.500005203247,0|0,1:0|1:0,0:0:0:0:
245,92,181959,2,0,P|218:124|204:178,1,85.2500026016236,8|0,0:0|0:0,0:0:0:0:
336,304,182292,2,0,P|321:264|282:225,1,85.2500026016236,0|0,0:0|1:0,0:0:0:0:
106,276,182626,2,0,P|147:283|200:268,1,85.2500026016236,8|8,0:0|0:0,0:0:0:0:
351,134,182959,6,0,L|334:316,1,170.500005203247,4|8,0:0|0:0,0:0:0:0:
164,19,183459,2,0,L|181:201,1,170.500005203247,4|0,0:0|1:0,0:0:0:0:
199,357,183959,1,12,0:0:0:0:
199,357,184292,5,0,1:0:0:0:
274,275,184459,1,0,1:0:0:0:
99,207,184626,1,8,0:0:0:0:
246,167,184792,1,0,0:0:0:0:
193,344,184959,2,0,P|176:295|175:254,1,85.2500026016236,8|0,0:0|1:0,0:0:0:0:
336,218,185292,2,0,P|302:257|267:278,1,85.2500026016236,8|0,0:0|0:0,0:0:0:0:
147,38,185626,6,0,P|184:121|259:173,1,170.500005203247,4|8,0:0|0:0,0:0:0:0:
352,137,186126,1,0,0:0:0:0:
311,322,186292,2,0,L|331:227,1,85.2500026016236,0|0,1:0|1:0,0:0:0:0:
440,204,186626,1,8,0:0:0:0:
407,46,186792,6,0,P|353:31|255:101,1,170.500005203247,0|0,1:0|1:0,0:0:0:0:
352,137,187292,1,8,0:0:0:0:
329,239,187459,1,0,0:0:0:0:
177,98,187626,2,0,P|217:90|281:90,1,85.2500026016236,0|0,0:0|1:0,0:0:0:0:
193,272,187959,2,0,P|207:234|239:178,1,85.2500026016236,8|0,0:0|0:0,0:0:0:0:
145,370,188292,6,0,P|103:331|104:210,1,170.500005203247,0|8,1:0|0:0,0:0:0:0:
193,272,188792,1,0,0:0:0:0:
225,90,188959,2,0,L|234:174,1,85.2500026016236,0|0,1:0|1:0,0:0:0:0:
110,118,189292,1,8,0:0:0:0:
110,118,189459,2,0,L|119:34,1,85.2500026016236,0|0,1:0|0:0,0:0:0:0:
225,90,189792,5,0,1:0:0:0:
110,118,189959,1,8,0:0:0:0:
208,248,190126,1,0,1:0:0:0:
299,175,190292,1,8,0:0:0:0:
336,340,190459,1,8,0:3:0:0:
310,141,190626,1,8,0:3:0:0:
200,211,190792,1,8,0:3:0:0:
209,372,190959,6,0,L|208:229,1,124,4|0,0:0|0:0,0:0:0:0:
275,173,191459,1,0,1:0:0:0:
275,173,191626,2,0,P|341:161|406:182,1,124,8|0,0:0|0:0,0:0:0:0:
458,248,192126,2,0,L|455:314,1,62,8|0,0:0|0:0,0:0:0:0:
361,298,192459,2,0,L|364:364,1,62,8|0,0:0|0:0,0:0:0:0:
273,263,192792,1,0,1:0:0:0:
273,263,192959,2,0,P|207:251|142:272,1,124,8|0,0:0|0:0,0:0:0:0:
68,300,193459,1,0,1:0:0:0:
15,223,193626,6,0,P|23:155|26:87,1,124,12|8,0:0|0:0,0:0:0:0:
91,17,194126,1,8,0:0:0:0:
175,72,194292,1,8,0:3:0:0:
26,100,194459,1,0,1:0:0:0:
72,184,194626,1,8,0:0:0:0:
91,17,194792,1,4,0:0:0:0:
91,17,195126,6,0,L|177:29,1,62,8|0,0:3|0:0,0:0:0:0:
283,93,195459,2,0,L|197:105,1,62,0|8,1:0|0:0,0:0:0:0:
85,177,195792,1,8,0:0:0:0:
93,160,195876,1,8,0:0:0:0:
98,141,195959,1,8,0:0:0:0:
100,122,196042,1,8,0:0:0:0:
98,102,196126,1,8,0:0:0:0:
94,84,196209,1,8,0:0:0:0:
86,65,196292,6,0,P|151:111|243:88,1,155,4|8,0:0|0:0,0:0:0:0:
307,47,196792,1,0,0:0:0:0:
376,122,196959,2,0,L|478:117,2,77.5,0|0|8,1:0|1:0|0:0,0:0:0:0:
302,218,197459,6,0,P|287:294|310:367,1,155,4|0,0:0|1:0,0:0:0:0:
456,323,197959,2,0,P|419:305|375:290,1,77.5,8|0,0:0|0:0,0:0:0:0:
302,218,198292,1,0,0:0:0:0:
214,286,198459,1,0,1:0:0:0:
311,142,198626,2,0,P|309:184|300:229,1,77.5,8|0,0:0|0:0,0:0:0:0:
238,61,198959,6,0,P|287:37|393:64,2,155,4|8|0,0:0|0:0|1:0,0:0:0:0:
155,135,199792,1,0,1:0:0:0:
132,30,199959,1,8,0:0:0:0:
57,169,200126,5,4,0:0:0:0:
59,181,200209,1,0,0:0:0:0:
61,192,200292,1,0,0:0:0:0:
155,135,200459,1,0,1:0:0:0:
160,272,200626,1,8,0:0:0:0:
289,206,200792,2,0,P|216:184|156:136,1,155,0|0,0:0|1:0,0:0:0:0:
132,30,201292,1,8,0:0:0:0:
48,102,201459,1,8,0:0:0:0:
261,99,201626,6,0,P|334:77|394:29,2,155,4|8|0,0:0|0:0|1:0,0:0:0:0:
156,136,202459,1,0,1:0:0:0:
238,10,202626,1,8,0:0:0:0:
410,125,202792,6,0,P|341:99|253:100,1,155,4|0,0:0|1:0,0:0:0:0:
161,228,203292,2,0,L|168:310,2,77.5,8|0|0,0:0|0:0|0:0,0:0:0:0:
156,136,203792,1,0,1:0:0:0:
56,208,203959,2,0,L|63:126,1,77.5,8|0,0:0|0:0,0:0:0:0:
152,24,204292,6,0,P|228:11|305:42,1,155,4|8,0:0|0:0,0:0:0:0:
370,130,204792,1,8,0:0:0:0:
370,130,204876,1,8,0:0:0:0:
370,130,204959,1,8,0:0:0:0:
284,207,205126,1,8,0:0:0:0:
438,253,205292,1,8,0:0:0:0:
265,355,205459,1,4,0:0:0:0:
265,355,205792,5,0,1:0:0:0:
198,255,205959,1,8,0:0:0:0:
385,342,206126,1,0,1:0:0:0:
145,367,206292,5,10,0:0:0:0:
145,367,206459,1,10,0:0:0:0:
266,98,206792,5,4,0:0:0:0:
256,192,206876,12,0,209626,0:0:0:0:
