osu file format v14

[General]
AudioFilename: audio.mp3
AudioLeadIn: 0
PreviewTime: 50971
Countdown: 0
SampleSet: Soft
StackLeniency: 0.6
Mode: 0
LetterboxInBreaks: 0
WidescreenStoryboard: 1

[Editor]
Bookmarks: 2971,8304,18971,29637,40304,43460,45637,50971,51637,59637,62304,67637,72971,83637,104971,110304,115637,124304,126971,132304,134971,140304,153637,161637,164304,169637,174304,182971,185637,190971,196304,206804
DistanceSpacing: 1.6
BeatDivisor: 4
GridSize: 4
TimelineZoom: 1

[Metadata]
Title:Glitter
TitleUnicode:Glitter
Artist:Aki Misato
ArtistUnicode:美郷あき
Creator:timemon
Version:Hard
Source:月に寄りそう乙女の作法2
Tags:Tsuki ni Yorisou Otome no Sahou 2 Navel OP Eroge Visual Novels COMPLETE SOUNDTRACK Kazuya Yoshida Masaki Suzuki Acchorike Aoi Nishimata theme
BeatmapID:1508906
BeatmapSetID:713715

[Difficulty]
HPDrainRate:5
CircleSize:3.6
OverallDifficulty:6.5
ApproachRate:7.6
SliderMultiplier:1.2
SliderTickRate:1

[Events]
//Background and Video events
0,0,"bg.jpg",0,0
//Break Periods
2,135159,139482
2,153826,171482
//Storyboard Layer 0 (Background)
//Storyboard Layer 1 (Fail)
//Storyboard Layer 2 (Pass)
//Storyboard Layer 3 (Foreground)
//Storyboard Sound Samples

[TimingPoints]
1628,333.333333333333,4,2,1,60,1,0
2961,-100,4,2,1,60,0,0
8294,-100,4,2,1,60,0,0
17794,-125,4,2,1,50,0,0
18961,-125,4,2,1,40,0,0
28127,-166.666666666667,4,2,1,50,0,0
29127,-125,4,2,1,50,0,0
29627,-111.111111111111,4,2,1,60,0,0
45627,-125,4,2,1,60,0,0
50961,-250,4,2,1,50,0,0
51544,-250,4,2,1,5,0,0
51627,333.333333333333,4,2,1,70,1,1
51627,-90.9090909090909,4,2,1,70,0,1
59626,-90.9090909090909,4,2,1,70,0,0
62293,-90.9090909090909,4,2,1,70,0,1
67626,-125,4,2,1,60,0,0
70293,-100,4,2,1,60,0,0
72960,-100,4,2,1,60,0,0
82460,-125,4,2,1,50,0,0
83626,-250,4,2,1,50,0,0
85460,-125,4,2,1,50,0,0
86293,-100,4,2,1,60,0,0
88960,-111.111111111111,4,2,1,60,0,0
110293,-125,4,2,1,60,0,0
115626,-250,4,2,1,50,0,0
116293,333.333333333333,4,2,1,70,1,1
116293,-90.9090909090909,4,2,1,70,0,1
124292,-90.9090909090909,4,2,1,70,0,0
126959,-90.9090909090909,4,2,1,70,0,1
132292,-125,4,2,1,60,0,0
134959,-100,4,2,1,60,0,0
169626,-200,4,2,1,40,0,0
170292,-200,4,2,1,45,0,0
170959,-200,4,2,1,50,0,0
171626,-200,4,2,1,55,0,0
172292,-100,4,2,1,60,0,0
174292,-250,4,2,1,50,0,0
175292,-76.9230769230769,4,2,1,70,0,0
175626,-76.9230769230769,4,2,1,70,0,0
176126,-76.9230769230769,4,2,1,70,0,0
177626,-90.9090909090909,4,2,1,70,0,1
182959,-90.9090909090909,4,2,1,70,0,0
185626,-90.9090909090909,4,2,1,70,0,1
190959,-125,4,2,1,60,0,0
193626,-100,4,2,1,60,0,0
196292,-100,4,2,1,60,0,0
209626,-100,4,2,1,5,0,0

[Colours]
Combo1 : 159,255,255
Combo2 : 255,226,159
Combo3 : 255,170,170
Combo4 : 207,207,207

[HitObjects]
362,182,2961,6,0,L|358:256,2,60,4|0|0,0:0|0:0|0:0,0:0:0:0:
368,98,3461,1,0,0:0:0:0:
208,47,3794,1,8,0:3:0:0:
220,214,4127,1,4,0:0:0:0:
220,214,4627,6,0,L|151:207,1,60,0|0,0:0|1:0,0:0:0:0:
211,122,4961,2,0,L|251:65,1,60,8|8,0:0|0:3,0:0:0:0:
298,156,5294,1,8,0:0:0:0:
258,305,5627,5,4,0:0:0:0:
228,223,5794,1,0,1:0:0:0:
228,223,5877,1,0,1:0:0:0:
228,223,5961,2,0,L|160:228,1,60,0|8,1:0|0:0,0:0:0:0:
68,300,6294,2,0,L|136:305,2,60,8|8|8,0:0|0:0|0:0,0:0:0:0:
11,218,6794,5,12,0:0:0:0:
11,218,7127,1,0,1:0:0:0:
60,149,7294,2,0,L|54:89,1,60,8|0,0:0|0:0,0:0:0:0:
136,30,7627,2,0,L|140:78,3,30,0|0|8|8,1:0|0:0|0:0|0:0,0:0:0:0:
177,76,7961,2,0,L|172:124,3,30,8|8|8|8,0:0|0:0|0:0|0:0,0:0:0:0:
148,139,8294,6,0,L|160:259,1,120,4|8,0:0|0:0,0:0:0:0:
271,329,8961,2,0,L|344:317,2,60,0|0|8,1:0|1:0|0:0,0:0:0:0:
194,363,9461,2,0,P|187:313|250:246,1,120,4|0,0:0|1:0,0:0:0:0:
291,207,9961,1,8,0:0:0:0:
153,156,10294,1,0,0:0:0:0:
153,156,10461,2,0,L|80:168,2,60,0|8|0,1:0|0:0|0:0,0:0:0:0:
174,71,10961,6,0,P|216:92|240:161,2,120,4|8|0,0:0|0:0|1:0,0:0:0:0:
99,30,11794,1,0,1:0:0:0:
44,94,11961,1,8,0:0:0:0:
96,169,12127,1,4,0:0:0:0:
96,169,12211,1,0,0:0:0:0:
96,169,12294,2,0,L|91:234,2,60,0|0|8,0:0|1:0|0:0,0:0:0:0:
194,230,12794,2,0,L|183:94,1,120,0|0,0:0|1:0,0:0:0:0:
178,26,13294,1,8,0:0:0:0:
178,26,13461,1,8,0:0:0:0:
274,68,13627,6,0,P|325:84|397:52,1,120,4|8,0:0|0:0,0:0:0:0:
485,154,14294,2,0,L|480:89,2,60,0|0|8,1:0|1:0|0:0,0:0:0:0:
420,208,14794,2,0,B|431:275|431:275|422:333,1,120,4|0,0:0|1:0,0:0:0:0:
352,372,15294,1,8,0:0:0:0:
293,311,15461,1,0,0:0:0:0:
293,311,15627,2,0,L|216:318,1,60,0|0,0:0|1:0,0:0:0:0:
177,252,15961,1,8,0:0:0:0:
177,252,16294,6,0,P|161:189|174:123,1,120,4|8,0:0|0:0,0:0:0:0:
226,73,16794,2,0,L|269:81,2,30,8|8|8,0:0|0:0|0:0,0:0:0:0:
167,12,17127,1,8,0:0:0:0:
167,12,17294,1,8,0:0:0:0:
92,83,17461,1,4,0:0:0:0:
92,83,17794,6,0,L|98:180,2,96,8|8|8,0:3|0:3|0:3,0:0:0:0:
88,4,18627,1,8,0:3:0:0:
210,60,18961,6,0,P|259:74|311:58,1,96,2|0,0:0|0:0,0:0:0:0:
365,114,19461,1,0,0:0:0:0:
365,114,19627,2,0,L|360:209,1,96,8|0,0:0|0:0,0:0:0:0:
287,247,20127,2,0,L|292:342,1,96,0|0,0:0|0:0,0:0:0:0:
198,217,20794,2,0,P|224:175|270:153,1,96,0|0,0:0|0:0,0:0:0:0:
340,184,21294,2,0,L|392:191,1,48,0|0,0:0|0:0,0:0:0:0:
447,134,21627,6,0,P|437:81|442:31,1,96,2|0,0:0|0:0,0:0:0:0:
363,11,22127,2,0,L|255:23,2,96,0|0|0,0:0|0:0|0:0,0:0:0:0:
153,109,24294,6,0,L|160:214,1,96,2|0,0:0|0:0,0:0:0:0:
224,254,24794,1,0,0:0:0:0:
167,313,24961,2,0,P|119:332|66:321,1,96,8|0,0:0|0:0,0:0:0:0:
25,261,25461,2,0,L|32:156,1,96,0|0,0:0|0:0,0:0:0:0:
135,73,26127,2,0,P|180:90|241:77,1,96,0|0,0:0|0:0,0:0:0:0:
290,32,26627,1,0,0:0:0:0:
290,32,26794,1,0,0:0:0:0:
333,100,26961,6,0,P|343:147|332:203,1,96,2|0,0:0|0:0,0:0:0:0:
277,250,27461,2,0,L|180:237,1,96,0|0,0:0|0:0,0:0:0:0:
104,331,28127,6,0,P|152:300|60:265,1,215.999993408203,2|0,0:0|1:0,0:0:0:0:
20,182,29294,2,0,L|27:130,1,48,8|0,0:0|1:0,0:0:0:0:
90,76,29627,6,0,P|129:110|191:110,1,107.999996704102,4|8,0:0|0:0,0:0:0:0:
225,188,30127,1,0,1:0:0:0:
225,188,30294,2,0,P|264:154|326:154,1,107.999996704102,0|8,0:0|0:0,0:0:0:0:
366,223,30794,2,0,B|374:275|374:275|369:335,1,107.999996704102,0|0,1:0|1:0,0:0:0:0:
222,273,31461,2,0,P|165:257|104:285,1,107.999996704102,0|0,0:0|1:0,0:0:0:0:
56,330,31961,1,8,0:0:0:0:
56,330,32127,1,0,0:0:0:0:
19,232,32294,6,0,L|30:118,1,107.999996704102,0|8,1:0|0:0,0:0:0:0:
94,67,32794,2,0,P|140:93|193:105,2,107.999996704102,0|0|0,1:0|0:0|1:0,0:0:0:0:
265,40,33794,1,0,1:0:0:0:
265,40,33961,2,0,P|317:51|364:78,1,107.999996704102,8|0,0:0|0:0,0:0:0:0:
318,151,34461,1,0,1:0:0:0:
318,151,34627,2,0,L|324:217,1,53.9999983520508,8|0,0:0|0:0,0:0:0:0:
398,264,34961,6,0,P|355:293|282:289,1,107.999996704102,0|8,1:0|0:0,0:0:0:0:
236,236,35461,1,0,1:0:0:0:
207,317,35627,2,0,B|159:342|159:342|97:314,1,107.999996704102,0|8,0:0|0:0,0:0:0:0:
33,279,36127,1,0,1:0:0:0:
34,147,36461,2,0,L|99:150,1,53.9999983520508,0|8,1:0|0:0,0:0:0:0:
154,102,36794,2,0,P|207:115|269:98,1,107.999996704102,0|0,0:0|1:0,0:0:0:0:
336,65,37294,1,8,0:0:0:0:
336,65,37461,1,0,0:0:0:0:
378,159,37627,6,0,L|374:269,1,107.999996704102,0|8,1:0|0:0,0:0:0:0:
307,322,38127,2,0,P|261:334|201:310,1,107.999996704102,0|0,1:0|0:0,0:0:0:0:
138,258,38627,1,8,0:0:0:0:
91,348,38794,1,4,1:2:0:0:
26,213,39127,1,0,1:0:0:0:
26,213,39294,2,0,L|31:152,1,53.9999983520508,8|0,0:0|1:0,0:0:0:0:
114,140,39627,1,8,0:0:0:0:
114,140,39794,2,0,L|109:79,2,53.9999983520508,8|8|8,0:3|0:3|0:3,0:0:0:0:
189,202,40294,6,0,P|237:223|298:203,1,107.999996704102,4|8,0:0|0:0,0:0:0:0:
361,162,40794,2,0,P|409:141|470:161,1,107.999996704102,0|0,1:0|1:0,0:0:0:0:
501,231,41294,1,12,0:0:0:0:
429,347,41627,1,0,1:0:0:0:
429,347,41794,1,0,1:0:0:0:
359,295,41961,2,0,L|301:307,1,53.9999983520508,8|0,0:0|0:0,0:0:0:0:
203,224,42294,2,0,L|256:235,1,53.9999983520508,0|0,1:0|0:0,0:0:0:0:
148,291,42627,2,0,L|95:301,1,53.9999983520508,8|0,0:0|0:0,0:0:0:0:
34,221,42961,6,0,P|26:162|44:105,1,107.999996704102,4|8,0:0|0:0,0:0:0:0:
106,62,43461,2,0,P|158:74|211:66,1,107.999996704102,0|0,1:0|1:0,0:0:0:0:
277,121,43961,1,12,0:0:0:0:
396,57,44294,1,0,1:0:0:0:
396,57,44461,1,0,1:0:0:0:
447,126,44627,2,0,L|442:194,1,53.9999983520508,8|0,0:0|0:0,0:0:0:0:
372,230,44961,1,8,0:0:0:0:
372,230,45127,2,0,L|377:298,2,53.9999983520508,8|8|8,0:3|0:3|0:3,0:0:0:0:
299,183,45627,6,0,P|251:211|160:192,1,144,4|0,0:0|1:0,0:0:0:0:
104,152,46294,1,8,0:0:0:0:
54,279,46627,1,0,1:0:0:0:
54,279,46794,1,8,0:0:0:0:
102,339,46961,2,0,L|160:334,2,48,0|0|0,0:0|0:0|1:0,0:0:0:0:
54,279,47461,1,0,0:0:0:0:
54,279,47627,2,0,L|-4:274,1,48,8|0,0:0|1:0,0:0:0:0:
106,223,47961,1,0,1:0:0:0:
106,223,48127,1,0,1:0:0:0:
197,276,48294,6,0,L|190:337,2,48,10|2|2,1:2|1:2|1:2,0:0:0:0:
208,185,48794,1,2,1:2:0:0:
319,284,49127,1,2,0:2:0:0:
319,284,49294,2,0,L|385:295,2,48,10|2|2,0:2|1:2|1:2,0:0:0:0:
269,355,49794,1,2,1:2:0:0:
181,228,50127,1,0,1:0:0:0:
181,228,50294,5,8,0:0:0:0:
328,187,50627,1,8,0:0:0:0:
412,252,51627,6,0,P|419:185|400:121,1,132.00000402832,4|8,0:0|0:0,0:0:0:0:
290,27,52293,2,0,L|217:31,1,66.0000020141602,0|0,1:0|1:0,0:0:0:0:
155,92,52627,1,8,0:0:0:0:
205,169,52793,2,0,P|214:234|196:305,1,132.00000402832,0|0,1:0|1:0,0:0:0:0:
132,361,53293,1,8,0:0:0:0:
58,203,53627,2,0,L|66:289,1,66.0000020141602,0|0,0:0|1:0,0:0:0:0:
154,200,53960,2,0,L|162:114,1,66.0000020141602,8|0,0:0|0:0,0:0:0:0:
219,63,54293,6,0,P|269:93|364:87,1,132.00000402832,0|8,1:0|0:0,0:0:0:0:
449,201,54960,2,0,P|445:240|442:288,1,66.0000020141602,0|0,1:0|1:0,0:0:0:0:
398,347,55293,1,8,0:0:0:0:
340,274,55460,2,0,P|279:291|209:258,1,132.00000402832,0|0,1:0|1:0,0:0:0:0:
146,206,55960,2,0,P|112:200|66:212,1,66.0000020141602,8|0,0:0|0:0,0:0:0:0:
26,130,56293,2,0,L|32:65,1,66.0000020141602,0|0,0:0|1:0,0:0:0:0:
120,27,56626,2,0,L|126:92,1,66.0000020141602,8|0,0:0|1:0,0:0:0:0:
146,206,56960,6,0,P|211:224|289:204,1,132.00000402832,0|8,1:0|0:0,0:0:0:0:
432,259,57626,2,0,L|426:338,1,66.0000020141602,0|0,1:0|1:0,0:0:0:0:
343,365,57960,1,8,0:0:0:0:
335,273,58126,2,0,L|323:115,1,132.00000402832,0|0,1:0|1:0,0:0:0:0:
271,65,58626,2,0,P|247:92|214:109,1,66.0000020141602,8|0,0:0|0:0,0:0:0:0:
128,2,58960,2,0,P|163:9|194:29,1,66.0000020141602,0|0,0:0|1:0,0:0:0:0:
144,157,59293,2,0,P|132:122|134:85,1,66.0000020141602,8|8,0:0|0:0,0:0:0:0:
214,223,59626,6,0,P|162:251|76:227,1,132.00000402832,4|8,0:0|0:0,0:0:0:0:
4,268,60126,2,0,P|5:208|69:146,1,132.00000402832,4|0,0:0|1:0,0:0:0:0:
144,157,60626,1,12,0:0:0:0:
144,157,60960,2,0,L|138:87,2,66.0000020141602,0|0|8,1:0|1:0|0:0,0:0:0:0:
281,245,61626,2,0,P|246:255|211:257,1,66.0000020141602,8|0,0:0|1:0,0:0:0:0:
160,335,61960,2,0,P|195:345|230:347,1,66.0000020141602,8|0,0:0|0:0,0:0:0:0:
281,245,62293,6,0,B|265:177|265:177|276:108,1,132.00000402832,4|8,0:0|0:0,0:0:0:0:
329,41,62793,1,0,0:0:0:0:
394,106,62960,2,0,L|465:94,2,66.0000020141602,0|0|8,1:0|1:0|0:0,0:0:0:0:
329,41,63460,2,0,L|188:17,1,132.00000402832,0|0,1:0|1:0,0:0:0:0:
126,76,63960,1,8,0:0:0:0:
234,203,64293,2,0,L|228:131,1,66.0000020141602,0|0,0:0|1:0,0:0:0:0:
136,175,64626,2,0,L|130:247,1,66.0000020141602,8|0,0:0|0:0,0:0:0:0:
179,342,64960,6,0,P|214:318|304:335,1,132.00000402832,0|8,1:0|0:0,0:0:0:0:
426,236,65626,2,0,P|421:199|408:166,1,66.0000020141602,0|0,1:0|1:0,0:0:0:0:
368,89,65960,1,8,0:0:0:0:
302,153,66126,2,0,P|237:175|152:162,1,132.00000402832,0|0,1:0|1:0,0:0:0:0:
120,94,66626,2,0,L|48:106,1,66.0000020141602,8|0,0:0|1:0,0:0:0:0:
170,15,66960,1,8,0:0:0:0:
170,15,67126,2,0,L|242:27,2,66.0000020141602,8|8|8,0:3|0:3|0:3,0:0:0:0:
120,94,67626,6,0,P|103:162|119:238,1,144,4|0,0:0|1:0,0:0:0:0:
154,300,68293,1,8,0:0:0:0:
254,216,68626,2,0,L|249:152,1,48,0|8,0:0|0:0,0:0:0:0:
332,250,68960,1,0,0:0:0:0:
332,250,69126,2,0,L|327:314,1,48,8|0,0:0|0:0,0:0:0:0:
275,354,69460,1,0,1:0:0:0:
275,354,69626,1,12,0:0:0:0:
348,128,70126,1,0,1:0:0:0:
348,128,70293,6,0,P|289:107|215:118,1,120,12|8,0:0|0:0,0:0:0:0:
178,176,70793,1,8,0:0:0:0:
116,118,70960,2,0,L|122:47,2,60,8|0|8,0:3|1:0|0:0,0:0:0:0:
74,223,71460,1,4,0:0:0:0:
74,223,71793,2,0,L|79:293,1,60,8|0,0:3|0:0,0:0:0:0:
145,333,72126,1,0,1:0:0:0:
207,277,72293,2,0,L|247:286,3,30,8|8|8|8,0:0|0:0|0:0|0:0,0:0:0:0:
263,315,72626,2,0,L|303:306,3,30,8|8|8|8,0:0|0:0|0:0|0:0,0:0:0:0:
326,283,72960,6,0,P|326:221|314:163,1,120,4|8,0:0|0:0,0:0:0:0:
241,55,73626,2,0,L|168:67,2,60,0|0|8,1:0|1:0|0:0,0:0:0:0:
318,21,74126,2,0,P|325:71|262:138,1,120,4|0,0:0|1:0,0:0:0:0:
221,177,74626,1,8,0:0:0:0:
359,228,74960,1,0,0:0:0:0:
359,228,75126,2,0,L|432:216,2,60,0|8|0,1:0|0:0|0:0,0:0:0:0:
338,313,75626,6,0,P|296:292|272:223,2,120,4|8|0,0:0|0:0|1:0,0:0:0:0:
413,354,76460,1,0,1:0:0:0:
468,290,76626,1,8,0:0:0:0:
416,215,76793,1,4,0:0:0:0:
416,215,76876,1,0,0:0:0:0:
416,215,76960,2,0,L|421:150,2,60,0|0|8,0:0|1:0|0:0,0:0:0:0:
318,154,77460,2,0,P|326:215|329:290,1,120,0|0,0:0|1:0,0:0:0:0:
331,357,77960,1,8,0:0:0:0:
331,357,78126,1,8,0:0:0:0:
237,293,78293,6,0,B|181:278|181:278|118:291,2,120,4|8|0,0:0|0:0|1:0,0:0:0:0:
296,232,79126,1,0,1:0:0:0:
252,159,79293,1,8,0:0:0:0:
307,95,79460,2,0,P|370:113|431:104,1,120,4|0,0:0|1:0,0:0:0:0:
501,75,79960,1,8,0:0:0:0:
493,158,80126,1,0,0:0:0:0:
493,158,80293,2,0,P|478:209|488:280,1,120,0|8,0:0|0:0,0:0:0:0:
380,351,80960,6,0,L|240:329,1,120,4|8,0:0|0:0,0:0:0:0:
196,278,81460,1,8,0:0:0:0:
196,278,81543,1,8,0:0:0:0:
196,278,81626,1,8,0:0:0:0:
247,211,81793,2,0,L|239:142,1,60,8|8,0:0|0:0,0:0:0:0:
225,52,82126,1,4,0:0:0:0:
225,52,82460,2,0,P|274:64|327:48,2,96,8|8|8,0:3|0:3|0:3,0:0:0:0:
146,27,83293,1,8,0:3:0:0:
146,27,83460,1,0,0:0:0:0:
116,132,83626,5,4,0:0:0:0:
121,178,86293,6,0,L|126:254,1,60,4|0,0:0|1:0,0:0:0:0:
204,201,86626,1,0,1:0:0:0:
204,201,86793,2,0,L|209:125,1,60,8|0,0:0|1:0,0:0:0:0:
260,75,87126,2,0,P|286:91|326:107,1,60,0|0,1:0|1:0,0:0:0:0:
391,70,87460,1,4,0:0:0:0:
391,70,87793,5,0,1:0:0:0:
443,135,87960,1,8,0:0:0:0:
394,203,88126,1,0,1:0:0:0:
394,203,88210,1,0,1:0:0:0:
394,203,88293,2,0,L|396:247,3,30,0|0|8|8,1:0|0:0|0:0|0:0,0:0:0:0:
429,258,88626,2,0,L|427:302,3,30,8|8|8|8,0:0|0:0|0:0|0:0,0:0:0:0:
399,314,88960,6,0,P|337:323|279:297,1,107.999996704102,4|8,0:0|0:0,0:0:0:0:
228,261,89460,1,0,1:0:0:0:
179,325,89626,2,0,L|64:346,1,107.999996704102,0|8,1:0|0:0,0:0:0:0:
20,282,90126,2,0,B|31:225|31:225|23:163,1,107.999996704102,0|0,1:0|1:0,0:0:0:0:
112,76,90793,2,0,P|161:98|227:98,1,107.999996704102,0|0,1:0|0:0,0:0:0:0:
278,50,91293,1,8,0:0:0:0:
278,50,91460,1,0,0:0:0:0:
331,110,91626,6,0,L|324:225,1,107.999996704102,0|8,1:0|0:0,0:0:0:0:
320,298,92126,2,0,P|262:304|201:283,1,107.999996704102,0|0,1:0|0:0,0:0:0:0:
149,243,92626,1,8,0:0:0:0:
118,318,92793,1,4,0:0:0:0:
41,175,93126,1,0,1:0:0:0:
41,175,93293,2,0,L|112:179,1,53.9999983520508,8|0,0:0|1:0,0:0:0:0:
132,106,93626,1,8,0:0:0:0:
132,106,93793,2,0,L|185:102,2,53.9999983520508,0|0|0,1:0|0:0|1:0,0:0:0:0:
229,30,94293,6,0,P|263:72|260:144,1,107.999996704102,4|8,0:0|0:0,0:0:0:0:
228,195,94793,1,0,1:0:0:0:
286,251,94960,2,0,L|400:243,1,107.999996704102,0|8,1:0|0:0,0:0:0:0:
474,235,95460,1,0,1:0:0:0:
423,107,95793,1,0,1:0:0:0:
355,152,95960,1,8,0:0:0:0:
284,112,96126,2,0,P|227:98|169:115,1,107.999996704102,0|0,1:0|0:0,0:0:0:0:
125,169,96626,1,8,0:0:0:0:
125,169,96793,1,0,0:0:0:0:
176,247,96960,6,0,L|166:359,1,107.999996704102,0|8,1:0|0:0,0:0:0:0:
85,352,97460,2,0,L|75:244,2,107.999996704102,0|0|0,1:0|0:0|1:0,0:0:0:0:
176,247,98460,1,0,1:0:0:0:
176,247,98626,2,0,P|235:270|292:248,2,107.999996704102,8|0|8,0:0|1:0|0:0,0:0:0:0:
108,130,99626,6,0,L|118:22,1,107.999996704102,0|8,1:0|0:0,0:0:0:0:
196,56,100126,1,0,1:0:0:0:
196,56,100293,2,0,P|251:73|305:61,1,107.999996704102,0|8,1:0|0:0,0:0:0:0:
378,44,100793,2,0,B|389:98|389:98|381:159,1,107.999996704102,0|0,1:0|1:0,0:0:0:0:
261,222,101460,2,0,B|250:276|250:276|258:337,1,107.999996704102,0|0,1:0|0:0,0:0:0:0:
327,368,101960,1,8,0:0:0:0:
327,368,102126,1,0,0:0:0:0:
389,316,102293,6,0,P|406:260|401:207,1,107.999996704102,0|8,1:0|0:0,0:0:0:0:
347,151,102793,2,0,P|292:162|236:154,1,107.999996704102,0|8,1:0|0:0,0:0:0:0:
179,102,103293,1,8,0:0:0:0:
151,197,103460,1,4,1:2:0:0:
151,197,103793,1,0,1:0:0:0:
197,263,103960,2,0,L|190:335,1,53.9999983520508,8|0,0:0|1:0,0:0:0:0:
118,350,104293,1,8,0:0:0:0:
118,350,104460,2,0,L|111:278,2,53.9999983520508,0|0|0,1:0|1:0|1:0,0:0:0:0:
197,263,104960,6,0,P|250:278|307:261,1,107.999996704102,4|8,0:0|0:0,0:0:0:0:
352,202,105460,2,0,L|345:88,1,107.999996704102,0|0,1:0|1:0,0:0:0:0:
338,13,105960,1,12,0:0:0:0:
221,86,106293,2,0,L|226:152,1,53.9999983520508,0|0,1:0|1:0,0:0:0:0:
287,191,106626,2,0,L|282:257,1,53.9999983520508,8|0,0:0|0:0,0:0:0:0:
224,301,106960,2,0,P|174:323|116:312,1,107.999996704102,0|8,1:0|0:0,0:0:0:0:
47,208,107626,6,0,L|51:87,1,107.999996704102,4|8,0:0|0:0,0:0:0:0:
133,58,108126,2,0,L|137:179,1,107.999996704102,0|0,1:0|1:0,0:0:0:0:
142,246,108626,1,12,0:0:0:0:
265,140,108960,1,0,1:0:0:0:
265,140,109126,1,0,1:0:0:0:
326,192,109293,2,0,L|324:262,1,53.9999983520508,8|0,0:0|0:0,0:0:0:0:
399,160,109626,1,8,0:0:0:0:
399,160,109793,2,0,L|397:90,2,53.9999983520508,8|8|8,0:3|0:3|0:3,0:0:0:0:
324,245,110293,6,0,P|261:224|212:155,1,144,4|0,0:0|1:0,0:0:0:0:
190,90,110960,1,8,0:0:0:0:
317,37,111293,1,0,1:0:0:0:
317,37,111460,1,8,0:0:0:0:
370,92,111626,2,0,L|429:83,2,48,0|0|0,0:0|0:0|1:0,0:0:0:0:
331,158,112126,1,0,0:0:0:0:
331,158,112293,2,0,L|272:149,1,48,8|0,0:0|1:0,0:0:0:0:
380,224,112626,1,0,1:0:0:0:
380,224,112793,1,0,1:0:0:0:
316,282,112960,6,0,L|321:340,2,48,10|2|2,1:2|1:2|1:2,0:0:0:0:
248,236,113460,1,2,1:2:0:0:
165,365,113793,1,2,0:2:0:0:
165,365,113960,2,0,L|170:307,2,48,10|2|2,0:2|1:2|1:2,0:0:0:0:
112,258,114460,1,2,1:2:0:0:
241,175,114793,1,0,1:0:0:0:
241,175,114960,5,8,0:0:0:0:
110,94,115293,1,8,0:0:0:0:
77,314,116293,6,0,L|75:169,1,132.00000402832,4|8,0:0|0:0,0:0:0:0:
176,73,116959,2,0,P|215:80|254:77,2,66.0000020141602,0|0|8,1:0|1:0|0:0,0:0:0:0:
100,126,117459,2,0,P|86:189|102:258,1,132.00000402832,0|0,1:0|1:0,0:0:0:0:
148,332,117959,1,8,0:0:0:0:
298,248,118293,2,0,L|288:341,1,66.0000020141602,0|0,0:0|1:0,0:0:0:0:
217,198,118626,2,0,L|207:105,1,66.0000020141602,8|0,0:0|0:0,0:0:0:0:
268,59,118959,6,0,P|307:80|406:74,1,132.00000402832,0|8,1:0|0:0,0:0:0:0:
464,138,119459,1,0,0:0:0:0:
464,138,119626,2,0,L|459:208,2,66.0000020141602,0|0|8,1:0|1:0|0:0,0:0:0:0:
369,183,120126,2,0,L|378:321,1,132.00000402832,0|0,1:0|1:0,0:0:0:0:
306,372,120626,1,8,0:0:0:0:
196,276,120959,2,0,P|157:290|113:290,1,66.0000020141602,0|0,0:0|1:0,0:0:0:0:
77,186,121293,2,0,P|116:200|160:200,1,66.0000020141602,8|0,0:0|1:0,0:0:0:0:
206,110,121626,6,0,P|269:89|341:109,1,132.00000402832,0|8,1:0|0:0,0:0:0:0:
390,174,122126,1,0,0:0:0:0:
390,174,122293,2,0,L|473:192,2,66.0000020141602,0|0|8,1:0|1:0|0:0,0:0:0:0:
329,244,122793,2,0,P|260:257|193:233,1,132.00000402832,0|0,1:0|1:0,0:0:0:0:
138,171,123293,2,0,L|149:88,1,66.0000020141602,8|0,0:0|0:0,0:0:0:0:
43,167,123626,2,0,L|54:250,1,66.0000020141602,0|0,0:0|1:0,0:0:0:0:
127,286,123959,2,0,L|116:369,1,66.0000020141602,8|8,0:0|0:0,0:0:0:0:
51,232,124292,6,0,P|98:196|191:225,1,132.00000402832,4|8,0:0|0:0,0:0:0:0:
239,262,124792,2,0,P|286:298|379:269,1,132.00000402832,4|0,0:0|1:0,0:0:0:0:
429,234,125292,1,12,0:0:0:0:
340,116,125626,2,0,L|347:47,2,66.0000020141602,0|0|8,1:0|1:0|0:0,0:0:0:0:
429,234,126292,2,0,P|392:245|342:232,1,66.0000020141602,8|0,0:0|1:0,0:0:0:0:
251,311,126626,2,0,P|282:322|315:320,1,66.0000020141602,8|0,0:0|0:0,0:0:0:0:
365,242,126959,6,0,P|376:198|336:102,1,132.00000402832,4|8,0:0|0:0,0:0:0:0:
223,40,127626,2,0,L|141:46,1,66.0000020141602,0|0,1:0|1:0,0:0:0:0:
64,54,127959,1,8,0:0:0:0:
95,140,128126,2,0,P|108:181|81:286,1,132.00000402832,0|0,1:0|1:0,0:0:0:0:
34,338,128626,2,0,P|6:301|4:266,1,66.0000020141602,8|0,0:0|0:0,0:0:0:0:
93,267,128959,2,0,L|181:289,1,66.0000020141602,0|0,0:0|1:0,0:0:0:0:
279,337,129292,2,0,L|215:354,1,66.0000020141602,8|0,0:0|0:0,0:0:0:0:
195,198,129626,6,0,P|232:172|323:187,1,132.00000402832,0|8,1:0|0:0,0:0:0:0:
379,246,130126,1,0,0:0:0:0:
379,246,130292,2,0,L|372:318,2,66.0000020141602,0|0|8,1:0|1:0|0:0,0:0:0:0:
466,215,130792,2,0,L|453:83,1,132.00000402832,0|0,1:0|1:0,0:0:0:0:
374,34,131292,2,0,P|344:53|305:62,1,66.0000020141602,8|0,0:0|1:0,0:0:0:0:
246,124,131626,1,8,0:0:0:0:
246,124,131792,2,0,P|276:143|315:152,2,66.0000020141602,8|8|8,0:3|0:3|0:3,0:0:0:0:
178,49,132292,6,0,P|141:119|173:192,1,144,4|0,0:0|1:0,0:0:0:0:
215,230,132959,1,8,0:0:0:0:
294,141,133292,2,0,L|353:157,1,48,0|8,0:0|0:0,0:0:0:0:
412,178,133626,2,0,P|441:219|447:279,1,96,4|8,1:2|0:3,0:0:0:0:
387,309,134126,1,0,1:0:0:0:
387,309,134292,2,0,L|328:302,2,48,12|8|8,0:0|0:0|0:0,0:0:0:0:
445,359,134792,1,8,0:0:0:0:
483,263,134959,5,4,0:0:0:0:
146,68,140292,6,0,P|205:86|269:67,2,120,4|8|0,0:0|0:0|1:0,0:0:0:0:
73,24,141126,1,0,1:0:0:0:
73,24,141292,1,8,0:0:0:0:
33,98,141459,2,0,L|44:225,1,120,0|0,1:0|1:0,0:0:0:0:
54,300,141959,1,8,0:0:0:0:
241,357,142459,1,0,1:0:0:0:
241,357,142626,2,0,L|231:290,1,60,8|0,0:0|0:0,0:0:0:0:
313,186,142959,6,0,L|303:253,1,60,0|0,1:0|0:0,0:0:0:0:
232,297,143292,2,0,P|168:310|113:284,1,120,8|0,0:0|1:0,0:0:0:0:
58,231,143792,1,0,1:0:0:0:
91,153,143959,1,8,0:0:0:0:
47,81,144126,2,0,P|96:72|172:124,1,120,0|0,1:0|1:0,0:0:0:0:
254,214,144792,2,0,P|303:223|379:171,1,120,0|0,0:0|1:0,0:0:0:0:
421,131,145292,1,8,0:0:0:0:
468,218,145459,1,0,1:0:0:0:
468,218,145542,1,0,0:0:0:0:
468,218,145626,6,0,B|457:349|457:348,1,120,0|8,1:0|0:0,0:0:0:0:
369,337,146126,1,0,0:0:0:0:
369,337,146209,1,0,0:0:0:0:
369,337,146292,2,0,B|361:251|361:252,2,60,0|0|8,1:0|1:0|0:0,0:0:0:0:
295,217,146792,1,0,1:0:0:0:
295,217,146876,1,0,0:0:0:0:
295,217,146959,2,0,P|247:230|218:231,1,60,0|0,0:0|1:0,0:0:0:0:
183,296,147292,2,0,P|153:291|124:282,2,60,8|0|0,0:0|0:0|0:0,0:0:0:0:
240,357,147792,1,0,1:0:0:0:
305,303,147959,1,8,0:0:0:0:
305,303,148126,1,0,0:0:0:0:
236,230,148292,6,0,P|213:168|233:103,1,120,4|8,0:0|0:0,0:0:0:0:
288,62,148792,2,0,L|418:90,1,120,0|0,1:0|1:0,0:0:0:0:
458,172,149292,1,12,0:0:0:0:
418,314,149626,1,0,1:0:0:0:
418,314,149792,1,0,1:0:0:0:
347,248,149959,2,0,L|282:261,1,60,8|0,0:0|1:0,0:0:0:0:
220,327,150292,2,0,L|155:314,1,60,8|0,0:0|1:0,0:0:0:0:
96,243,150626,1,8,0:0:0:0:
96,243,150792,1,8,0:0:0:0:
154,153,150959,6,0,P|151:119|144:84,2,60,4|0|0,0:0|1:0|1:0,0:0:0:0:
96,243,151459,2,0,P|126:257|160:268,2,60,12|0|0,0:0|1:0|1:0,0:0:0:0:
47,147,151959,5,12,0:0:0:0:
256,192,152042,12,2,153626,0:0:0:0:
305,115,172292,6,0,P|331:167|319:235,1,120,4|8,0:0|0:0,0:0:0:0:
265,287,172792,1,0,0:0:0:0:
205,227,172959,2,0,L|126:233,2,60,8|8|8,0:0|0:0|0:0,0:0:0:0:
319,351,173459,1,12,0:0:0:0:
319,351,173792,1,0,1:0:0:0:
265,287,173959,1,0,1:0:0:0:
344,115,174959,5,0,0:0:0:0:
344,115,175292,6,0,L|351:233,1,116.999994644165,4|0,0:0|0:0,0:0:0:0:
354,266,175626,2,0,P|312:282|265:267,1,77.9999964294435,0|0,1:0|0:0,0:0:0:0:
260,264,175876,1,8,0:0:0:0:
241,249,175959,1,8,0:0:0:0:
159,177,176126,6,0,P|107:185|50:274,1,155.999992858887,4|8,0:0|0:0,0:0:0:0:
102,361,176626,1,0,1:0:0:0:
102,361,176792,1,0,1:0:0:0:
171,276,176959,2,0,L|162:196,1,77.9999964294435,8|0,0:3|1:0,0:0:0:0:
66,150,177292,2,0,L|57:230,1,77.9999964294435,8|8,0:0|0:0,0:0:0:0:
50,265,177542,1,8,0:0:0:0:
50,265,177626,6,0,P|126:299|185:275,1,132.00000402832,4|8,0:0|0:0,0:0:0:0:
312,186,178292,2,0,L|399:201,2,66.0000020141602,0|8|8,1:0|0:0|0:0,0:0:0:0:
273,102,178792,2,0,P|235:138|233:239,1,132.00000402832,12|0,0:0|1:0,0:0:0:0:
256,300,179292,2,0,P|202:306|142:258,1,132.00000402832,8|0,0:0|0:0,0:0:0:0:
98,179,179792,1,0,1:0:0:0:
134,94,179959,1,8,0:0:0:0:
134,94,180126,1,8,0:0:0:0:
31,125,180292,6,0,L|50:269,1,132.00000402832,4|8,0:0|0:0,0:0:0:0:
113,322,180792,1,0,0:0:0:0:
163,244,180959,2,0,L|247:258,2,66.0000020141602,0|0|8,1:0|1:0|0:0,0:0:0:0:
144,153,181459,2,0,P|137:87|155:19,1,132.00000402832,0|0,1:0|1:0,0:0:0:0:
296,89,181959,2,0,P|265:77|236:63,1,66.0000020141602,8|0,0:0|0:0,0:0:0:0:
386,61,182292,2,0,P|411:40|439:22,1,66.0000020141602,0|0,0:0|1:0,0:0:0:0:
366,153,182626,2,0,P|370:185|372:218,1,66.0000020141602,8|8,0:0|0:0,0:0:0:0:
294,308,182959,6,0,P|211:317|148:290,1,132.00000402832,4|8,0:0|0:0,0:0:0:0:
106,231,183459,2,0,B|118:162|118:162|106:94,1,132.00000402832,4|0,0:0|1:0,0:0:0:0:
94,9,183959,1,12,0:0:0:0:
270,63,184292,2,0,L|197:79,2,66.0000020141602,0|0|8,1:0|1:0|0:0,0:0:0:0:
413,138,184959,2,0,P|421:100|415:54,1,66.0000020141602,8|0,0:0|1:0,0:0:0:0:
337,196,185292,2,0,P|365:221|408:239,1,66.0000020141602,8|0,0:0|0:0,0:0:0:0:
324,101,185626,6,0,P|277:121|249:204,1,132.00000402832,4|8,0:0|0:0,0:0:0:0:
205,276,186126,1,0,0:0:0:0:
130,221,186292,2,0,L|54:229,2,66.0000020141602,0|0|8,1:0|1:0|0:0,0:0:0:0:
205,276,186792,2,0,L|367:293,1,132.00000402832,0|0,1:0|1:0,0:0:0:0:
428,295,187292,1,8,0:0:0:0:
463,129,187626,2,0,L|446:218,1,66.0000020141602,0|0,0:0|1:0,0:0:0:0:
362,137,187959,2,0,L|345:48,1,66.0000020141602,8|0,0:0|0:0,0:0:0:0:
266,19,188292,6,0,P|214:55|143:43,1,132.00000402832,0|8,1:0|0:0,0:0:0:0:
34,165,188959,2,0,P|39:202|52:235,1,66.0000020141602,0|0,1:0|1:0,0:0:0:0:
116,293,189292,1,8,0:0:0:0:
187,234,189459,2,0,P|252:212|337:225,1,132.00000402832,0|0,1:0|1:0,0:0:0:0:
383,277,189959,2,0,L|455:265,1,66.0000020141602,8|0,0:0|1:0,0:0:0:0:
338,362,190292,1,8,0:0:0:0:
338,362,190459,2,0,L|266:350,2,66.0000020141602,8|8|8,0:3|0:3|0:3,0:0:0:0:
448,266,190959,6,0,P|468:200|440:130,1,144,4|0,0:0|1:0,0:0:0:0:
386,79,191626,1,8,0:0:0:0:
275,182,191959,2,0,L|210:175,1,48,0|8,0:0|0:0,0:0:0:0:
187,109,192292,1,0,1:0:0:0:
187,109,192459,2,0,L|122:116,1,48,8|0,0:0|0:0,0:0:0:0:
62,122,192792,1,0,1:0:0:0:
62,122,192959,1,8,0:0:0:0:
113,299,193459,1,0,1:0:0:0:
113,299,193626,6,0,L|246:285,1,120,12|8,0:0|0:0,0:0:0:0:
280,217,194126,1,8,0:0:0:0:
355,253,194292,2,0,P|394:269|435:279,2,60,8|0|8,0:3|1:0|0:0,0:0:0:0:
426,169,194792,1,4,0:0:0:0:
426,169,195126,2,0,L|423:98,1,60,8|0,0:3|0:0,0:0:0:0:
372,41,195459,1,0,1:0:0:0:
305,92,195626,2,0,L|259:85,3,30,8|8|8|8,0:0|0:0|0:0|0:0,0:0:0:0:
252,51,195959,2,0,L|206:58,3,30,8|8|8|8,0:0|0:0|0:0|0:0,0:0:0:0:
189,81,196292,6,0,B|181:137|181:137|199:200,1,120,4|8,0:0|0:0,0:0:0:0:
271,329,196959,2,0,L|344:317,2,60,0|0|8,1:0|1:0|0:0,0:0:0:0:
194,363,197459,2,0,P|187:313|250:246,1,120,4|0,0:0|1:0,0:0:0:0:
291,207,197959,1,8,0:0:0:0:
153,156,198292,1,0,0:0:0:0:
153,156,198459,2,0,L|80:168,2,60,0|8|0,1:0|0:0|0:0,0:0:0:0:
174,71,198959,6,0,P|216:92|240:161,2,120,4|8|0,0:0|0:0|1:0,0:0:0:0:
99,30,199792,1,0,1:0:0:0:
44,94,199959,1,8,0:0:0:0:
98,170,200126,1,4,0:0:0:0:
98,170,200209,1,0,0:0:0:0:
98,170,200292,2,0,L|93:235,2,60,0|0|8,0:0|1:0|0:0,0:0:0:0:
194,230,200792,2,0,L|183:94,1,120,0|0,0:0|1:0,0:0:0:0:
178,26,201292,1,8,0:0:0:0:
178,26,201459,1,8,0:0:0:0:
274,68,201626,6,0,P|325:84|397:52,1,120,4|8,0:0|0:0,0:0:0:0:
485,154,202292,2,0,L|480:89,2,60,0|0|8,1:0|1:0|0:0,0:0:0:0:
420,208,202792,2,0,B|431:275|431:275|422:333,1,120,4|0,0:0|1:0,0:0:0:0:
352,372,203292,1,8,0:0:0:0:
293,311,203459,1,0,0:0:0:0:
293,311,203626,2,0,L|216:318,1,60,0|0,0:0|1:0,0:0:0:0:
177,252,203959,1,8,0:0:0:0:
177,252,204292,6,0,P|161:189|174:123,1,120,4|8,0:0|0:0,0:0:0:0:
226,73,204792,2,0,L|269:81,2,30,8|8|8,0:0|0:0|0:0,0:0:0:0:
167,12,205126,1,8,0:0:0:0:
167,12,205292,1,8,0:0:0:0:
92,83,205459,1,4,0:0:0:0:
92,83,205792,5,0,1:0:0:0:
61,167,205959,2,0,L|70:238,1,60,8|0,0:0|1:0,0:0:0:0:
155,297,206292,1,10,0:0:0:0:
85,353,206459,1,10,0:0:0:0:
225,241,206792,5,4,0:0:0:0:
256,192,206876,12,0,209626,0:0:0:0:
