osu file format v14

[General]
AudioFilename: audio.mp3
AudioLeadIn: 0
PreviewTime: 50971
Countdown: 0
SampleSet: Soft
StackLeniency: 0.4
Mode: 0
LetterboxInBreaks: 0
WidescreenStoryboard: 0

[Editor]
Bookmarks: 2971,8304,18971,29637,40304,45637,50971,51637,59637,62304,67637,72971,83637,104971,110304,115637,124304,126971,132304,134971,140304,153637,161637,164304,169637,174304,182971,185637,190971,196304,206804
DistanceSpacing: 1.4
BeatDivisor: 4
GridSize: 32
TimelineZoom: 1

[Metadata]
Title:Glitter
TitleUnicode:Glitter
Artist:Aki Misato
ArtistUnicode:美郷あき
Creator:timemon
Version:Expert
Source:月に寄りそう乙女の作法2
Tags:Tsuki ni Yorisou Otome no Sahou 2 Navel OP Eroge Visual Novels COMPLETE SOUNDTRACK Kazuya Yoshida Masaki Suzuki Acchorike Aoi Nishimata theme
BeatmapID:1508485
BeatmapSetID:713715

[Difficulty]
HPDrainRate:6
CircleSize:4
OverallDifficulty:8.5
ApproachRate:9
SliderMultiplier:1.6
SliderTickRate:1

[Events]
//Background and Video events
0,0,"bg.jpg",0,0
//Break Periods
2,153826,169026
//Storyboard Layer 0 (Background)
//Storyboard Layer 1 (Fail)
//Storyboard Layer 2 (Pass)
//Storyboard Layer 3 (Foreground)
//Storyboard Sound Samples

[TimingPoints]
1628,333.333333333333,4,2,1,60,1,0
2961,-100,4,2,1,60,0,0
8294,-100,4,2,1,60,0,0
17794,-125,4,2,1,50,0,0
18961,-142.857142857143,4,2,1,40,0,0
28127,-285.714285714286,4,2,1,50,0,0
29127,-125,4,2,1,50,0,0
29627,-111.111111111111,4,2,1,60,0,0
45627,-125,4,2,1,60,0,0
50961,-250,4,2,1,50,0,0
51544,-250,4,2,1,5,0,0
51627,333.333333333333,4,2,1,70,1,1
51627,-90.9090909090909,4,2,1,70,0,1
59626,-76.9230769230769,4,2,1,70,0,0
62293,-90.9090909090909,4,2,1,70,0,1
67626,-125,4,2,1,60,0,0
72960,-100,4,2,1,60,0,0
82460,-125,4,2,1,50,0,0
83626,-250,4,2,1,50,0,0
85460,-125,4,2,1,50,0,0
86293,-100,4,2,1,60,0,0
88960,-111.111111111111,4,2,1,60,0,0
110293,-125,4,2,1,60,0,0
115626,-250,4,2,1,50,0,0
116211,-250,4,2,1,5,0,0
116293,333.333333333333,4,2,1,70,1,1
116293,-90.9090909090909,4,2,1,70,0,1
124292,-76.9230769230769,4,2,1,70,0,0
126959,-90.9090909090909,4,2,1,70,0,1
132292,-125,4,2,1,60,0,0
134959,-100,4,2,1,60,0,0
148292,-83.3333333333333,4,2,1,60,0,0
164292,-200,4,2,1,50,0,0
169626,-200,4,2,1,40,0,0
170292,-200,4,2,1,45,0,0
170959,-200,4,2,1,50,0,0
171626,-200,4,2,1,55,0,0
172292,-100,4,2,1,60,0,0
174292,-250,4,2,1,50,0,0
175292,-50,4,2,1,70,0,0
175542,-50,4,2,1,5,0,0
175626,-50,4,2,1,70,0,0
176126,-66.6666666666667,4,2,1,70,0,0
176376,-66.6666666666667,4,2,1,5,0,0
176459,-66.6666666666667,4,2,1,70,0,0
177626,-90.9090909090909,4,2,1,70,0,1
182959,-76.9230769230769,4,2,1,70,0,0
185626,-90.9090909090909,4,2,1,70,0,1
190959,-125,4,2,1,60,0,0
196292,-100,4,2,1,60,0,0
209626,-100,4,2,1,5,0,0

[Colours]
Combo1 : 159,255,255
Combo2 : 255,226,159
Combo3 : 255,170,170
Combo4 : 207,207,207

[HitObjects]
257,209,2961,6,0,L|244:299,2,80,4|0|0,0:0|0:0|0:0,0:0:0:0:
275,92,3461,1,0,0:0:0:0:
159,159,3627,1,8,0:0:0:0:
159,159,3794,2,0,L|146:69,1,80,8|0,0:3|0:0,0:0:0:0:
55,191,4127,1,4,0:0:0:0:
55,191,4461,5,8,0:3:0:0:
136,265,4627,2,0,P|101:295|48:310,1,80,0|0,0:0|1:0,0:0:0:0:
159,159,4961,2,0,P|202:173|240:211,1,80,8|8,0:0|0:3,0:0:0:0:
55,191,5294,2,0,P|45:144|59:92,1,80,8|8,0:0|0:0,0:0:0:0:
174,20,5627,5,4,0:0:0:0:
166,166,5794,1,0,1:0:0:0:
166,166,5877,1,0,1:0:0:0:
166,166,5961,1,0,1:0:0:0:
274,114,6127,1,8,0:0:0:0:
157,51,6294,1,8,0:0:0:0:
343,25,6461,1,8,0:0:0:0:
282,146,6627,1,8,0:0:0:0:
174,20,6794,1,12,0:0:0:0:
174,20,7127,5,0,1:0:0:0:
282,146,7294,1,8,0:0:0:0:
282,146,7627,5,0,1:0:0:0:
99,180,7794,1,8,0:0:0:0:
93,205,7877,1,8,0:0:0:0:
90,232,7961,1,8,0:0:0:0:
91,259,8044,1,8,0:0:0:0:
95,285,8127,1,8,0:0:0:0:
102,311,8211,1,8,0:0:0:0:
113,335,8294,6,0,L|280:326,1,160,4|8,0:0|0:0,0:0:0:0:
355,247,8794,1,0,0:0:0:0:
209,181,8961,1,0,1:0:0:0:
327,117,9127,1,0,1:0:0:0:
260,292,9294,1,8,0:0:0:0:
100,183,9461,6,0,P|113:124|225:82,1,160,4|0,0:0|1:0,0:0:0:0:
285,170,9961,2,0,P|242:185|193:173,1,80,8|0,0:0|0:0,0:0:0:0:
194,77,10294,1,0,0:0:0:0:
100,183,10461,1,0,1:0:0:0:
221,297,10627,2,0,P|181:303|129:306,1,80,8|0,0:0|0:0,0:0:0:0:
295,371,10961,6,0,P|320:301|287:216,1,160,4|8,0:0|0:0,0:0:0:0:
196,142,11461,1,0,0:0:0:0:
221,297,11627,1,0,1:0:0:0:
310,204,11794,1,0,1:0:0:0:
161,225,11961,1,8,0:0:0:0:
262,78,12127,5,4,0:0:0:0:
262,78,12211,1,0,0:0:0:0:
262,78,12294,1,0,0:0:0:0:
310,204,12461,1,0,1:0:0:0:
161,225,12627,1,8,0:0:0:0:
356,298,12794,1,0,0:0:0:0:
356,298,13127,5,0,1:0:0:0:
242,160,13294,1,8,0:0:0:0:
403,119,13461,1,8,0:0:0:0:
242,160,13627,6,0,P|206:145|168:115,1,80,4|0,0:0|0:0,0:0:0:0:
325,231,13961,2,0,P|293:255|256:270,1,80,8|0,0:0|0:0,0:0:0:0:
344,133,14294,1,0,1:0:0:0:
242,160,14461,1,0,1:0:0:0:
325,231,14627,1,8,0:0:0:0:
474,162,14794,6,0,P|485:240|462:324,1,160,4|0,0:0|1:0,0:0:0:0:
361,262,15294,1,8,0:0:0:0:
317,360,15461,2,0,P|285:333|256:293,1,80,0|0,0:0|0:0,0:0:0:0:
201,222,15794,1,0,1:0:0:0:
383,185,15961,2,0,P|375:226|355:271,1,80,8|0,0:0|0:0,0:0:0:0:
201,222,16294,6,0,P|170:148|157:69,1,160,4|8,0:0|0:0,0:0:0:0:
311,135,16794,1,8,0:0:0:0:
311,135,16877,1,8,0:0:0:0:
311,135,16961,1,8,0:0:0:0:
239,351,17127,1,8,0:0:0:0:
201,222,17294,1,8,0:0:0:0:
369,361,17461,1,4,0:0:0:0:
369,361,17794,6,0,L|377:291,1,64,8|0,0:3|0:0,0:0:0:0:
297,254,18127,2,0,L|289:184,1,64,8|0,0:3|0:0,0:0:0:0:
350,124,18461,1,8,0:3:0:0:
350,124,18627,1,8,0:3:0:0:
179,26,18961,6,0,L|165:141,1,111.999996582031,2|0,0:0|0:0,0:0:0:0:
100,180,19461,1,0,0:0:0:0:
153,242,19627,2,0,L|161:309,2,55.9999982910157,8|0|0,0:0|0:0|0:0,0:0:0:0:
222,203,20127,2,0,P|277:192|328:217,1,111.999996582031,0|0,0:0|0:0,0:0:0:0:
466,285,20794,2,0,P|428:242|425:186,1,111.999996582031,0|0,0:0|0:0,0:0:0:0:
462,120,21294,1,0,0:0:0:0:
462,120,21461,1,0,0:0:0:0:
391,49,21627,6,0,L|267:58,1,111.999996582031,2|0,0:0|0:0,0:0:0:0:
209,119,22127,2,0,P|192:68|205:-1,2,111.999996582031,0|0|0,0:0|0:0|0:0,0:0:0:0:
274,251,23127,2,0,L|269:326,2,55.9999982910157,0|0|0,0:0|0:0|0:0,0:0:0:0:
212,174,23627,2,0,L|207:99,2,55.9999982910157,8|0|8,0:0|0:0|0:0,0:0:0:0:
193,256,24127,1,8,0:0:0:0:
342,211,24294,6,0,P|402:238|419:299,1,111.999996582031,2|0,0:0|0:0,0:0:0:0:
343,290,24794,1,0,0:0:0:0:
337,365,24961,2,0,L|221:351,1,111.999996582031,8|0,0:0|0:0,0:0:0:0:
192,280,25461,2,0,L|80:293,1,111.999996582031,0|0,0:0|0:0,0:0:0:0:
0,176,26127,2,0,L|111:162,1,111.999996582031,0|0,0:0|0:0,0:0:0:0:
156,98,26627,1,0,0:0:0:0:
156,98,26794,1,0,0:0:0:0:
227,161,26961,6,0,P|247:210|231:280,1,111.999996582031,2|0,0:0|0:0,0:0:0:0:
173,311,27461,2,0,P|139:306|105:275,1,55.9999982910157,0|8,0:0|0:0,0:0:0:0:
238,267,27794,2,0,P|225:235|235:190,1,55.9999982910157,0|0,0:0|0:0,0:0:0:0:
308,301,28127,6,0,P|344:253|421:231,1,139.999995727539,2|0,0:0|0:0,0:0:0:0:
410,358,29127,5,0,1:0:0:0:
428,200,29294,1,8,0:0:0:0:
401,328,29461,1,0,1:0:0:0:
290,200,29627,6,0,P|271:129|289:40,1,143.999995605469,4|8,0:0|0:0,0:0:0:0:
371,26,30127,1,0,1:0:0:0:
371,26,30294,2,0,L|456:34,1,71.9999978027344,0|0,0:0|0:0,0:0:0:0:
280,60,30627,1,8,0:0:0:0:
359,143,30794,6,0,L|351:288,1,143.999995605469,0|0,1:0|1:0,0:0:0:0:
274,347,31294,1,8,0:0:0:0:
207,271,31461,2,0,P|150:298|63:271,1,143.999995605469,0|0,0:0|1:0,0:0:0:0:
87,156,31961,2,0,P|121:179|134:238,1,71.9999978027344,8|0,0:0|0:0,0:0:0:0:
304,290,32294,6,0,P|286:222|230:180,1,143.999995605469,0|8,1:0|0:0,0:0:0:0:
134,206,32794,2,0,P|142:167|150:128,1,71.9999978027344,0|0,1:0|0:0,0:0:0:0:
287,103,33127,2,0,P|279:64|271:25,1,71.9999978027344,0|8,0:0|0:0,0:0:0:0:
339,186,33461,2,0,P|294:201|252:193,1,71.9999978027344,0|0,1:0|0:0,0:0:0:0:
179,157,33794,5,0,1:0:0:0:
169,57,33961,1,8,0:0:0:0:
189,257,34127,1,0,0:0:0:0:
270,198,34294,1,0,0:0:0:0:
108,316,34461,1,0,1:0:0:0:
199,357,34627,1,8,0:0:0:0:
97,216,34794,1,0,0:0:0:0:
280,297,34961,6,0,L|426:284,1,143.999995605469,0|8,1:0|0:0,0:0:0:0:
475,204,35461,1,0,1:0:0:0:
407,135,35627,2,0,P|385:64|414:1,1,143.999995605469,0|8,0:0|0:0,0:0:0:0:
295,51,36127,6,0,L|149:38,1,143.999995605469,0|0,1:0|1:0,0:0:0:0:
63,26,36627,1,8,0:0:0:0:
92,114,36794,2,0,B|105:179|105:179|96:259,1,143.999995605469,0|0,0:0|1:0,0:0:0:0:
83,351,37294,1,8,0:0:0:0:
5,290,37461,1,0,0:0:0:0:
187,240,37627,6,0,P|260:223|344:237,1,143.999995605469,0|8,1:0|0:0,0:0:0:0:
398,310,38127,2,0,P|364:328|317:332,1,71.9999978027344,0|0,1:0|0:0,0:0:0:0:
342,163,38461,2,0,P|329:197|328:232,1,71.9999978027344,0|8,0:0|0:0,0:0:0:0:
482,256,38794,2,0,P|459:228|429:210,1,71.9999978027344,4|0,1:2|0:0,0:0:0:0:
247,131,39127,5,0,1:0:0:0:
410,92,39294,1,8,0:0:0:0:
165,193,39461,5,0,1:0:0:0:
328,232,39627,1,8,0:0:0:0:
178,291,39794,5,8,0:3:0:0:
303,213,39961,1,8,0:3:0:0:
258,367,40127,1,8,0:3:0:0:
247,131,40294,6,0,L|255:288,1,143.999995605469,4|8,0:0|0:0,0:0:0:0:
258,367,40794,2,0,P|178:377|122:340,1,143.999995605469,0|0,1:0|1:0,0:0:0:0:
60,232,41294,1,12,0:0:0:0:
60,232,41627,5,0,1:0:0:0:
152,185,41794,1,0,1:0:0:0:
16,136,41961,2,0,L|20:64,1,71.9999978027344,8|0,0:0|0:0,0:0:0:0:
116,91,42294,1,0,1:0:0:0:
152,185,42461,1,0,0:0:0:0:
60,232,42627,2,0,L|64:304,1,71.9999978027344,8|0,0:0|0:0,0:0:0:0:
280,329,42961,6,0,P|222:366|131:357,1,143.999995605469,4|8,0:0|0:0,0:0:0:0:
60,232,43461,2,0,P|118:269|209:260,1,143.999995605469,0|0,1:0|1:0,0:0:0:0:
275,168,43961,1,12,0:0:0:0:
275,168,44294,5,0,1:0:0:0:
251,71,44461,1,0,1:0:0:0:
376,161,44627,2,0,L|369:252,1,71.9999978027344,8|0,0:0|0:0,0:0:0:0:
251,71,44961,2,0,L|244:-20,1,71.9999978027344,8|8,0:0|0:3,0:0:0:0:
342,72,45294,1,8,0:3:0:0:
275,168,45461,1,8,0:3:0:0:
156,103,45627,6,0,P|138:159|159:239,1,128,4|0,0:0|0:0,0:0:0:0:
223,278,46127,1,0,1:0:0:0:
223,278,46294,2,0,P|279:296|359:275,1,128,8|0,0:0|1:0,0:0:0:0:
397,209,46794,1,8,0:0:0:0:
447,283,46961,2,0,P|442:322|439:363,2,64,0|0|0,0:0|0:0|1:0,0:0:0:0:
397,209,47461,1,0,0:0:0:0:
397,209,47627,2,0,P|392:170|389:129,1,64,8|0,0:0|1:0,0:0:0:0:
345,282,47961,2,0,P|313:296|268:298,1,64,0|0,1:0|1:0,0:0:0:0:
132,188,48294,5,10,1:2:0:0:
286,132,48461,1,2,1:2:0:0:
100,98,48627,1,2,1:2:0:0:
164,278,48794,1,2,1:2:0:0:
164,278,49127,5,2,0:2:0:0:
195,111,49294,1,10,0:2:0:0:
235,340,49461,1,2,1:2:0:0:
132,188,49627,1,2,1:2:0:0:
317,290,49794,1,2,1:2:0:0:
317,290,50127,5,0,1:0:0:0:
100,98,50294,5,8,0:0:0:0:
100,98,50627,1,8,0:0:0:0:
100,98,50961,6,0,P|142:116|213:103,1,112,2|0,0:0|0:0,0:0:0:0:
281,35,51627,6,0,P|307:74|307:131,1,88.000002685547,4|0,0:0|0:0,0:0:0:0:
270,217,51960,1,8,0:0:0:0:
206,106,52127,1,0,0:0:0:0:
372,212,52293,2,0,P|366:258|330:302,1,88.000002685547,0|0,1:0|1:0,0:0:0:0:
251,343,52627,1,8,0:0:0:0:
105,195,52793,6,0,P|190:231|285:208,1,176.000005371094,0|0,1:0|1:0,0:0:0:0:
308,94,53293,1,8,0:0:0:0:
400,182,53460,1,0,0:0:0:0:
278,303,53627,2,0,L|267:196,1,88.000002685547,0|0,0:0|1:0,0:0:0:0:
408,94,53960,2,0,L|397:201,1,88.000002685547,8|0,0:0|0:0,0:0:0:0:
278,303,54293,6,0,P|185:318|119:264,1,176.000005371094,0|8,1:0|0:0,0:0:0:0:
217,211,54793,1,0,0:0:0:0:
53,188,54960,2,0,P|27:223|17:283,1,88.000002685547,0|0,1:0|1:0,0:0:0:0:
160,349,55293,1,8,0:0:0:0:
160,349,55460,2,0,P|149:306|123:271,1,88.000002685547,0|0,1:0|0:0,0:0:0:0:
53,188,55793,5,0,1:0:0:0:
166,121,55960,1,8,0:0:0:0:
12,61,56126,1,0,0:0:0:0:
253,110,56293,2,0,L|149:123,1,88.000002685547,0|0,0:0|1:0,0:0:0:0:
2,237,56626,2,0,L|106:250,1,88.000002685547,8|0,0:0|1:0,0:0:0:0:
229,370,56960,6,0,P|246:275|225:191,1,176.000005371094,0|8,1:0|0:0,0:0:0:0:
158,101,57460,1,0,0:0:0:0:
354,75,57626,2,0,P|311:95|257:101,1,88.000002685547,0|0,1:0|1:0,0:0:0:0:
283,2,57960,1,8,0:0:0:0:
158,101,58126,6,0,P|186:177|286:210,1,176.000005371094,0|0,1:0|1:0,0:0:0:0:
354,75,58626,2,0,P|311:95|257:101,1,88.000002685547,8|0,0:0|0:0,0:0:0:0:
93,42,58960,2,0,P|131:69|164:113,1,88.000002685547,0|0,0:0|1:0,0:0:0:0:
200,263,59293,1,8,0:0:0:0:
271,101,59460,1,8,0:0:0:0:
384,223,59626,6,0,P|296:280|178:247,1,207.999990478516,4|8,0:0|0:0,0:0:0:0:
43,20,60126,2,0,P|136:67|166:186,1,207.999990478516,4|0,0:0|1:0,0:0:0:0:
73,311,60626,1,12,0:0:0:0:
73,311,60960,5,0,1:0:0:0:
233,276,61126,1,0,1:0:0:0:
6,188,61293,1,8,0:0:0:0:
146,251,61460,1,0,0:0:0:0:
64,59,61626,5,8,0:0:0:0:
73,311,61793,1,0,1:0:0:0:
163,106,61960,5,8,0:0:0:0:
6,188,62126,1,0,0:0:0:0:
234,318,62293,6,0,P|253:273|248:215,1,88.000002685547,4|0,0:0|0:0,0:0:0:0:
146,251,62626,1,8,0:0:0:0:
163,106,62793,1,0,0:0:0:0:
30,162,62960,2,0,L|38:259,1,88.000002685547,0|0,1:0|1:0,0:0:0:0:
48,354,63293,1,8,0:0:0:0:
146,251,63460,6,0,P|230:266|306:224,1,176.000005371094,0|0,1:0|1:0,0:0:0:0:
211,141,63960,1,8,0:0:0:0:
387,102,64126,1,0,0:0:0:0:
304,312,64293,2,0,L|306:216,1,88.000002685547,0|0,0:0|1:0,0:0:0:0:
418,91,64626,2,0,L|420:187,1,88.000002685547,8|0,0:0|0:0,0:0:0:0:
304,312,64960,6,0,B|206:333|206:333|124:310,1,176.000005371094,0|8,1:0|0:0,0:0:0:0:
57,226,65460,1,0,0:0:0:0:
111,127,65626,2,0,P|116:78|112:37,1,88.000002685547,0|0,1:0|1:0,0:0:0:0:
6,83,65960,1,8,0:0:0:0:
57,226,66126,6,0,P|121:243|212:179,1,176.000005371094,0|0,1:0|1:0,0:0:0:0:
281,36,66626,1,8,0:0:0:0:
408,166,66793,1,0,1:0:0:0:
207,104,66960,1,8,0:0:0:0:
378,68,67126,1,8,0:3:0:0:
337,237,67293,1,8,0:3:0:0:
281,36,67460,1,8,0:3:0:0:
184,201,67626,6,0,P|166:257|183:326,1,128,4|0,0:0|0:0,0:0:0:0:
264,355,68126,1,0,1:0:0:0:
264,355,68293,2,0,L|399:352,1,128,8|0,0:0|0:0,0:0:0:0:
397,264,68793,2,0,P|402:228|404:195,1,64,8|0,0:0|0:0,0:0:0:0:
338,138,69126,2,0,P|335:106|331:74,1,64,8|0,0:0|0:0,0:0:0:0:
251,31,69460,1,0,1:0:0:0:
251,31,69626,6,0,P|192:59|122:55,1,128,12|0,0:0|0:0,0:0:0:0:
62,129,70126,1,0,1:0:0:0:
62,129,70293,2,0,L|65:205,1,64,12|0,0:0|0:0,0:0:0:0:
72,298,70626,1,8,0:0:0:0:
208,268,70793,1,8,0:0:0:0:
36,306,70960,1,8,0:3:0:0:
175,361,71126,1,0,1:0:0:0:
147,186,71293,1,8,0:0:0:0:
308,303,71460,1,4,0:0:0:0:
308,303,71793,6,0,L|301:234,1,64,8|0,0:3|0:0,0:0:0:0:
208,268,72126,1,0,1:0:0:0:
351,152,72293,1,8,0:0:0:0:
363,126,72376,1,8,0:0:0:0:
366,99,72460,1,8,0:0:0:0:
361,71,72543,1,8,0:0:0:0:
348,47,72626,1,8,0:0:0:0:
327,28,72710,1,8,0:0:0:0:
302,16,72793,1,8,0:0:0:0:
274,13,72876,1,8,0:0:0:0:
247,19,72960,6,0,P|189:42|92:23,1,160,4|8,0:0|0:0,0:0:0:0:
35,120,73460,1,0,0:0:0:0:
170,185,73626,1,0,1:0:0:0:
40,88,73793,1,0,1:0:0:0:
28,242,73960,1,8,0:0:0:0:
195,169,74126,6,0,P|233:152|353:194,1,160,4|0,0:0|1:0,0:0:0:0:
254,325,74626,2,0,P|258:278|264:236,1,80,8|0,0:0|0:0,0:0:0:0:
357,321,74960,1,0,0:0:0:0:
342,181,75126,1,0,1:0:0:0:
438,122,75293,2,0,P|443:161|446:201,1,80,8|0,0:0|0:0,0:0:0:0:
357,321,75626,6,0,P|289:334|209:279,1,160,4|8,0:0|0:0,0:0:0:0:
140,150,76126,1,0,0:0:0:0:
293,104,76293,1,0,1:0:0:0:
95,52,76460,1,0,1:0:0:0:
238,187,76626,1,8,0:0:0:0:
190,14,76793,5,4,0:0:0:0:
190,14,76876,1,0,0:0:0:0:
190,14,76960,1,0,0:0:0:0:
140,150,77126,1,0,1:0:0:0:
293,104,77293,1,8,0:0:0:0:
203,283,77460,2,0,L|210:201,1,80,0|0,0:0|0:0,0:0:0:0:
286,24,77793,1,0,1:0:0:0:
286,24,77960,2,0,L|293:106,1,80,8|8,0:0|0:0,0:0:0:0:
403,319,78293,6,0,P|391:233|410:154,1,160,4|8,0:0|0:0,0:0:0:0:
465,75,78793,1,0,0:0:0:0:
263,111,78960,1,0,1:0:0:0:
406,162,79126,1,0,1:0:0:0:
365,32,79293,1,8,0:0:0:0:
302,201,79460,6,0,L|316:364,1,160,4|0,0:0|1:0,0:0:0:0:
185,283,79960,2,0,L|191:203,1,80,8|0,0:0|0:0,0:0:0:0:
295,121,80293,2,0,L|301:200,1,80,0|0,0:0|1:0,0:0:0:0:
209,62,80626,2,0,P|236:31|285:15,1,80,8|0,0:0|0:0,0:0:0:0:
301,200,80960,6,0,P|240:226|133:200,1,160,4|8,0:0|0:0,0:0:0:0:
63,110,81460,1,8,0:0:0:0:
66,121,81543,1,8,0:0:0:0:
68,132,81626,1,8,0:0:0:0:
209,62,81793,1,8,0:0:0:0:
149,210,81960,1,8,0:0:0:0:
37,20,82126,1,4,0:0:0:0:
37,20,82460,6,0,L|42:87,1,64,8|0,0:3|0:0,0:0:0:0:
109,133,82793,2,0,L|104:200,1,64,8|0,0:3|0:0,0:0:0:0:
55,268,83126,1,8,0:3:0:0:
58,286,83293,1,8,0:3:0:0:
61,304,83460,1,0,0:0:0:0:
134,352,83626,5,4,0:0:0:0:
187,290,84626,5,8,0:0:0:0:
187,290,84793,1,8,0:0:0:0:
280,210,85460,6,0,L|282:145,2,64,8|8|0,0:3|0:0|0:0,0:0:0:0:
211,280,85960,1,0,1:0:0:0:
215,298,86126,1,0,1:0:0:0:
71,195,86293,6,0,P|111:208|158:214,1,80,4|0,0:0|1:0,0:0:0:0:
137,107,86626,1,0,1:0:0:0:
292,279,86793,2,0,P|252:292|205:298,1,80,8|0,0:0|1:0,0:0:0:0:
148,213,87126,1,0,1:0:0:0:
253,142,87293,1,0,1:0:0:0:
214,297,87460,1,4,0:0:0:0:
214,297,87793,5,0,1:0:0:0:
253,142,87960,1,8,0:0:0:0:
106,169,88126,1,0,1:0:0:0:
106,169,88210,1,0,1:0:0:0:
106,169,88293,6,0,L|102:122,3,40,0|0|8|8,1:0|0:0|0:0|0:0,0:0:0:0:
52,59,88626,1,8,0:0:0:0:
74,39,88710,1,8,0:0:0:0:
102,28,88793,1,8,0:0:0:0:
132,26,88876,1,8,0:0:0:0:
161,33,88960,6,0,P|214:75|294:87,1,143.999995605469,4|8,0:0|0:0,0:0:0:0:
366,24,89460,1,0,1:0:0:0:
366,24,89626,2,0,P|390:71|346:170,1,143.999995605469,0|8,1:0|0:0,0:0:0:0:
296,228,90126,6,0,L|149:208,1,143.999995605469,0|0,1:0|1:0,0:0:0:0:
53,194,90626,1,8,0:0:0:0:
12,320,90793,2,0,L|159:300,1,143.999995605469,0|0,1:0|0:0,0:0:0:0:
250,285,91293,1,8,0:0:0:0:
208,199,91460,1,0,0:0:0:0:
345,313,91626,6,0,L|339:384,1,71.9999978027344,0|0,1:0|0:0,0:0:0:0:
208,199,91960,1,8,0:0:0:0:
208,199,92126,2,0,L|202:128,1,71.9999978027344,0|0,1:0|1:0,0:0:0:0:
375,30,92460,2,0,L|369:101,1,71.9999978027344,0|8,0:0|0:0,0:0:0:0:
354,233,92793,1,4,0:0:0:0:
354,233,93126,5,0,1:0:0:0:
290,165,93293,1,8,0:0:0:0:
445,212,93460,1,0,1:0:0:0:
418,301,93626,1,8,0:0:0:0:
471,122,93793,1,0,1:0:0:0:
354,233,93960,1,0,0:0:0:0:
482,369,94126,1,0,1:0:0:0:
285,297,94293,6,0,P|262:230|290:165,1,143.999995605469,4|8,0:0|0:0,0:0:0:0:
270,77,94793,1,0,1:0:0:0:
270,77,94960,2,0,P|339:90|381:147,1,143.999995605469,0|8,1:0|0:0,0:0:0:0:
174,227,95460,6,0,P|243:219|289:165,1,143.999995605469,0|0,1:0|1:0,0:0:0:0:
202,138,95960,1,8,0:0:0:0:
84,257,96126,2,0,P|129:310|199:318,1,143.999995605469,0|0,1:0|0:0,0:0:0:0:
280,255,96626,1,8,0:0:0:0:
174,227,96793,1,0,0:0:0:0:
328,334,96960,6,0,L|322:186,1,143.999995605469,0|8,1:0|0:0,0:0:0:0:
263,107,97460,2,0,B|189:128|189:128|114:105,1,143.999995605469,0|0,1:0|0:0,0:0:0:0:
59,185,97960,1,8,0:0:0:0:
14,95,98126,2,0,L|25:15,1,71.9999978027344,0|0,1:0|0:0,0:0:0:0:
59,185,98460,5,0,1:0:0:0:
124,108,98626,1,8,0:0:0:0:
59,218,98793,1,0,1:0:0:0:
155,248,98960,2,0,L|164:319,1,71.9999978027344,0|0,1:0|0:0,0:0:0:0:
237,201,99293,2,0,P|216:173|184:158,1,71.9999978027344,8|0,0:0|0:0,0:0:0:0:
32,346,99626,6,0,P|108:309|174:324,1,143.999995605469,0|8,1:0|0:0,0:0:0:0:
251,369,100126,1,0,1:0:0:0:
303,282,100293,2,0,P|299:239|296:190,1,71.9999978027344,0|0,1:0|0:0,0:0:0:0:
408,257,100626,1,8,0:0:0:0:
408,257,100793,2,0,P|404:300|401:349,1,71.9999978027344,0|0,1:0|0:0,0:0:0:0:
297,210,101126,5,0,1:0:0:0:
464,165,101293,1,8,0:0:0:0:
251,122,101460,2,0,P|205:167|208:253,1,143.999995605469,0|0,1:0|0:0,0:0:0:0:
257,326,101960,1,8,0:0:0:0:
154,334,102126,1,0,0:0:0:0:
312,253,102293,6,0,P|384:275|454:252,1,143.999995605469,0|8,1:0|0:0,0:0:0:0:
389,107,102793,2,0,P|385:144|381:180,1,71.9999978027344,0|0,1:0|0:0,0:0:0:0:
279,120,103126,1,8,0:0:0:0:
477,53,103293,1,8,0:0:0:0:
305,262,103460,1,4,1:2:0:0:
305,262,103793,5,0,1:0:0:0:
484,193,103960,1,8,0:0:0:0:
401,351,104126,5,0,1:0:0:0:
378,155,104293,1,8,0:0:0:0:
419,323,104460,5,0,1:0:0:0:
287,234,104626,1,0,1:0:0:0:
485,157,104793,1,0,1:0:0:0:
270,335,104960,6,0,P|215:308|188:220,1,143.999995605469,4|8,0:0|0:0,0:0:0:0:
416,212,105460,2,0,P|365:246|275:225,1,143.999995605469,0|0,1:0|1:0,0:0:0:0:
322,78,105960,1,12,0:0:0:0:
322,78,106293,5,0,1:0:0:0:
218,27,106460,1,0,1:0:0:0:
163,128,106626,2,0,L|169:212,1,71.9999978027344,8|0,0:0|0:0,0:0:0:0:
260,297,106960,2,0,L|266:226,1,71.9999978027344,0|0,1:0|0:0,0:0:0:0:
96,267,107293,2,0,L|102:339,1,71.9999978027344,8|0,0:0|0:0,0:0:0:0:
266,226,107626,6,0,P|279:151|265:77,1,143.999995605469,4|8,0:0|0:0,0:0:0:0:
178,132,108126,2,0,P|107:143|36:130,1,143.999995605469,0|0,1:0|1:0,0:0:0:0:
129,16,108626,1,12,0:0:0:0:
129,16,108960,5,0,1:0:0:0:
178,132,109126,1,0,1:0:0:0:
91,227,109293,2,0,P|55:214|22:188,1,71.9999978027344,8|0,0:0|0:0,0:0:0:0:
291,93,109626,2,0,P|297:130|291:172,1,71.9999978027344,8|8,0:0|0:3,0:0:0:0:
178,132,109960,1,8,0:3:0:0:
266,285,110126,1,8,0:3:0:0:
125,248,110293,6,0,L|270:254,1,128,4|0,0:0|0:0,0:0:0:0:
297,175,110793,1,0,1:0:0:0:
384,194,110960,2,0,P|400:254|386:321,1,128,8|0,0:0|1:0,0:0:0:0:
309,365,111460,1,8,0:0:0:0:
250,297,111626,2,0,B|175:307|176:307,2,64,0|0|0,0:0|0:0|1:0,0:0:0:0:
300,222,112126,1,0,0:0:0:0:
300,222,112293,2,0,B|375:232|374:232,1,64,8|0,0:0|1:0,0:0:0:0:
426,166,112626,1,0,1:0:0:0:
368,97,112793,1,0,1:0:0:0:
250,297,112960,5,10,1:2:0:0:
244,151,113126,1,2,1:2:0:0:
119,328,113293,1,2,1:2:0:0:
300,222,113460,1,2,1:2:0:0:
300,222,113793,5,2,0:2:0:0:
205,370,113960,1,10,0:2:0:0:
89,210,114126,1,2,1:2:0:0:
250,297,114293,1,2,1:2:0:0:
61,194,114460,1,2,1:2:0:0:
61,194,114793,5,0,1:0:0:0:
344,89,114960,5,8,0:0:0:0:
344,89,115293,1,8,0:0:0:0:
344,89,115626,6,0,L|335:215,1,112,2|0,0:0|0:0,0:0:0:0:
265,346,116293,6,0,L|257:231,1,88.000002685547,4|0,0:0|0:0,0:0:0:0:
252,139,116626,1,8,0:0:0:0:
174,201,116793,1,0,0:0:0:0:
350,175,116959,2,0,P|355:127|341:82,1,88.000002685547,0|0,1:0|1:0,0:0:0:0:
260,25,117293,1,8,0:0:0:0:
174,201,117459,6,0,P|211:231|263:243,1,88.000002685547,0|0,1:0|0:0,0:0:0:0:
350,175,117793,1,0,1:0:0:0:
298,338,117959,1,8,0:0:0:0:
249,242,118126,1,0,0:0:0:0:
432,236,118293,2,0,P|395:266|343:278,1,88.000002685547,0|0,0:0|1:0,0:0:0:0:
352,89,118626,2,0,P|359:136|343:187,1,88.000002685547,8|0,0:0|0:0,0:0:0:0:
203,345,118959,6,0,L|209:163,1,176.000005371094,0|8,1:0|0:0,0:0:0:0:
216,46,119459,1,0,0:0:0:0:
100,136,119626,2,0,P|104:180|114:230,1,88.000002685547,0|0,1:0|1:0,0:0:0:0:
208,169,119959,1,8,0:0:0:0:
285,248,120126,2,0,P|281:292|274:336,1,88.000002685547,0|0,1:0|0:0,0:0:0:0:
208,169,120459,5,0,1:0:0:0:
319,118,120626,1,8,0:0:0:0:
216,46,120793,1,0,0:0:0:0:
353,198,120959,2,0,P|328:158|319:100,1,88.000002685547,0|0,0:0|1:0,0:0:0:0:
462,36,121293,2,0,P|451:78|427:115,1,88.000002685547,8|0,0:0|1:0,0:0:0:0:
195,233,121626,6,0,P|275:184|366:206,1,176.000005371094,0|8,1:0|0:0,0:0:0:0:
433,279,122126,1,0,0:0:0:0:
495,162,122293,2,0,L|486:65,1,88.000002685547,0|0,1:0|1:0,0:0:0:0:
352,197,122626,1,8,0:0:0:0:
255,49,122793,6,0,P|170:80|86:56,1,176.000005371094,0|0,1:0|1:0,0:0:0:0:
46,218,123293,2,0,P|85:197|147:194,1,88.000002685547,8|0,0:0|0:0,0:0:0:0:
255,49,123626,2,0,P|253:93|225:148,1,88.000002685547,0|0,0:0|1:0,0:0:0:0:
182,341,123959,1,8,0:0:0:0:
127,191,124126,1,8,0:0:0:0:
429,228,124292,6,0,P|310:270|225:231,1,207.999990478516,4|8,0:0|0:0,0:0:0:0:
20,32,124792,2,0,P|115:114|124:207,1,207.999990478516,4|0,0:0|1:0,0:0:0:0:
61,360,125292,1,12,0:0:0:0:
61,360,125626,5,0,1:0:0:0:
237,241,125792,1,0,1:0:0:0:
25,263,125959,1,8,0:0:0:0:
191,368,126126,1,0,0:0:0:0:
111,99,126292,5,8,0:0:0:0:
25,263,126459,1,0,1:0:0:0:
201,167,126626,5,8,0:0:0:0:
7,134,126792,1,0,0:0:0:0:
191,368,126959,6,0,L|195:280,1,88.000002685547,4|0,0:0|0:0,0:0:0:0:
201,167,127292,1,8,0:0:0:0:
307,218,127459,1,0,0:0:0:0:
111,99,127626,2,0,P|92:139|99:199,1,88.000002685547,0|0,1:0|1:0,0:0:0:0:
195,280,127959,1,8,0:0:0:0:
365,133,128126,6,0,P|409:205|381:286,1,176.000005371094,0|0,1:0|1:0,0:0:0:0:
201,167,128626,1,8,0:0:0:0:
306,217,128792,1,0,0:0:0:0:
191,368,128959,2,0,L|195:280,1,88.000002685547,0|0,0:0|1:0,0:0:0:0:
302,130,129292,2,0,L|306:217,1,88.000002685547,8|0,0:0|0:0,0:0:0:0:
47,60,129626,6,0,P|126:87|212:43,1,176.000005371094,0|8,1:0|0:0,0:0:0:0:
302,130,130126,1,0,0:0:0:0:
190,192,130292,2,0,L|194:279,1,88.000002685547,0|0,1:0|1:0,0:0:0:0:
304,362,130626,1,8,0:0:0:0:
30,280,130792,6,0,P|116:308|195:278,1,176.000005371094,0|0,1:0|1:0,0:0:0:0:
274,117,131292,1,8,0:0:0:0:
202,314,131459,1,0,1:0:0:0:
157,187,131626,1,8,0:0:0:0:
212,356,131792,1,8,0:3:0:0:
270,154,131959,1,8,0:3:0:0:
117,337,132126,1,8,0:3:0:0:
320,264,132292,6,0,L|184:280,1,128,4|0,0:0|0:0,0:0:0:0:
157,187,132792,1,0,1:0:0:0:
157,187,132959,2,0,P|144:115|160:52,1,128,8|0,0:0|0:0,0:0:0:0:
236,100,133459,1,8,0:0:0:0:
291,30,133626,6,0,P|353:41|415:28,1,128,4|8,1:2|0:3,0:0:0:0:
236,100,134126,1,0,1:0:0:0:
368,178,134292,1,12,0:0:0:0:
174,212,134459,1,8,0:0:0:0:
376,146,134626,1,8,0:0:0:0:
246,313,134792,1,8,0:0:0:0:
236,100,134959,6,0,L|244:12,2,80,4|0|0,0:0|0:0|0:0,0:0:0:0:
105,173,135459,2,0,P|136:197|185:213,1,80,0|8,0:0|0:0,0:0:0:0:
303,60,135792,2,0,P|266:74|228:109,1,80,8|0,0:3|0:0,0:0:0:0:
285,278,136126,1,4,0:0:0:0:
285,278,136459,5,8,0:3:0:0:
191,356,136626,2,0,L|88:337,1,80,0|0,0:0|1:0,0:0:0:0:
285,278,136959,2,0,L|388:259,1,80,8|8,0:0|0:3,0:0:0:0:
221,178,137292,1,8,0:0:0:0:
204,324,137459,1,8,0:0:0:0:
127,166,137626,5,4,0:0:0:0:
302,286,137792,1,0,1:0:0:0:
302,286,137876,1,0,1:0:0:0:
302,286,137959,1,0,1:0:0:0:
227,140,138126,1,8,0:0:0:0:
124,266,138292,1,8,0:0:0:0:
315,191,138459,1,8,0:0:0:0:
127,166,138626,1,8,0:0:0:0:
302,286,138792,1,12,0:0:0:0:
302,286,139126,5,0,1:0:0:0:
124,266,139292,2,0,L|132:365,1,80,8|0,0:0|0:0,0:0:0:0:
221,178,139626,1,0,1:0:0:0:
269,359,139792,1,8,0:0:0:0:
268,332,139876,1,8,0:0:0:0:
276,307,139959,1,8,0:0:0:0:
293,286,140042,1,8,0:0:0:0:
316,273,140126,1,8,0:0:0:0:
342,269,140209,1,8,0:0:0:0:
368,273,140292,6,0,P|390:188|356:107,1,160,4|8,0:0|0:0,0:0:0:0:
280,55,140792,1,0,0:0:0:0:
218,231,140959,1,0,1:0:0:0:
138,116,141126,1,0,1:0:0:0:
307,191,141292,1,8,0:0:0:0:
171,353,141459,6,0,L|183:178,1,160,0|0,1:0|1:0,0:0:0:0:
267,21,141959,1,8,0:0:0:0:
138,116,142126,1,0,0:0:0:0:
326,104,142292,2,0,P|279:119|234:119,1,80,0|0,0:0|1:0,0:0:0:0:
29,124,142626,2,0,P|39:75|62:36,1,80,8|0,0:0|0:0,0:0:0:0:
158,202,142959,5,0,1:0:0:0:
158,231,143042,1,0,0:0:0:0:
157,261,143126,1,0,0:0:0:0:
153,291,143209,1,0,0:0:0:0:
146,320,143292,2,0,P|212:338|276:315,1,120,8|0,0:0|0:0,0:0:0:0:
288,302,143626,1,0,1:0:0:0:
258,185,143792,1,0,1:0:0:0:
395,346,143959,1,8,0:0:0:0:
369,142,144126,6,0,P|300:82|218:73,1,160,0|0,1:0|1:0,0:0:0:0:
140,142,144626,1,8,0:0:0:0:
251,264,144792,2,0,L|259:164,1,80,0|0,0:0|0:0,0:0:0:0:
94,250,145126,1,0,1:0:0:0:
94,250,145292,2,0,L|102:350,1,80,8|0,0:0|1:0,0:0:0:0:
170,368,145542,1,0,0:0:0:0:
170,368,145626,6,0,P|249:341|331:353,1,160,0|8,1:0|0:0,0:0:0:0:
427,255,146126,1,0,0:0:0:0:
426,267,146209,1,0,0:0:0:0:
426,278,146292,2,0,L|433:374,2,80,0|0|8,1:0|1:0|0:0,0:0:0:0:
332,201,146792,1,0,1:0:0:0:
331,189,146876,1,0,0:0:0:0:
331,178,146959,6,0,L|338:82,2,80,0|0|8,0:0|1:0|0:0,0:0:0:0:
231,246,147459,2,0,P|187:253|142:242,1,80,0|0,0:0|0:0,0:0:0:0:
199,137,147792,1,0,1:0:0:0:
29,160,147959,1,8,0:0:0:0:
214,104,148126,1,0,0:0:0:0:
57,309,148292,6,0,L|64:371,3,47.9999985351563,4|0|0|0,0:0|0:0|0:0|0:0,0:0:0:0:
152,246,148626,2,0,L|159:184,3,47.9999985351563,8|0|0|0,0:0|0:0|1:0|0:0,0:0:0:0:
244,313,148959,2,0,L|251:375,3,47.9999985351563,0|0|0|0,0:0|0:0|1:0|0:0,0:0:0:0:
339,250,149292,2,0,L|346:188,3,47.9999985351563,12|0|0|0,0:0|0:0|0:0|0:0,0:0:0:0:
437,100,149626,5,0,1:0:0:0:
403,113,149709,1,0,0:0:0:0:
368,115,149792,1,0,1:0:0:0:
333,106,149876,1,0,0:0:0:0:
303,86,149959,1,8,0:0:0:0:
270,73,150042,1,0,0:0:0:0:
234,71,150126,1,0,1:0:0:0:
199,80,150209,1,0,0:0:0:0:
169,99,150292,1,8,0:0:0:0:
146,126,150376,1,0,0:0:0:0:
135,160,150459,1,0,1:0:0:0:
136,196,150542,1,0,0:0:0:0:
150,229,150626,6,0,L|142:293,1,47.9999985351563,8|0,0:0|0:0,0:0:0:0:
374,163,150792,2,0,L|365:99,1,47.9999985351563,8|0,0:0|0:0,0:0:0:0:
249,360,150959,5,4,0:0:0:0:
230,130,151126,1,0,1:0:0:0:
439,229,151292,1,0,1:0:0:0:
103,144,151459,5,12,0:0:0:0:
311,242,151626,1,0,1:0:0:0:
120,374,151792,1,0,1:0:0:0:
439,229,151959,5,12,0:0:0:0:
256,192,152042,12,2,153626,0:0:0:0:
138,47,169626,5,4,1:2:0:0:
226,115,170292,1,4,1:2:0:0:
120,151,170959,1,4,1:2:0:0:
226,115,171626,1,4,1:2:0:0:
138,47,172292,6,0,L|145:211,1,160,4|8,0:0|0:0,0:0:0:0:
159,321,172792,1,0,0:0:0:0:
159,321,172876,1,0,0:0:0:0:
159,321,172959,1,8,0:0:0:0:
273,179,173126,1,8,0:0:0:0:
111,217,173292,1,8,0:0:0:0:
252,357,173459,1,12,0:0:0:0:
252,357,173792,5,0,1:0:0:0:
161,98,173959,1,0,1:0:0:0:
161,98,174292,6,0,P|216:115|282:88,1,128,2|0,0:0|0:0,0:0:0:0:
280,90,175292,6,0,P|263:53|190:146,1,240,4|0,0:0|0:0,0:0:0:0:
387,297,175626,6,0,P|367:226|288:306,1,160,0|0,1:0|0:0,0:0:0:0:
248,299,175876,1,8,0:0:0:0:
252,316,175959,1,8,0:0:0:0:
444,165,176126,6,0,P|378:228|266:222,1,180.000006866455,4|0,0:0|0:0,0:0:0:0:
191,73,176459,5,8,0:0:0:0:
248,299,176626,1,0,1:0:0:0:
335,83,176792,1,0,1:0:0:0:
137,206,176959,1,8,0:3:0:0:
370,222,177126,1,0,1:0:0:0:
191,73,177292,1,8,0:0:0:0:
248,299,177459,5,8,0:0:0:0:
248,299,177542,1,8,0:0:0:0:
248,299,177626,6,0,P|163:320|85:278,1,176.000005371094,4|8,0:0|0:0,0:0:0:0:
179,195,178126,1,0,0:0:0:0:
27,177,178292,1,0,1:0:0:0:
130,104,178459,1,8,0:0:0:0:
87,281,178626,1,8,0:0:0:0:
273,127,178792,6,0,P|294:212|252:290,1,176.000005371094,12|0,0:0|1:0,0:0:0:0:
179,195,179292,1,8,0:0:0:0:
87,281,179459,1,0,0:0:0:0:
102,156,179626,2,0,P|143:186|186:195,1,88.000002685547,0|0,0:0|1:0,0:0:0:0:
187,84,179959,1,8,0:0:0:0:
102,156,180126,1,8,0:0:0:0:
255,287,180292,6,0,P|294:210|273:127,1,176.000005371094,4|8,0:0|0:0,0:0:0:0:
178,194,180792,1,0,0:0:0:0:
375,80,180959,2,0,P|344:39|286:17,1,88.000002685547,0|0,1:0|1:0,0:0:0:0:
273,127,181292,1,8,0:0:0:0:
369,183,181459,2,0,P|412:179|450:157,1,88.000002685547,0|0,1:0|0:0,0:0:0:0:
375,80,181792,1,0,1:0:0:0:
273,127,181959,6,0,P|254:166|254:210,1,88.000002685547,8|0,0:0|0:0,0:0:0:0:
112,327,182292,2,0,P|155:323|193:301,1,88.000002685547,0|0,0:0|1:0,0:0:0:0:
121,210,182626,1,8,0:0:0:0:
258,153,182792,1,8,0:0:0:0:
261,357,182959,6,0,P|241:251|265:138,1,207.999990478516,4|8,0:0|0:0,0:0:0:0:
46,45,183459,2,0,B|121:85|206:46|206:46|156:88,1,207.999990478516,4|0,0:0|1:0,0:0:0:0:
107,237,183959,1,12,0:0:0:0:
107,237,184292,5,0,1:0:0:0:
271,289,184459,1,0,1:0:0:0:
177,365,184626,1,8,0:0:0:0:
224,175,184792,1,0,0:0:0:0:
78,329,184959,5,8,0:0:0:0:
330,199,185126,1,0,1:0:0:0:
107,237,185292,5,8,0:0:0:0:
271,289,185459,1,0,0:0:0:0:
165,74,185626,6,0,P|130:103|107:156,1,88.000002685547,4|0,0:0|0:0,0:0:0:0:
116,267,185959,1,8,0:0:0:0:
219,181,186126,1,0,0:0:0:0:
301,369,186292,2,0,P|293:324|258:277,1,88.000002685547,0|0,1:0|1:0,0:0:0:0:
195,204,186626,1,8,0:0:0:0:
182,362,186792,6,0,P|156:283|217:188,1,176.000005371094,0|0,1:0|1:0,0:0:0:0:
269,112,187292,1,8,0:0:0:0:
157,64,187459,1,0,0:0:0:0:
319,18,187626,2,0,P|351:46|377:97,1,88.000002685547,0|0,0:0|1:0,0:0:0:0:
215,179,187959,2,0,P|236:140|269:111,1,88.000002685547,8|0,0:0|0:0,0:0:0:0:
317,294,188292,6,0,L|133:281,1,176.000005371094,0|8,1:0|0:0,0:0:0:0:
79,189,188792,1,0,0:0:0:0:
148,97,188959,2,0,P|153:51|146:8,1,88.000002685547,0|0,1:0|1:0,0:0:0:0:
41,59,189292,1,8,0:0:0:0:
171,201,189459,2,0,P|213:182|247:154,1,88.000002685547,0|0,1:0|0:0,0:0:0:0:
371,64,189792,5,0,1:0:0:0:
345,266,189959,1,8,0:0:0:0:
246,156,190126,1,0,1:0:0:0:
368,236,190292,1,8,0:0:0:0:
201,300,190459,1,8,0:3:0:0:
391,206,190626,1,8,0:3:0:0:
354,368,190792,1,8,0:3:0:0:
261,193,190959,6,0,P|253:127|269:52,1,128,4|0,0:0|0:0,0:0:0:0:
340,20,191459,1,0,1:0:0:0:
386,96,191626,2,0,P|446:105|512:81,1,128,8|0,0:0|0:0,0:0:0:0:
340,20,192126,2,0,L|277:29,1,64,8|0,0:0|0:0,0:0:0:0:
222,101,192459,2,0,L|159:92,1,64,8|0,0:0|0:0,0:0:0:0:
92,31,192792,1,0,1:0:0:0:
42,106,192959,2,0,L|51:240,1,128,8|0,0:0|0:0,0:0:0:0:
58,324,193459,1,0,1:0:0:0:
167,239,193626,1,12,0:0:0:0:
167,239,193959,5,8,0:0:0:0:
15,207,194126,1,8,0:0:0:0:
189,122,194292,1,8,0:3:0:0:
18,239,194459,1,0,1:0:0:0:
196,86,194626,1,8,0:0:0:0:
160,365,194792,1,4,0:0:0:0:
160,365,195126,6,0,L|156:292,1,64,8|0,0:3|0:0,0:0:0:0:
222,224,195459,1,0,1:0:0:0:
37,123,195626,1,8,0:0:0:0:
57,135,195709,1,8,0:0:0:0:
80,143,195792,1,8,0:0:0:0:
103,146,195876,1,8,0:0:0:0:
127,145,195959,1,8,0:0:0:0:
151,140,196042,1,8,0:0:0:0:
172,130,196126,1,8,0:0:0:0:
192,115,196209,1,8,0:0:0:0:
209,98,196292,6,0,P|251:72|368:93,1,160,4|8,0:0|0:0,0:0:0:0:
431,159,196792,1,0,0:0:0:0:
389,319,196959,1,0,1:0:0:0:
327,227,197126,1,0,1:0:0:0:
482,278,197292,1,8,0:0:0:0:
277,320,197459,6,0,L|285:151,1,160,4|0,0:0|1:0,0:0:0:0:
222,79,197959,2,0,P|182:85|140:80,1,80,8|0,0:0|0:0,0:0:0:0:
51,36,198292,1,0,0:0:0:0:
11,138,198459,1,0,1:0:0:0:
72,230,198626,2,0,P|112:236|154:231,1,80,8|0,0:0|0:0,0:0:0:0:
284,160,198959,6,0,P|366:146|443:168,1,160,4|8,0:0|0:0,0:0:0:0:
481,264,199459,1,0,0:0:0:0:
314,337,199626,1,0,1:0:0:0:
481,298,199792,1,0,1:0:0:0:
356,224,199959,1,8,0:0:0:0:
413,368,200126,5,4,0:0:0:0:
413,368,200209,1,0,0:0:0:0:
413,368,200292,1,0,0:0:0:0:
481,230,200459,1,0,1:0:0:0:
314,337,200626,1,8,0:0:0:0:
364,193,200792,1,0,0:0:0:0:
364,193,201126,5,0,1:0:0:0:
413,368,201292,1,8,0:0:0:0:
481,230,201459,1,8,0:0:0:0:
314,337,201626,6,0,P|240:319|183:255,1,160,4|8,0:0|0:0,0:0:0:0:
215,148,202126,1,0,0:0:0:0:
104,221,202292,1,0,1:0:0:0:
40,77,202459,1,0,1:0:0:0:
18,280,202626,1,8,0:0:0:0:
204,384,202792,6,0,P|218:295|207:200,1,160,4|0,0:0|1:0,0:0:0:0:
104,221,203292,2,0,L|91:141,1,80,8|0,0:0|0:0,0:0:0:0:
240,48,203626,2,0,L|227:127,1,80,0|0,0:0|1:0,0:0:0:0:
198,312,203959,1,8,0:0:0:0:
198,312,204292,6,0,P|256:331|359:289,1,160,4|8,0:0|0:0,0:0:0:0:
427,215,204792,1,8,0:0:0:0:
427,215,204876,1,8,0:0:0:0:
427,215,204959,1,8,0:0:0:0:
237,123,205126,1,8,0:0:0:0:
466,85,205292,1,8,0:0:0:0:
388,323,205459,1,4,0:0:0:0:
388,323,205792,5,0,1:0:0:0:
305,187,205959,1,8,0:0:0:0:
280,380,206126,1,0,1:0:0:0:
427,215,206292,5,10,0:0:0:0:
149,293,206459,1,10,0:0:0:0:
149,293,206792,5,4,0:0:0:0:
256,192,206876,12,0,209626,0:0:0:0:
