osu file format v14

[General]
AudioFilename: audio.mp3
AudioLeadIn: 0
PreviewTime: 51828
Countdown: 0
SampleSet: Soft
StackLeniency: 0.7
Mode: 0
LetterboxInBreaks: 0
WidescreenStoryboard: 0

[Editor]
DistanceSpacing: 2.6
BeatDivisor: 4
GridSize: 4
TimelineZoom: 1.4

[Metadata]
Title:FlashBack
TitleUnicode:FlashBack
Artist:Aki Akane
ArtistUnicode:Aki Akane
Creator:Twiggykun
Version:fuck go back
Source:
Tags:
BeatmapID:1607558
BeatmapSetID:764496

[Difficulty]
HPDrainRate:6.2
CircleSize:4.2
OverallDifficulty:8.1
ApproachRate:9.5
SliderMultiplier:2
SliderTickRate:1

[Events]
//Background and Video events
0,0,"789124061.jpg",0,0
//Break Periods
2,143487,153141
//Storyboard Layer 0 (Background)
//Storyboard Layer 1 (Fail)
//Storyboard Layer 2 (Pass)
//Storyboard Layer 3 (Foreground)
//Storyboard Sound Samples

[TimingPoints]
585,324.324324324324,4,2,0,50,1,0
11449,-133.333333333333,4,2,0,50,0,0
12260,-100,4,2,0,50,0,0
12747,-133.333333333333,4,2,0,50,0,0
13557,-100,4,2,0,50,0,0
14044,-133.333333333333,4,2,0,50,0,0
14855,-100,4,2,0,50,0,0
25233,-83.3333333333333,4,2,0,50,0,0
26530,-100,4,2,0,50,0,0
30747,-83.3333333333333,4,2,0,50,0,0
51179,-100,4,2,0,50,0,0
52476,-83.3333333333333,4,2,0,50,0,0
57017,-100,4,2,0,50,0,0
57666,-83.3333333333333,4,2,0,50,0,0
61882,-100,4,2,0,50,0,0
62855,-83.3333333333333,4,2,0,50,0,0
75828,-100,4,2,0,50,0,0
95936,-133.333333333333,4,2,0,50,0,0
96260,-100,4,2,0,50,0,0
105341,-83.3333333333333,4,2,0,50,0,0
132584,-100,4,2,0,50,0,0
132909,-83.3333333333333,4,2,0,50,0,0
137449,-100,4,2,0,50,0,0
158855,-90.9090909090909,4,2,0,50,0,0
165341,-83.3333333333333,4,2,0,50,0,0

[HitObjects]
256,192,5774,12,0,10314,0:0:0:0:
256,192,10476,5,0,0:0:0:0:
256,192,10639,1,0,0:0:0:0:
68,112,10963,6,0,P|136:116|204:84,1,100
244,52,11287,1,0,0:0:0:0:
168,224,11449,2,0,P|152:280|152:328,1,75.0000028610231
288,292,11774,2,0,P|304:236|304:188,1,75.0000028610231
128,140,12098,1,0,0:0:0:0:
408,64,12260,6,0,L|292:72,1,100
204,80,12584,1,0,0:0:0:0:
328,252,12747,2,0,L|336:160,1,75.0000028610231
436,96,13071,2,0,L|428:188,1,75.0000028610231
408,324,13395,1,0,0:0:0:0:
224,136,13557,6,0,P|176:100|112:88,1,100
24,84,13882,1,0,0:0:0:0:
88,260,14044,2,0,P|152:256|176:240,1,75.0000028610231
304,296,14368,2,0,P|240:300|216:316,1,75.0000028610231
324,148,14693,1,0,0:0:0:0:
452,332,14855,6,0,L|460:208,1,100
256,152,15179,1,0,0:0:0:0:
348,280,15341,1,0,0:0:0:0:
427,62,15503,2,0,L|303:54,1,100
176,96,15828,1,0,0:0:0:0:
160,142,15909,1,0,0:0:0:0:
167,191,15990,1,0,0:0:0:0:
197,231,16071,1,0,0:0:0:0:
241,253,16152,6,0,P|296:264|368:248,1,100
448,208,16476,1,0,0:0:0:0:
304,108,16639,1,0,0:0:0:0:
360,328,16801,2,0,L|476:320,1,100
304,108,17125,2,0,P|276:168|284:232,1,100
256,32,17449,6,0,P|200:76|176:116,1,100
96,264,17774,1,0,0:0:0:0:
36,56,17936,1,0,0:0:0:0:
232,136,18098,2,0,P|296:152|368:144,1,100
164,308,18422,2,0,P|100:292|28:300,1,100
284,300,18747,6,0,P|236:254|170:225,1,100
76,192,19071,1,0,0:0:0:0:
228,40,19233,1,0,0:0:0:0:
307,232,19395,2,0,L|178:239,1,100
20,112,19720,2,0,L|140:104,1,100
316,112,20044,6,0,P|368:132|376:140,3,50
424,200,20368,2,0,P|460:240|476:248,3,50
408,328,20693,1,0,0:0:0:0:
377,288,20774,1,0,0:0:0:0:
332,267,20855,1,0,0:0:0:0:
283,267,20936,1,0,0:0:0:0:
238,289,21017,1,0,0:0:0:0:
192,306,21098,1,0,0:0:0:0:
142,303,21179,1,0,0:0:0:0:
98,281,21260,1,0,0:0:0:0:
66,243,21341,6,0,P|76:184|64:144,1,100
192,60,21666,2,0,L|300:68,1,100
321,239,21990,2,0,P|264:259|236:290,1,100
68,148,22314,2,0,L|76:36,1,100
192,164,22639,5,0,0:0:0:0:
116,264,22801,1,0,0:0:0:0:
148,52,22963,2,0,P|216:48|272:72,1,100
448,176,23287,2,0,L|328:184,1,100
228,192,23612,1,0,0:0:0:0:
380,308,23774,1,0,0:0:0:0:
320,96,23936,6,0,P|256:64|184:68,1,100
32,180,24260,2,0,L|156:172,1,100
256,164,24584,1,0,0:0:0:0:
124,304,24747,1,0,0:0:0:0:
176,96,24909,2,0,P|228:64|276:64,1,100
265,62,25233,1,0,0:0:0:0:
424,176,25557,6,0,L|292:184,1,119.999996337891
96,240,25882,2,0,L|228:248,1,119.999996337891
424,128,26206,2,0,L|292:120,1,119.999996337891
204,108,26530,6,0,P|141:93|99:64,1,100
200,208,26855,2,0,L|208:328,1,100
280,164,27179,2,0,P|324:116|369:95,1,100
112,80,27503,2,0,L|0:88,1,100
192,172,27828,5,0,0:0:0:0:
224,60,27990,1,0,0:0:0:0:
76,196,28152,2,0,P|112:264|148:284,1,100
336,316,28476,2,0,L|344:208,1,100
352,80,28801,1,0,0:0:0:0:
180,176,28963,1,0,0:0:0:0:
400,168,29125,6,0,P|448:120|452:68,1,100
304,164,29449,2,0,P|321:229|364:259,1,100
352,80,29774,2,0,P|286:62|239:84,1,100
120,136,30098,2,0,P|40:148|0:132,1,100
24,144,30422,1,0,0:0:0:0:
252,272,30747,6,0,L|384:264,1,119.999996337891
492,256,31071,1,0,0:0:0:0:
288,92,31233,1,0,0:0:0:0:
412,336,31395,1,0,0:0:0:0:
384,64,31557,1,0,0:0:0:0:
192,240,31720,2,0,P|124:268|64:268,1,119.999996337891
200,200,32044,2,0,P|172:132|172:72,1,119.999996337891
240,208,32368,2,0,P|308:180|368:180,1,119.999996337891
512,216,32693,2,0,P|443:244|384:244,1,119.999996337891
284,60,33017,6,0,L|416:68,1,119.999996337891
256,92,33341,2,0,L|248:224,1,119.999996337891
224,64,33666,2,0,L|92:56,1,119.999996337891
0,180,33990,2,0,L|132:188,1,119.999996337891
272,208,34314,6,0,P|352:232|404:288,1,119.999996337891
240,176,34639,2,0,P|160:152|108:96,1,119.999996337891
292,152,34963,2,0,P|372:176|424:232,1,119.999996337891
284,312,35288,2,0,P|204:288|152:232,1,119.999996337891
399,198,35612,6,0,B|411:262|411:262|411:326,1,119.999996337891
352,176,35936,2,0,B|340:112|340:112|340:48,1,119.999996337891
324,220,36260,2,0,B|336:284|336:284|336:348,1,119.999996337891
168,200,36584,1,0,0:0:0:0:
344,108,36747,1,0,0:0:0:0:
236,312,36909,6,0,L|116:316,1,119.999996337891
40,240,37233,1,0,0:0:0:0:
88,144,37395,1,0,0:0:0:0:
32,60,37557,2,0,L|168:52,1,119.999996337891
312,196,37882,2,0,P|248:176|208:124,1,119.999996337891
400,116,38206,6,0,P|428:172|420:252,1,119.999996337891
348,308,38530,1,0,0:0:0:0:
248,252,38693,1,0,0:0:0:0:
164,336,38855,2,0,P|136:280|144:200,1,119.999996337891
220,72,39179,2,0,P|128:96|68:80,1,119.999996337891
268,156,39503,6,0,P|360:132|420:148,1,119.999996337891
281,220,39828,2,0,P|255:312|212:356,1,119.999996337891
218,199,40152,2,0,P|152:131|135:71,1,119.999996337891
188,40,40476,1,0,0:0:0:0:
140,240,40639,1,0,0:0:0:0:
332,176,40801,6,0,L|460:168,1,119.999996337891
240,192,41125,1,0,0:0:0:0:
240,192,41287,1,0,0:0:0:0:
424,72,41449,1,0,0:0:0:0:
450,292,41612,1,0,0:0:0:0:
450,292,41693,1,0,0:0:0:0:
450,292,41774,2,0,P|366:288|330:268,1,119.999996337891
232,132,42098,2,0,P|168:96|84:88,1,119.999996337891
0,136,42422,1,0,0:0:0:0:
168,224,42584,2,0,P|252:240|296:228,2,119.999996337891
376,140,43071,2,0,L|388:280,1,119.999996337891
260,184,43395,5,0,0:0:0:0:
488,112,43557,1,0,0:0:0:0:
320,300,43720,1,0,0:0:0:0:
399,51,43882,1,0,0:0:0:0:
399,51,44044,2,0,P|319:59|251:55,1,119.999996337891
140,60,44368,2,0,P|76:84|36:160,1,119.999996337891
108,312,44693,6,0,P|156:252|164:180,1,119.999996337891
16,108,45017,1,0,0:0:0:0:
252,268,45179,1,0,0:0:0:0:
0,216,45341,1,0,0:0:0:0:
236,152,45503,1,0,0:0:0:0:
84,36,45666,2,0,L|76:188,1,119.999996337891
188,328,45990,6,0,L|180:176,1,119.999996337891
212,112,46314,1,0,0:0:0:0:
292,200,46476,1,0,0:0:0:0:
116,132,46639,2,0,P|120:68|160:24,1,119.999996337891
324,92,46963,2,0,P|382:101|434:73,1,119.999996337891
384,224,47287,6,0,P|372:308|380:368,1,119.999996337891
296,200,47612,1,0,0:0:0:0:
488,256,47774,1,0,0:0:0:0:
208,148,47936,1,0,0:0:0:0:
412,84,48098,2,0,L|420:212,1,119.999996337891
360,324,48422,6,0,B|296:292|180:304|180:304|224:256,1,239.999992675781
320,136,48909,2,0,L|240:236,1,119.999996337891
92,264,49233,2,0,L|172:163,1,119.999996337891
168,28,49557,2,0,L|88:128,1,119.999996337891
16,200,49882,5,0,0:0:0:0:
176,240,50044,1,0,0:0:0:0:
48,96,50206,1,0,0:0:0:0:
292,172,50368,1,0,0:0:0:0:
84,324,50530,5,0,0:0:0:0:
192,48,50693,1,0,0:0:0:0:
344,316,50855,1,0,0:0:0:0:
36,176,51017,1,0,0:0:0:0:
296,68,51179,1,0,0:0:0:0:
289,116,51260,1,0,0:0:0:0:
308,164,51341,1,0,0:0:0:0:
339,201,51422,1,0,0:0:0:0:
341,250,51503,1,0,0:0:0:0:
313,291,51584,1,0,0:0:0:0:
267,307,51665,1,0,0:0:0:0:
220,291,51746,1,0,0:0:0:0:
192,251,51827,1,0,0:0:0:0:
240,84,51990,1,0,0:0:0:0:
345,277,52152,1,0,0:0:0:0:
88,144,52314,1,0,0:0:0:0:
352,156,52476,6,0,L|472:164,1,119.999996337891
240,84,52801,1,0,0:0:0:0:
349,234,52963,2,0,L|428:324,1,119.999996337891
344,76,53288,1,0,0:0:0:0:
224,196,53449,2,0,P|148:236|84:236,1,119.999996337891
128,120,53774,5,0,0:0:0:0:
312,280,53936,1,0,0:0:0:0:
80,296,54098,1,0,0:0:0:0:
216,76,54260,1,0,0:0:0:0:
224,208,54422,2,0,L|232:340,1,119.999996337891
320,144,54747,2,0,P|352:88|400:48,1,119.999996337891
448,196,55071,6,0,P|396:268|320:300,1,119.999996337891
492,124,55395,1,0,0:0:0:0:
320,160,55557,2,0,P|232:174|155:143,1,119.999996337891
388,72,55881,1,0,0:0:0:0:
376,236,56044,2,0,L|364:372,1,119.999996337891
232,204,56368,5,0,0:0:0:0:
496,172,56530,1,0,0:0:0:0:
312,84,56693,2,0,P|248:64|188:64,1,119.999996337891
64,104,57017,1,0,0:0:0:0:
37,145,57098,1,0,0:0:0:0:
43,193,57179,1,0,0:0:0:0:
78,227,57260,1,0,0:0:0:0:
127,231,57341,1,0,0:0:0:0:
176,223,57422,1,0,0:0:0:0:
226,228,57503,1,0,0:0:0:0:
273,243,57584,1,0,0:0:0:0:
316,269,57666,6,0,P|384:264|440:228,1,119.999996337891
276,96,57990,1,0,0:0:0:0:
243,288,58152,2,0,P|295:333|360:347,1,119.999996337891
312,160,58476,1,0,0:0:0:0:
120,176,58639,2,0,P|56:184|-4:180,1,119.999996337891
164,52,58963,5,0,0:0:0:0:
196,276,59125,1,0,0:0:0:0:
44,56,59287,2,0,P|108:48|168:51,1,119.999996337891
256,132,59612,2,0,P|320:140|380:136,1,119.999996337891
492,120,59936,1,0,0:0:0:0:
364,284,60098,1,0,0:0:0:0:
279,70,60260,6,0,P|351:106|387:166,1,119.999996337891
248,288,60584,1,0,0:0:0:0:
185,89,60747,2,0,P|262:64|330:80,1,119.999996337891
328,276,61071,1,0,0:0:0:0:
120,236,61233,2,0,L|-8:244,1,119.999996337891
188,136,61557,6,0,L|200:272,1,119.999996337891
340,332,61882,1,0,0:0:0:0:
371,293,61963,1,0,0:0:0:0:
388,246,62044,1,0,0:0:0:0:
387,197,62125,1,0,0:0:0:0:
369,150,62206,1,0,0:0:0:0:
327,122,62287,1,0,0:0:0:0:
278,119,62368,1,0,0:0:0:0:
234,140,62449,1,0,0:0:0:0:
206,181,62530,1,0,0:0:0:0:
199,230,62611,1,0,0:0:0:0:
159,257,62692,1,0,0:0:0:0:
112,247,62773,1,0,0:0:0:0:
87,205,62855,6,0,L|80:72,2,119.999996337891
336,160,63341,2,0,L|343:26,2,119.999996337891
192,324,63828,2,0,L|184:188,1,119.999996337891
416,272,64152,6,0,L|424:136,1,119.999996337891
224,92,64476,1,0,0:0:0:0:
292,272,64639,1,0,0:0:0:0:
352,56,64801,1,0,0:0:0:0:
120,128,64963,1,0,0:0:0:0:
340,208,65125,2,0,L|464:216,1,119.999996337891
248,300,65449,6,0,P|212:236|212:180,2,119.999996337891
400,172,65936,2,0,P|436:108|436:52,2,119.999996337891
104,188,66422,2,0,P|128:116|176:68,1,119.999996337891
352,300,66747,6,0,P|328:228|280:180,1,119.999996337891
208,152,67071,2,0,P|208:228|252:284,1,119.999996337891
344,128,67395,1,0,0:0:0:0:
310,78,67476,1,0,0:0:0:0:
261,44,67557,1,0,0:0:0:0:
203,32,67638,1,0,0:0:0:0:
144,41,67719,1,0,0:0:0:0:
95,76,67801,1,0,0:0:0:0:
70,129,67882,1,0,0:0:0:0:
73,188,67963,1,0,0:0:0:0:
106,238,68044,6,0,P|184:276|264:256,1,119.999996337891
412,296,68368,1,0,0:0:0:0:
188,156,68530,2,0,P|120:128|40:140,1,119.999996337891
216,356,68855,1,0,0:0:0:0:
296,136,69017,2,0,P|336:76|396:36,1,119.999996337891
480,56,69341,5,0,0:0:0:0:
388,232,69503,1,0,0:0:0:0:
256,68,69666,1,0,0:0:0:0:
504,172,69828,1,0,0:0:0:0:
272,184,69990,2,0,L|136:192,1,119.999996337891
0,96,70314,2,0,L|140:88,1,119.999996337891
272,80,70639,6,0,P|332:100|376:160,1,119.999996337891
328,304,70963,1,0,0:0:0:0:
456,184,71125,2,0,P|460:120|416:56,1,119.999996337891
336,32,71449,1,0,0:0:0:0:
296,160,71612,2,0,P|240:228|92:248,1,239.999992675781
156,128,72098,5,0,0:0:0:0:
308,296,72260,1,0,0:0:0:0:
248,76,72422,1,0,0:0:0:0:
124,320,72584,1,0,0:0:0:0:
56,128,72747,5,0,0:0:0:0:
85,180,72828,1,0,0:0:0:0:
126,223,72909,1,0,0:0:0:0:
178,253,72990,1,0,0:0:0:0:
236,269,73071,1,0,0:0:0:0:
296,269,73152,1,0,0:0:0:0:
353,253,73233,1,0,0:0:0:0:
256,192,73395,12,0,75179,0:0:0:0:
344,88,75828,6,0,L|352:192,1,100
432,276,76152,2,0,L|439:176,1,100
456,56,76476,1,0,0:0:0:0:
344,88,76639,1,0,0:0:0:0:
436,176,76801,1,0,0:0:0:0:
244,140,76963,6,0,P|176:128|120:132,1,100
44,176,77287,1,0,0:0:0:0:
208,244,77449,2,0,P|276:256|332:252,1,100
306,255,77693,1,0,0:0:0:0:
306,255,77774,1,0,0:0:0:0:
248,64,77936,1,0,0:0:0:0:
96,216,78098,1,0,0:0:0:0:
96,216,78260,6,0,P|164:232|200:224,1,100
308,168,78584,1,0,0:0:0:0:
128,96,78747,2,0,L|20:88,1,100
160,208,79071,1,0,0:0:0:0:
208,36,79233,1,0,0:0:0:0:
352,164,79557,6,0,L|360:272,1,100
368,344,79882,1,0,0:0:0:0:
436,296,80044,1,0,0:0:0:0:
184,232,80206,2,0,P|120:228|56:240,1,100
220,336,80530,1,0,0:0:0:0:
224,144,80693,2,0,P|220:80|204:28,1,100
344,204,81017,6,0,P|384:240|440:256,1,100
432,144,81341,2,0,P|392:108|336:92,1,100
248,140,81666,1,0,0:0:0:0:
344,204,81828,1,0,0:0:0:0:
348,88,81990,1,0,0:0:0:0:
120,96,82152,6,0,P|40:108|-8:132,1,100
224,156,82476,1,0,0:0:0:0:
44,240,82639,2,0,P|124:252|172:276,1,100
141,258,82882,1,0,0:0:0:0:
141,258,82963,1,0,0:0:0:0:
296,356,83125,1,0,0:0:0:0:
292,156,83287,1,0,0:0:0:0:
292,156,83449,6,0,P|240:104|176:80,1,100
96,60,83774,1,0,0:0:0:0:
332,68,83936,2,0,L|444:76,1,100
512,188,84260,1,0,0:0:0:0:
332,264,84422,1,0,0:0:0:0:
332,264,84503,1,0,0:0:0:0:
332,264,84584,2,0,P|264:264|216:248,1,100
36,144,84909,6,0,L|160:136,1,100
220,132,85233,1,0,0:0:0:0:
36,240,85395,2,0,L|160:248,1,100
268,256,85720,1,0,0:0:0:0:
148,48,85882,1,0,0:0:0:0:
121,89,85963,1,0,0:0:0:0:
114,138,86044,1,0,0:0:0:0:
127,186,86125,1,0,0:0:0:0:
160,224,86206,6,0,P|196:268|204:316,1,100
244,148,86530,2,0,P|224:96|232:36,1,100
396,200,86855,2,0,P|404:252|384:312,1,100
360,80,87179,1,0,0:0:0:0:
284,236,87341,6,0,L|172:244,1,100
16,168,87666,1,0,0:0:0:0:
232,44,87828,2,0,L|240:160,1,100
252,320,88152,1,0,0:0:0:0:
96,148,88314,1,0,0:0:0:0:
360,144,88476,1,0,0:0:0:0:
100,268,88639,1,0,0:0:0:0:
144,20,88801,6,0,P|208:40|248:68,1,100
336,124,89125,1,0,0:0:0:0:
160,160,89287,2,0,P|96:180|56:208,1,100
0,280,89612,1,0,0:0:0:0:
244,280,89774,1,0,0:0:0:0:
108,64,89936,1,0,0:0:0:0:
104,276,90098,6,0,P|116:344|144:384,1,100
252,192,90422,2,0,L|260:88,1,100
400,244,90747,2,0,L|408:352,1,100
192,208,91071,1,0,0:0:0:0:
384,92,91233,1,0,0:0:0:0:
344,312,91395,6,0,L|240:320,1,100
116,332,91720,1,0,0:0:0:0:
232,148,91882,2,0,L|340:156,1,100
448,164,92206,1,0,0:0:0:0:
216,60,92368,1,0,0:0:0:0:
244,296,92530,6,0,P|288:336|344:348,1,100
268,172,92855,1,0,0:0:0:0:
116,132,93017,2,0,P|52:116|-12:120,1,100
160,240,93341,2,0,P|208:284|256:304,1,100
184,40,93666,2,0,P|196:112|224:160,1,100
340,284,93990,6,0,P|327:212|299:164,1,100
252,112,94314,1,0,0:0:0:0:
96,196,94476,2,0,P|140:232|192:248,1,100
296,280,94801,1,0,0:0:0:0:
152,68,94963,2,0,L|32:60,1,100
228,152,95287,6,0,L|348:144,1,100
160,264,95612,2,0,L|40:272,1,100
248,316,95936,1,0,0:0:0:0:
282,301,96017,1,0,0:0:0:0:
304,271,96098,1,0,0:0:0:0:
309,235,96179,1,0,0:0:0:0:
296,200,96260,1,0,0:0:0:0:
273,156,96341,1,0,0:0:0:0:
277,107,96422,1,0,0:0:0:0:
304,66,96503,1,0,0:0:0:0:
349,45,96584,6,0,P|436:40|484:8,1,100
360,144,96909,2,0,P|273:138|225:106,1,100
144,84,97233,2,0,P|80:60|16:64,1,100
144,228,97557,1,0,0:0:0:0:
260,56,97720,6,0,L|268:168,2,100
360,284,98206,2,0,L|368:176,1,100
464,40,98530,2,0,L|472:148,1,100
256,312,98855,2,0,P|268:228|296:184,1,100
380,48,99179,6,0,P|324:64|256:48,1,100
160,28,99503,1,0,0:0:0:0:
208,220,99666,1,0,0:0:0:0:
304,80,99828,1,0,0:0:0:0:
280,320,99990,1,0,0:0:0:0:
112,168,100152,2,0,L|104:52,1,100
184,336,100476,6,0,L|192:232,1,100
288,64,100801,1,0,0:0:0:0:
384,296,100963,1,0,0:0:0:0:
488,88,101125,2,0,P|404:56|376:56,1,100
192,192,101449,2,0,P|280:212|324:200,1,100
116,80,101774,6,0,L|0:72,1,100
240,96,102098,1,0,0:0:0:0:
76,256,102260,1,0,0:0:0:0:
172,40,102422,1,0,0:0:0:0:
192,312,102584,1,0,0:0:0:0:
344,64,102747,1,0,0:0:0:0:
300,296,102909,1,0,0:0:0:0:
92,84,103071,5,0,0:0:0:0:
384,164,103233,1,0,0:0:0:0:
96,256,103395,1,0,0:0:0:0:
316,48,103557,1,0,0:0:0:0:
20,124,103720,2,0,L|136:136,1,100
356,256,104044,6,0,L|240:264,1,100
44,272,104368,2,0,P|104:252|116:240,3,50
108,156,104693,2,0,P|168:176|180:188,3,50
224,252,105017,1,0,0:0:0:0:
258,287,105098,1,0,0:0:0:0:
303,309,105179,1,0,0:0:0:0:
352,316,105260,1,0,0:0:0:0:
401,306,105341,1,0,0:0:0:0:
452,276,105422,1,0,0:0:0:0:
478,222,105503,1,0,0:0:0:0:
470,164,105584,1,0,0:0:0:0:
432,119,105665,5,0,0:0:0:0:
384,152,105747,1,0,0:0:0:0:
325,158,105828,1,0,0:0:0:0:
270,135,105909,1,0,0:0:0:0:
234,87,105990,1,0,0:0:0:0:
182,59,106071,1,0,0:0:0:0:
123,59,106152,1,0,0:0:0:0:
70,86,106233,1,0,0:0:0:0:
36,135,106314,5,0,0:0:0:0:
260,248,106476,1,0,0:0:0:0:
8,260,106639,1,0,0:0:0:0:
136,60,106801,1,0,0:0:0:0:
120,340,106963,6,0,L|128:216,2,119.999996337891
208,200,107449,2,0,P|260:140|328:112,1,119.999996337891
412,116,107774,1,0,0:0:0:0:
156,100,107936,2,0,L|32:92,1,119.999996337891
280,168,108260,6,0,P|296:100|280:44,1,119.999996337891
176,320,108584,2,0,P|160:252|176:196,1,119.999996337891
380,316,108909,2,0,P|427:265|442:208,1,119.999996337891
168,208,109233,2,0,L|288:216,1,119.999996337891
120,84,109557,6,0,L|-16:92,2,119.999996337891
287,200,110044,2,0,L|155:208,1,119.999996337891
280,36,110368,1,0,0:0:0:0:
424,196,110530,2,0,L|432:324,1,119.999996337891
224,236,110855,5,0,0:0:0:0:
412,68,111017,1,0,0:0:0:0:
168,116,111179,2,0,P|88:116|36:96,1,119.999996337891
152,296,111503,1,0,0:0:0:0:
264,56,111666,1,0,0:0:0:0:
48,104,111828,1,0,0:0:0:0:
82,152,111909,1,0,0:0:0:0:
135,178,111990,1,0,0:0:0:0:
195,183,112071,1,0,0:0:0:0:
250,205,112152,6,0,P|308:232|348:276,1,119.999996337891
456,320,112476,1,0,0:0:0:0:
432,180,112639,2,0,P|374:153|334:109,1,119.999996337891
226,65,112963,1,0,0:0:0:0:
88,232,113125,2,0,P|139:195|197:183,1,119.999996337891
344,196,113449,5,0,0:0:0:0:
72,116,113612,1,0,0:0:0:0:
252,300,113774,2,0,P|312:336|368:336,1,119.999996337891
440,104,114098,2,0,P|380:68|324:68,1,119.999996337891
152,108,114422,2,0,P|88:116|20:92,1,119.999996337891
252,156,114747,6,0,P|316:148|384:172,1,119.999996337891
472,248,115071,1,0,0:0:0:0:
352,292,115233,2,0,P|288:300|220:276,1,119.999996337891
132,200,115557,1,0,0:0:0:0:
304,72,115720,2,0,L|312:200,1,119.999996337891
448,304,116044,6,0,L|456:176,1,119.999996337891
164,44,116368,2,0,L|172:172,1,119.999996337891
188,320,116693,1,0,0:0:0:0:
188,320,116774,1,0,0:0:0:0:
188,320,116855,1,0,0:0:0:0:
340,76,117017,1,0,0:0:0:0:
48,56,117179,1,0,0:0:0:0:
48,56,117260,1,0,0:0:0:0:
48,56,117341,6,0,L|56:184,1,119.999996337891
60,304,117666,1,0,0:0:0:0:
144,96,117828,2,0,L|152:224,1,119.999996337891
156,344,118153,1,0,0:0:0:0:
304,208,118314,2,0,P|360:172|452:156,1,119.999996337891
288,324,118639,5,0,0:0:0:0:
196,108,118801,1,0,0:0:0:0:
468,200,118963,1,0,0:0:0:0:
164,240,119125,1,0,0:0:0:0:
360,60,119287,1,0,0:0:0:0:
400,348,119449,1,0,0:0:0:0:
296,268,119612,2,0,P|256:216|244:164,1,119.999996337891
240,36,119936,6,0,P|240:120|208:176,1,119.999996337891
132,232,120260,1,0,0:0:0:0:
344,48,120422,2,0,P|344:132|312:188,1,119.999996337891
236,244,120746,1,0,0:0:0:0:
80,76,120909,2,0,L|220:68,1,119.999996337891
388,56,121233,5,0,0:0:0:0:
140,156,121395,1,0,0:0:0:0:
348,304,121557,2,0,L|480:312,1,119.999996337891
304,128,121882,1,0,0:0:0:0:
200,332,122044,1,0,0:0:0:0:
464,208,122206,1,0,0:0:0:0:
220,64,122368,1,0,0:0:0:0:
220,64,122449,1,0,0:0:0:0:
220,64,122530,6,0,P|200:124|212:188,2,119.999996337891
364,216,123017,2,0,P|384:276|372:340,2,119.999996337891
72,72,123503,2,0,P|56:168|120:320,1,239.999992675781
220,336,123990,1,0,0:0:0:0:
252,152,124152,2,0,P|240:80|208:40,1,119.999996337891
320,232,124476,2,0,P|345:163|337:113,1,119.999996337891
148,129,124801,5,0,0:0:0:0:
134,187,124882,1,0,0:0:0:0:
143,246,124963,1,0,0:0:0:0:
173,298,125044,1,0,0:0:0:0:
219,335,125125,1,0,0:0:0:0:
320,232,125287,1,0,0:0:0:0:
192,204,125449,1,0,0:0:0:0:
384,336,125612,1,0,0:0:0:0:
236,112,125774,1,0,0:0:0:0:
296,296,125936,1,0,0:0:0:0:
104,268,126098,6,0,B|80:208|100:160|100:160|80:132|80:132|112:112|128:36,1,239.999992675781
12,40,126584,1,0,0:0:0:0:
204,136,126747,1,0,0:0:0:0:
0,184,126909,1,0,0:0:0:0:
280,80,127071,1,0,0:0:0:0:
132,280,127395,6,0,P|160:220|208:184,1,119.999996337891
232,172,127639,1,0,0:0:0:0:
256,168,127720,6,0,P|332:156|364:120,1,119.999996337891
456,32,128044,2,0,L|464:168,3,119.999996337891
344,328,128693,2,0,L|352:192,1,119.999996337891
168,340,129017,6,0,P|224:304|264:252,1,119.999996337891
264,44,129341,2,0,P|208:80|168:132,3,119.999996337891
0,212,129990,2,0,P|28:276|76:316,1,119.999996337891
308,220,130314,6,0,L|160:212,1,119.999996337891
360,120,130639,2,0,L|508:112,3,119.999996337891
288,48,131287,2,0,P|192:80|152:124,1,119.999996337891
160,272,131612,6,0,P|256:240|296:196,1,119.999996337891
52,104,131936,2,0,L|44:248,3,119.999996337891
152,156,132584,1,0,0:0:0:0:
194,130,132665,1,0,0:0:0:0:
242,116,132746,1,0,0:0:0:0:
292,115,132827,1,0,0:0:0:0:
340,127,132909,6,0,P|428:152|500:140,1,119.999996337891
324,256,133233,2,0,P|268:277|208:279,3,119.999996337891
36,148,133882,2,0,P|124:123|196:135,1,119.999996337891
364,152,134206,6,0,L|372:16,1,119.999996337891
256,216,134530,2,0,L|264:352,3,119.999996337891
364,152,135179,2,0,P|312:104|240:88,1,119.999996337891
68,40,135503,6,0,P|83:109|61:179,1,119.999996337891
4,328,135828,2,0,L|144:320,3,119.999996337891
368,208,136476,2,0,L|228:200,1,119.999996337891
76,200,136801,5,0,0:0:0:0:
236,56,136963,1,0,0:0:0:0:
172,284,137125,1,0,0:0:0:0:
136,44,137287,1,0,0:0:0:0:
352,136,137449,1,0,0:0:0:0:
352,136,137530,1,0,0:0:0:0:
352,136,137612,1,0,0:0:0:0:
112,120,137774,5,0,0:0:0:0:
64,135,137855,1,0,0:0:0:0:
29,170,137936,1,0,0:0:0:0:
13,217,138017,1,0,0:0:0:0:
20,266,138098,6,0,P|52:308|124:320,1,100
224,316,138422,1,0,0:0:0:0:
108,220,138584,2,0,P|140:178|212:166,1,100
312,170,138908,1,0,0:0:0:0:
183,163,139071,2,0,P|136:145|107:105,1,100
256,56,139395,6,0,L|372:64,1,100
428,163,139720,1,0,0:0:0:0:
355,265,139882,1,0,0:0:0:0:
236,226,140044,1,0,0:0:0:0:
236,101,140206,1,0,0:0:0:0:
117,62,140368,1,0,0:0:0:0:
44,164,140530,1,0,0:0:0:0:
120,268,140693,6,0,L|240:276,3,100
468,256,141341,2,0,L|348:264,3,100
244,221,141990,5,0,0:0:0:0:
244,91,142152,1,0,0:0:0:0:
368,52,142314,1,0,0:0:0:0:
444,156,142476,1,0,0:0:0:0:
244,91,142639,2,0,P|176:72|100:80,1,100
116,76,142882,1,0,0:0:0:0:
84,96,142963,2,0,P|20:144|-36:148,1,100
156,204,143287,1,0,0:0:0:0:
304,96,153666,6,0,L|176:88,1,100
80,96,153990,1,0,0:0:0:0:
156,200,154152,2,0,L|255:193,1,100
380,200,154476,1,0,0:0:0:0:
256,52,154639,1,0,0:0:0:0:
196,240,154801,6,0,P|168:296|120:336,1,100
24,180,155125,1,0,0:0:0:0:
224,156,155287,1,0,0:0:0:0:
40,48,155449,2,0,L|164:56,1,100
252,84,155774,1,0,0:0:0:0:
408,52,155936,2,0,P|352:96|340:172,1,150
352,208,156260,6,0,P|360:268|344:312,1,100
236,328,156584,1,0,0:0:0:0:
268,160,156747,2,0,P|316:120|368:112,1,100
480,120,157071,1,0,0:0:0:0:
392,284,157233,1,0,0:0:0:0:
236,80,157395,6,0,P|180:56|116:56,1,100
8,120,157720,1,0,0:0:0:0:
208,204,157882,2,0,P|280:196|328:180,1,100
468,56,158206,2,0,P|396:64|348:80,1,100
184,152,158530,1,0,0:0:0:0:
233,145,158611,1,0,0:0:0:0:
282,152,158692,1,0,0:0:0:0:
327,173,158773,1,0,0:0:0:0:
365,206,158855,6,0,P|408:244|464:256,1,110.000003356934
408,108,159179,1,0,0:0:0:0:
276,260,159341,2,0,P|256:332|264:380,1,110.000003356934
144,212,159666,1,0,0:0:0:0:
364,336,159828,1,0,0:0:0:0:
216,128,159990,6,0,L|104:120,1,110.000003356934
0,192,160314,1,0,0:0:0:0:
216,48,160476,1,0,0:0:0:0:
80,268,160639,2,0,L|200:260,1,110.000003356934
308,208,160963,1,0,0:0:0:0:
440,272,161125,2,0,P|404:184|412:96,1,165.000005035401
412,80,161449,6,0,P|348:44|284:48,1,110.000003356934
108,120,161774,2,0,P|172:156|236:152,1,110.000003356934
456,216,162098,2,0,L|340:228,1,110.000003356934
84,288,162422,2,0,L|200:300,1,110.000003356934
352,312,162747,5,0,0:0:0:0:
184,160,162909,1,0,0:0:0:0:
408,216,163071,1,0,0:0:0:0:
108,228,163233,1,0,0:0:0:0:
304,176,163395,1,0,0:0:0:0:
350,148,163476,1,0,0:0:0:0:
380,102,163557,1,0,0:0:0:0:
330,80,163638,1,0,0:0:0:0:
276,74,163719,1,0,0:0:0:0:
222,86,163800,1,0,0:0:0:0:
175,113,163881,1,0,0:0:0:0:
125,134,163963,1,0,0:0:0:0:
70,129,164044,1,0,0:0:0:0:
297,278,165341,6,0,L|305:146,1,119.999996337891
308,44,165666,1,0,0:0:0:0:
120,80,165828,2,0,P|48:84|0:72,2,119.999996337891
304,200,166314,2,0,P|368:164|428:164,1,119.999996337891
240,292,166639,5,0,0:0:0:0:
196,76,166801,1,0,0:0:0:0:
348,308,166963,2,0,L|356:168,1,119.999996337891
144,48,167287,2,0,L|152:188,1,119.999996337891
412,124,167612,2,0,P|360:76|292:52,1,119.999996337891
420,304,167936,6,0,P|360:252|336:192,1,119.999996337891
316,56,168260,1,0,0:0:0:0:
224,188,168422,2,0,P|168:244|92:256,1,119.999996337891
112,72,168747,1,0,0:0:0:0:
308,148,168909,2,0,L|316:284,1,119.999996337891
148,332,169233,5,0,0:0:0:0:
184,84,169395,1,0,0:0:0:0:
388,284,169557,2,0,L|396:152,1,119.999996337891
248,32,169882,2,0,L|260:172,1,119.999996337891
232,328,170206,1,0,0:0:0:0:
176,306,170287,1,0,0:0:0:0:
135,262,170368,1,0,0:0:0:0:
117,206,170449,1,0,0:0:0:0:
124,147,170530,6,0,P|156:84|159:27,1,119.999996337891
16,168,170855,1,0,0:0:0:0:
272,204,171017,2,0,P|356:200|408:168,1,119.999996337891
208,40,171341,1,0,0:0:0:0:
200,252,171503,2,0,P|216:320|248:360,1,119.999996337891
424,240,171828,1,0,0:0:0:0:
180,168,171990,1,0,0:0:0:0:
436,144,172152,5,0,0:0:0:0:
148,236,172314,1,0,0:0:0:0:
456,252,172476,5,0,0:0:0:0:
136,104,172639,1,0,0:0:0:0:
464,96,172801,5,0,0:0:0:0:
84,216,172963,1,0,0:0:0:0:
292,240,173125,6,0,L|412:248,1,119.999996337891
244,112,173449,1,0,0:0:0:0:
144,316,173612,2,0,L|272:308,1,119.999996337891
396,160,173936,1,0,0:0:0:0:
164,52,174098,1,0,0:0:0:0:
444,76,174260,1,0,0:0:0:0:
156,144,174422,5,0,0:0:0:0:
98,161,174503,1,0,0:0:0:0:
51,197,174584,1,0,0:0:0:0:
21,248,174665,1,0,0:0:0:0:
9,307,174746,1,0,0:0:0:0:
67,314,174828,1,0,0:0:0:0:
124,294,174909,5,0,0:0:0:0:
180,280,174990,1,0,0:0:0:0:
240,280,175071,1,0,0:0:0:0:
298,292,175152,1,0,0:0:0:0:
355,310,175233,1,0,0:0:0:0:
414,304,175314,1,0,0:0:0:0:
464,272,175395,1,0,0:0:0:0:
490,218,175476,1,0,0:0:0:0:
485,159,175557,1,0,0:0:0:0:
450,111,175639,1,0,0:0:0:0:
396,88,175720,6,0,P|328:64|284:8,2,119.999996337891
184,84,176206,2,0,P|120:64|24:76,2,119.999996337891
384,252,176693,2,0,P|300:276|216:260,1,119.999996337891
36,192,177017,6,0,P|104:168|192:176,1,119.999996337891
340,188,177341,1,0,0:0:0:0:
56,320,177503,1,0,0:0:0:0:
296,296,177666,2,0,L|480:280,1,179.999994506836
504,276,177990,2,0,P|424:220|400:176,1,119.999996337891
276,40,178314,6,0,L|268:172,2,119.999996337891
160,304,178801,2,0,L|152:172,2,119.999996337891
384,120,179287,2,0,L|376:239,1,119.999996337891
208,312,179612,5,0,0:0:0:0:
332,52,179774,1,0,0:0:0:0:
488,268,179936,2,0,P|408:240|360:240,1,119.999996337891
148,260,180260,1,0,0:0:0:0:
428,156,180422,1,0,0:0:0:0:
112,140,180584,1,0,0:0:0:0:
404,276,180747,1,0,0:0:0:0:
36,232,180909,6,0,L|168:224,1,119.999996337891
416,208,181233,1,0,0:0:0:0:
88,40,181395,2,0,P|140:88|208:116,1,119.999996337891
472,176,181720,1,0,0:0:0:0:
324,80,181882,2,0,P|264:48|188:40,1,119.999996337891
64,168,182206,6,0,L|184:160,1,119.999996337891
348,280,182530,2,0,L|220:272,1,119.999996337891
408,176,182855,2,0,P|452:228|464:300,1,119.999996337891
304,124,183179,2,0,P|356:76|420:60,1,119.999996337891
216,56,183503,6,0,L|80:64,2,119.999996337891
280,192,183990,2,0,L|416:200,2,119.999996337891
248,328,184476,2,0,L|88:312,1,119.999996337891
0,188,184801,6,0,P|72:176|152:136,1,119.999996337891
232,92,185125,1,0,0:0:0:0:
160,264,185287,1,0,0:0:0:0:
120,56,185449,1,0,0:0:0:0:
312,152,185612,1,0,0:0:0:0:
84,272,185774,1,0,0:0:0:0:
196,36,185936,1,0,0:0:0:0:
364,220,186098,6,0,P|432:256|496:268,2,119.999996337891
305,81,186584,2,0,P|253:51|195:35,2,119.999996337891
116,136,187071,2,0,P|30:173|-25:225,1,119.999996337891
244,188,187395,6,0,P|316:216|360:256,1,119.999996337891
192,64,187720,1,0,0:0:0:0:
368,152,187882,1,0,0:0:0:0:
156,168,188044,1,0,0:0:0:0:
336,44,188206,1,0,0:0:0:0:
216,296,188368,1,0,0:0:0:0:
104,48,188530,1,0,0:0:0:0:
304,256,188693,6,0,P|376:304|416:316,2,119.999996337891
132,128,189179,2,0,P|128:200|148:272,1,119.999996337891
212,332,189503,1,0,0:0:0:0:
260,156,189666,2,0,P|244:84|208:36,1,119.999996337891
352,284,189990,6,0,P|404:224|408:156,1,119.999996337891
400,52,190314,1,0,0:0:0:0:
296,184,190476,1,0,0:0:0:0:
488,200,190639,1,0,0:0:0:0:
132,84,190963,5,0,0:0:0:0:
132,84,191044,1,0,0:0:0:0:
132,84,191125,1,0,0:0:0:0:
132,84,191206,1,0,0:0:0:0:
132,84,191287,6,0,P|164:140|172:212,1,119.999996337891
276,336,191612,2,0,P|288:264|328:208,1,119.999996337891
448,84,191936,2,0,P|480:148|484:220,1,119.999996337891
228,136,192260,1,0,0:0:0:0:
392,304,192422,1,0,0:0:0:0:
376,64,192584,6,0,L|236:52,1,119.999996337891
112,232,192909,2,0,L|244:224,1,119.999996337891
0,88,193233,2,0,L|124:96,1,119.999996337891
312,120,193557,1,0,0:0:0:0:
64,180,193720,1,0,0:0:0:0:
272,264,193882,6,0,P|348:268|408:248,1,119.999996337891
172,108,194206,2,0,P|168:176|132:240,1,119.999996337891
332,40,194530,2,0,P|368:108|424:148,1,119.999996337891
512,184,194855,5,0,0:0:0:0:
260,120,195017,1,0,0:0:0:0:
408,280,195179,5,0,0:0:0:0:
172,168,195341,1,0,0:0:0:0:
364,116,195503,5,0,0:0:0:0:
112,240,195666,1,0,0:0:0:0:
392,208,195828,5,0,0:0:0:0:
132,324,195990,1,0,0:0:0:0:
188,60,196152,5,0,0:0:0:0:
284,264,196314,1,0,0:0:0:0:
296,284,196395,1,0,0:0:0:0:
312,296,196476,6,0,P|372:328|456:320,1,119.999996337891
252,144,196801,2,0,P|194:179|159:256,1,119.999996337891
413,168,197125,2,0,P|410:100|361:31,1,119.999996337891
252,144,197449,1,0,0:0:0:0:
312,296,197612,1,0,0:0:0:0:
412,168,197774,6,0,P|348:144|304:84,1,119.999996337891
157,68,198098,2,0,P|168:136|138:204,1,119.999996337891
198,339,198422,2,0,P|251:295|325:287,1,119.999996337891
456,292,198747,1,0,0:0:0:0:
200,200,198909,1,0,0:0:0:0:
440,120,199071,6,0,L|304:112,1,119.999996337891
80,207,199395,2,0,L|216:199,1,119.999996337891
456,292,199720,2,0,L|320:284,1,119.999996337891
108,80,200044,2,0,P|172:120|204:184,1,119.999996337891
216,307,200368,5,0,0:0:0:0:
288,71,200530,1,0,0:0:0:0:
164,272,200693,5,0,0:0:0:0:
344,103,200855,1,0,0:0:0:0:
96,224,201017,5,0,0:0:0:0:
408,152,201179,1,0,0:0:0:0:
116,152,201341,5,0,0:0:0:0:
424,224,201504,1,0,0:0:0:0:
96,224,201666,6,0,L|236:232,1,119.999996337891
0,108,201990,2,0,L|132:100,1,119.999996337891
356,160,202314,2,0,L|216:152,1,119.999996337891
436,96,202639,1,0,0:0:0:0:
236,264,202801,1,0,0:0:0:0:
512,204,202963,6,0,L|364:212,1,119.999996337891
168,112,203287,1,0,0:0:0:0:
356,320,203449,1,0,0:0:0:0:
424,64,203612,1,0,0:0:0:0:
80,132,203774,1,0,0:0:0:0:
