osu file format v14

[General]
AudioFilename: Nigra Ludia.mp3
AudioLeadIn: 0
PreviewTime: 63195
Countdown: 0
SampleSet: Normal
StackLeniency: 0.7
Mode: 1
LetterboxInBreaks: 0
WidescreenStoryboard: 1

[Editor]
DistanceSpacing: 0.6
BeatDivisor: 4
GridSize: 32
TimelineZoom: 3.250001

[Metadata]
Title:Nigra Ludia -Get & Play Senden-you Shouka-ban-
TitleUnicode:Nigra Ludia -ゲット&プレー宣伝用唱歌版-
Artist:Akhuta rejected by Akhuta
ArtistUnicode:Akhuta rejected by Akhuta
Creator:Skull Kid
Version:Rejected Oni
Source:REFLEC BEAT groovin'!!
Tags:we are "try to singers" bemani sorry midnaait
BeatmapID:1688211
BeatmapSetID:804249

[Difficulty]
HPDrainRate:6
CircleSize:4
OverallDifficulty:6.5
ApproachRate:9
SliderMultiplier:1.4
SliderTickRate:1

[Events]
//Background and Video events
0,0,"BG.png",0,0
//Break Periods
//Storyboard Layer 0 (Background)
//Storyboard Layer 1 (Fail)
//Storyboard Layer 2 (Pass)
//Storyboard Layer 3 (Foreground)
//Storyboard Sound Samples

[TimingPoints]
1545,338.983050847458,3,1,0,70,1,0
1714,-98.0392156862745,3,1,0,70,0,0
2053,-96.1538461538461,3,1,0,70,0,0
2222,-94.3396226415094,3,1,0,70,0,0
2392,-92.5925925925926,3,1,0,70,0,0
2561,-90.9090909090909,3,1,0,70,0,0
2731,-98.0392156862745,3,1,0,70,0,0
3070,-96.1538461538461,3,1,0,70,0,0
3239,-94.3396226415094,3,1,0,70,0,0
3409,-92.5925925925926,3,1,0,70,0,0
3578,-90.9090909090909,3,1,0,70,0,0
3748,-98.0392156862745,3,1,0,70,0,0
4087,-96.1538461538461,3,1,0,70,0,0
4256,-94.3396226415094,3,1,0,70,0,0
4426,-92.5925925925926,3,1,0,70,0,0
4595,-90.9090909090909,3,1,0,70,0,0
5443,-90.9090909090909,3,1,0,80,0,0
7816,-86.9565217391304,3,1,0,80,0,0
7985,-83.3333333333333,3,1,0,80,0,0
8155,-80,3,1,0,80,0,0
8324,-76.9230769230769,3,1,0,80,0,0
8494,-74.0740740740741,3,1,0,80,0,0
8663,338.983050847458,5,1,0,80,1,0
8663,-71.4285714285714,5,1,0,80,0,0
8747,-25,5,1,0,5,0,0
9764,-90.9090909090909,5,1,0,40,0,0
10188,-90.9090909090909,5,1,0,80,0,0
10357,338.983050847458,4,1,0,80,1,1
10357,-90.9090909090909,4,1,0,80,0,1
17729,-90.0900900900901,4,1,0,80,0,1
17814,-89.2857142857143,4,1,0,80,0,1
17899,-88.4955752212389,4,1,0,80,0,1
17984,-87.719298245614,4,1,0,80,0,1
18068,-86.9565217391304,4,1,0,80,0,1
18153,-86.2068965517241,4,1,0,80,0,1
18238,-85.4700854700855,4,1,0,80,0,1
18323,-84.7457627118644,4,1,0,80,0,1
18407,-84.0336134453781,4,1,0,80,0,1
18492,-83.3333333333333,4,1,0,80,0,0
19001,-86.9565217391304,4,1,0,80,0,1
19085,-86.9565217391304,4,1,0,80,0,0
19509,-90.9090909090909,4,1,0,80,0,1
19594,-90.9090909090909,4,1,0,80,0,0
19848,-95.2380952380952,4,1,0,80,0,0
20018,-95.2380952380952,4,1,0,80,0,1
20102,-95.2380952380952,4,1,0,80,0,0
20526,-100,4,1,0,80,0,1
20611,-25,4,1,0,5,0,1
20695,-100,4,1,0,5,0,1
21797,-83.3333333333333,4,1,0,80,0,1
22136,-90.9090909090909,4,1,0,70,0,1
22475,-100,4,1,0,60,0,1
22560,-100,4,1,0,60,0,0
24763,-99.009900990099,4,1,0,60,0,0
25441,-98.0392156862745,4,1,0,60,0,0
25611,-97.0873786407767,4,1,0,60,0,0
25780,-96.1538461538461,4,1,0,60,0,0
26458,-95.2380952380952,4,1,0,60,0,0
27475,-94.3396226415094,4,1,0,60,0,0
27560,-93.4579439252336,4,1,0,60,0,0
27645,-92.5925925925926,4,1,0,60,0,0
27814,-91.743119266055,4,1,0,60,0,0
27899,-90.9090909090909,4,1,0,70,0,0
33238,-90.9090909090909,4,1,0,5,0,0
33407,338.983050847458,4,1,0,5,1,8
34762,338.983050847458,4,1,0,5,1,8
35609,-66.6666666666667,4,1,0,80,0,8
36117,338.983050847458,4,1,0,80,1,8
36119,338.983050847458,4,1,0,80,1,0
36119,-90.9090909090909,4,1,0,80,0,0
46542,-86.9565217391304,4,1,0,80,0,0
46796,-83.3333333333333,4,1,0,80,0,0
46966,-80,4,1,0,80,0,0
55271,-80.6451612903226,4,1,0,80,0,0
55356,-81.3008130081301,4,1,0,80,0,0
55441,-81.9672131147541,4,1,0,80,0,0
55610,-82.6446280991736,4,1,0,80,0,0
55780,-83.3333333333333,4,1,0,80,0,0
55864,-84.0336134453781,4,1,0,80,0,0
55949,-84.7457627118644,4,1,0,80,0,0
56119,-85.4700854700855,4,1,0,80,0,0
56288,-86.2068965517241,4,1,0,80,0,0
56373,-86.9565217391304,4,1,0,80,0,0
56457,-87.719298245614,4,1,0,80,0,0
56627,-88.4955752212389,4,1,0,80,0,0
56796,-89.2857142857143,4,1,0,80,0,0
56909,-90.0900900900901,4,1,0,80,0,0
57022,-90.9090909090909,4,1,0,80,0,0
57135,-91.743119266055,4,1,0,80,0,0
57248,-92.5925925925926,4,1,0,80,0,0
57361,-93.4579439252336,4,1,0,80,0,0
57474,-94.3396226415094,4,1,0,80,0,0
57587,-95.2380952380952,4,1,0,80,0,0
57700,-96.1538461538461,4,1,0,80,0,0
57813,-97.0873786407767,4,1,0,80,0,0
57898,-25,4,1,0,5,0,0
58915,-90.9090909090909,4,1,0,50,0,0
59141,-90.9090909090909,4,1,0,70,0,0
60441,-83.3333333333333,4,1,0,80,0,0
60525,-83.3333333333333,4,1,0,80,0,1
60610,-90.9090909090909,4,1,0,70,0,0
61119,-83.3333333333333,4,1,0,80,0,0
61203,-83.3333333333333,4,1,0,80,0,1
61288,-90.9090909090909,4,1,0,70,0,0
61796,-83.3333333333333,4,1,0,80,0,0
61881,-83.3333333333333,4,1,0,80,0,1
61966,-83.3333333333333,4,1,0,80,0,0
62220,-76.9230769230769,4,1,0,80,0,1
62305,-76.9230769230769,4,1,0,80,0,0
62559,-71.4285714285714,4,1,0,80,0,1
62644,-71.4285714285714,4,1,0,80,0,0
62729,-66.6666666666667,4,1,0,5,0,0
63068,-66.6666666666667,4,1,0,80,0,0
63237,-90.9090909090909,4,1,0,80,0,1
68152,-90.0900900900901,4,1,0,80,0,1
68237,-89.2857142857143,4,1,0,80,0,1
68322,-88.4955752212389,4,1,0,80,0,1
68491,-87.719298245614,4,1,0,80,0,1
68661,-86.9565217391304,4,1,0,80,0,1
69508,-86.2068965517241,4,1,0,80,0,1
69593,-85.4700854700855,4,1,0,80,0,1
69678,-84.7457627118644,4,1,0,80,0,1
69847,-84.0336134453781,4,1,0,80,0,1
70017,-83.3333333333333,4,1,0,80,0,1
70864,-82.6446280991736,4,1,0,80,0,1
70949,-81.9672131147541,4,1,0,80,0,1
71034,-81.3008130081301,4,1,0,80,0,1
71203,-80.6451612903226,4,1,0,80,0,1
71373,-80,4,1,0,80,0,1
71542,-79.3650793650794,4,1,0,80,0,1
71627,-78.7401574803149,4,1,0,80,0,1
71712,-78.125,4,1,0,80,0,1
71881,-77.5193798449612,4,1,0,80,0,1
72051,-76.9230769230769,4,1,0,80,0,1
72220,-76.3358778625954,4,1,0,80,0,1
72305,-75.7575757575758,4,1,0,80,0,1
72390,-75.187969924812,4,1,0,80,0,1
72559,-74.6268656716418,4,1,0,80,0,1
72729,-74.0740740740741,4,1,0,80,0,1
72898,-74.6268656716418,4,1,0,80,0,1
72983,-75.7575757575758,4,1,0,80,0,1
73068,-76.9230769230769,4,1,0,80,0,1
73152,-78.125,4,1,0,80,0,1
73237,-79.3650793650794,4,1,0,80,0,1
73322,-80.6451612903226,4,1,0,80,0,1
73407,-81.9672131147541,4,1,0,80,0,1
73491,-83.3333333333333,4,1,0,80,0,1
73576,-84.7457627118644,4,1,0,80,0,1
73661,-86.2068965517241,4,1,0,80,0,1
73746,-87.719298245614,4,1,0,80,0,1
73915,-89.2857142857143,4,1,0,80,0,1
74085,-90.9090909090909,4,1,0,80,0,1
79000,-90.0900900900901,4,1,0,80,0,1
79085,-89.2857142857143,4,1,0,80,0,1
79169,-88.4955752212389,4,1,0,80,0,1
79339,-87.719298245614,4,1,0,80,0,1
79508,-86.9565217391304,4,1,0,80,0,1
80356,-86.2068965517241,4,1,0,80,0,1
80441,-85.4700854700855,4,1,0,80,0,1
80525,-84.7457627118644,4,1,0,80,0,1
80695,-84.0336134453781,4,1,0,80,0,1
80864,-83.3333333333333,4,1,0,80,0,1
81712,-82.6446280991736,4,1,0,80,0,1
81796,-81.9672131147541,4,1,0,80,0,1
81881,-81.3008130081301,4,1,0,80,0,1
82051,-80.6451612903226,4,1,0,80,0,1
82220,-80,4,1,0,80,0,0
82390,-79.3650793650794,4,1,0,80,0,0
82474,-78.7401574803149,4,1,0,80,0,0
82559,-78.125,4,1,0,80,0,0
82729,-77.5193798449612,4,1,0,80,0,0
82898,-76.9230769230769,4,1,0,80,0,1
82983,-76.9230769230769,4,1,0,80,0,0
83068,-76.3358778625954,4,1,0,80,0,0
83152,-75.7575757575758,4,1,0,80,0,0
83237,-75.187969924812,4,1,0,80,0,0
83407,-74.6268656716418,4,1,0,80,0,0
83576,-74.0740740740741,4,1,0,80,0,1
83661,-74.0740740740741,4,1,0,80,0,0
83915,-71.4285714285714,4,1,0,80,0,1
84000,-71.4285714285714,4,1,0,80,0,0
84254,-68.9655172413793,4,1,0,80,0,1
84339,-68.9655172413793,4,1,0,70,0,0
84424,-85.4700854700855,4,1,0,70,0,0
84508,-86.2068965517241,4,1,0,70,0,0
84593,-86.9565217391304,4,1,0,70,0,0
84678,-87.719298245614,4,1,0,70,0,0
84763,-88.4955752212389,4,1,0,70,0,0
84847,-90.0900900900901,4,1,0,70,0,0
84932,-90.9090909090909,4,1,0,70,0,0
97051,-83.3333333333333,4,1,0,80,0,0
97135,-83.3333333333333,4,1,0,80,0,1
97220,-90.9090909090909,4,1,0,70,0,0
97729,-83.3333333333333,4,1,0,80,0,0
97813,-83.3333333333333,4,1,0,80,0,1
97898,-90.9090909090909,4,1,0,70,0,0
98407,-83.3333333333333,4,1,0,80,0,0
98491,-83.3333333333333,4,1,0,80,0,1
98576,-83.3333333333333,4,1,0,80,0,0
98830,-76.9230769230769,4,1,0,80,0,1
98915,-76.9230769230769,4,1,0,80,0,0
99169,-71.4285714285714,4,1,0,80,0,1
99254,-71.4285714285714,4,1,0,80,0,0
99339,-66.6666666666667,4,1,0,5,0,0

[HitObjects]
256,192,1545,5,12,0:0:0:0:
256,192,1714,1,0,0:0:0:0:
256,192,1799,1,0,0:0:0:0:
256,192,1883,1,0,0:0:0:0:
256,192,2053,1,12,0:0:0:0:
256,192,2222,1,4,0:0:0:0:
256,192,2392,1,4,0:0:0:0:
256,192,2561,1,12,0:0:0:0:
256,192,2731,1,0,0:0:0:0:
256,192,2816,1,8,0:0:0:0:
256,192,2900,1,0,0:0:0:0:
256,192,3070,1,12,0:0:0:0:
256,192,3239,1,12,0:0:0:0:
256,192,3409,1,4,0:0:0:0:
256,192,3578,1,12,0:0:0:0:
256,192,3748,1,0,0:0:0:0:
256,192,3833,1,0,0:0:0:0:
256,192,3917,1,0,0:0:0:0:
256,192,4087,1,12,0:0:0:0:
256,192,4256,1,12,0:0:0:0:
256,192,4426,1,12,0:0:0:0:
256,192,4595,1,4,0:0:0:0:
256,192,4934,1,12,0:0:0:0:
256,192,5273,1,4,0:0:0:0:
256,192,5612,1,12,0:0:0:0:
256,192,5782,1,0,0:0:0:0:
256,192,5867,1,0,0:0:0:0:
256,192,5951,1,8,0:0:0:0:
256,192,6121,1,0,0:0:0:0:
256,192,6206,1,0,0:0:0:0:
256,192,6290,1,8,0:0:0:0:
256,192,6375,1,0,0:0:0:0:
256,192,6460,1,8,0:0:0:0:
256,192,6545,1,8,0:0:0:0:
256,192,6629,1,0,0:0:0:0:
256,192,6799,1,8,0:0:0:0:
256,192,6883,1,0,0:0:0:0:
256,192,6968,1,8,0:0:0:0:
256,192,7138,1,0,0:0:0:0:
256,192,7222,1,0,0:0:0:0:
256,192,7307,1,8,0:0:0:0:
256,192,7392,1,8,0:0:0:0:
256,192,7477,1,8,0:0:0:0:
256,192,7561,1,8,0:0:0:0:
256,192,7646,1,0,0:0:0:0:
256,192,7816,1,8,0:0:0:0:
256,192,7985,1,8,0:0:0:0:
256,192,8155,1,0,0:0:0:0:
256,192,8324,1,8,0:0:0:0:
256,192,8494,1,8,0:0:0:0:
256,192,8663,1,4,0:0:0:0:
256,192,8747,12,0,9679,0:0:0:0:
256,192,9849,5,0,0:0:0:0:
256,192,9905,1,0,0:0:0:0:
256,192,9962,1,0,0:0:0:0:
256,192,10018,1,8,0:0:0:0:
256,192,10357,1,8,0:0:0:0:
256,192,10441,1,0,0:0:0:0:
256,192,10526,1,0,0:0:0:0:
256,192,10611,1,0,0:0:0:0:
256,192,10695,1,8,0:0:0:0:
256,192,10780,1,8,0:0:0:0:
256,192,10865,1,0,0:0:0:0:
256,192,10950,1,8,0:0:0:0:
256,192,11034,1,0,0:0:0:0:
256,192,11119,1,0,0:0:0:0:
256,192,11204,1,8,0:0:0:0:
256,192,11289,1,0,0:0:0:0:
256,192,11373,1,8,0:0:0:0:
256,192,11458,1,8,0:0:0:0:
256,192,11543,1,0,0:0:0:0:
256,192,11628,1,0,0:0:0:0:
256,192,11712,1,8,0:0:0:0:
256,192,11797,1,0,0:0:0:0:
256,192,11882,1,0,0:0:0:0:
256,192,11967,1,0,0:0:0:0:
256,192,12051,1,8,0:0:0:0:
256,192,12136,1,8,0:0:0:0:
256,192,12221,1,0,0:0:0:0:
256,192,12306,1,8,0:0:0:0:
256,192,12390,1,0,0:0:0:0:
256,192,12475,1,0,0:0:0:0:
256,192,12560,1,8,0:0:0:0:
256,192,12645,1,0,0:0:0:0:
256,192,12729,1,8,0:0:0:0:
256,192,12814,1,8,0:0:0:0:
256,192,12899,1,0,0:0:0:0:
256,192,12984,1,0,0:0:0:0:
256,192,13068,1,8,0:0:0:0:
256,192,13153,1,0,0:0:0:0:
256,192,13238,1,8,0:0:0:0:
256,192,13323,1,8,0:0:0:0:
256,192,13407,1,0,0:0:0:0:
256,192,13492,1,8,0:0:0:0:
256,192,13577,1,0,0:0:0:0:
256,192,13662,1,0,0:0:0:0:
256,192,13746,1,8,0:0:0:0:
256,192,13831,1,0,0:0:0:0:
256,192,13916,1,8,0:0:0:0:
256,192,14001,1,8,0:0:0:0:
256,192,14085,1,0,0:0:0:0:
256,192,14170,1,8,0:0:0:0:
256,192,14255,1,0,0:0:0:0:
256,192,14340,1,0,0:0:0:0:
256,192,14424,1,8,0:0:0:0:
256,192,14509,1,8,0:0:0:0:
256,192,14594,1,0,0:0:0:0:
256,192,14679,1,8,0:0:0:0:
256,192,14763,1,0,0:0:0:0:
256,192,14848,1,0,0:0:0:0:
256,192,14933,1,8,0:0:0:0:
256,192,15018,1,8,0:0:0:0:
256,192,15102,1,0,0:0:0:0:
256,192,15187,1,0,0:0:0:0:
256,192,15272,1,8,0:0:0:0:
256,192,15357,1,0,0:0:0:0:
256,192,15441,1,8,0:0:0:0:
256,192,15526,1,8,0:0:0:0:
256,192,15611,1,0,0:0:0:0:
256,192,15695,1,0,0:0:0:0:
256,192,15780,1,8,0:0:0:0:
256,192,15865,1,0,0:0:0:0:
256,192,15950,1,0,0:0:0:0:
256,192,16034,1,0,0:0:0:0:
256,192,16119,1,8,0:0:0:0:
256,192,16204,1,8,0:0:0:0:
256,192,16289,1,0,0:0:0:0:
256,192,16373,1,8,0:0:0:0:
256,192,16458,1,0,0:0:0:0:
256,192,16543,1,0,0:0:0:0:
256,192,16628,1,8,0:0:0:0:
256,192,16712,1,0,0:0:0:0:
256,192,16797,1,8,0:0:0:0:
256,192,16882,1,8,0:0:0:0:
256,192,16967,1,0,0:0:0:0:
256,192,17051,1,0,0:0:0:0:
256,192,17136,1,8,0:0:0:0:
256,192,17221,1,0,0:0:0:0:
256,192,17306,1,0,0:0:0:0:
256,192,17390,1,0,0:0:0:0:
256,192,17475,1,8,0:0:0:0:
256,192,17560,1,8,0:0:0:0:
256,192,17645,1,0,0:0:0:0:
256,192,17729,1,8,0:0:0:0:
256,192,17814,1,0,0:0:0:0:
256,192,17899,1,0,0:0:0:0:
256,192,17984,1,8,0:0:0:0:
256,192,18068,1,0,0:0:0:0:
256,192,18153,1,8,0:0:0:0:
256,192,18238,1,8,0:0:0:0:
256,192,18323,1,8,0:0:0:0:
256,192,18407,1,8,0:0:0:0:
256,192,18492,1,4,0:0:0:0:
256,192,19001,1,4,0:0:0:0:
256,192,19509,1,4,0:0:0:0:
256,192,20018,1,4,0:0:0:0:
256,192,20526,1,12,0:0:0:0:
256,192,20611,12,0,21712,0:0:0:0:
256,192,21882,5,12,0:0:0:0:
256,192,22221,1,12,0:0:0:0:
256,192,22560,1,4,0:0:0:0:
256,192,22729,1,8,0:0:0:0:
256,192,22899,1,0,0:0:0:0:
256,192,22984,1,0,0:0:0:0:
256,192,23068,1,8,0:0:0:0:
256,192,23153,1,8,0:0:0:0:
256,192,23238,1,0,0:0:0:0:
256,192,23407,1,8,0:0:0:0:
256,192,23492,1,8,0:0:0:0:
256,192,23577,1,0,0:0:0:0:
256,192,23662,1,8,0:0:0:0:
256,192,23831,1,0,0:0:0:0:
256,192,23916,1,8,0:0:0:0:
256,192,24001,1,8,0:0:0:0:
256,192,24170,1,0,0:0:0:0:
256,192,24255,1,8,0:0:0:0:
256,192,24340,1,0,0:0:0:0:
256,192,24424,1,8,0:0:0:0:
256,192,24509,1,8,0:0:0:0:
256,192,24594,1,0,0:0:0:0:
256,192,24763,1,8,0:0:0:0:
256,192,24848,1,0,0:0:0:0:
256,192,24933,1,8,0:0:0:0:
256,192,25018,1,8,0:0:0:0:
256,192,25102,1,0,0:0:0:0:
256,192,25187,1,8,0:0:0:0:
256,192,25272,1,0,0:0:0:0:
256,192,25441,1,0,0:0:0:0:
256,192,25611,1,8,0:0:0:0:
256,192,25780,1,0,0:0:0:0:
256,192,25865,1,0,0:0:0:0:
256,192,25950,1,8,0:0:0:0:
256,192,26034,1,0,0:0:0:0:
256,192,26119,1,8,0:0:0:0:
256,192,26204,1,8,0:0:0:0:
256,192,26289,1,0,0:0:0:0:
256,192,26458,1,8,0:0:0:0:
256,192,26543,1,0,0:0:0:0:
256,192,26628,1,8,0:0:0:0:
256,192,26712,1,8,0:0:0:0:
256,192,26797,1,0,0:0:0:0:
256,192,26882,1,8,0:0:0:0:
256,192,26967,1,0,0:0:0:0:
256,192,27051,1,0,0:0:0:0:
256,192,27136,1,8,0:0:0:0:
256,192,27221,1,8,0:0:0:0:
256,192,27306,1,0,0:0:0:0:
256,192,27475,1,8,0:0:0:0:
256,192,27560,1,0,0:0:0:0:
256,192,27645,1,8,0:0:0:0:
256,192,27814,1,8,0:0:0:0:
256,192,27984,1,4,0:0:0:0:
256,192,28153,1,0,0:0:0:0:
256,192,28238,1,0,0:0:0:0:
256,192,28323,1,8,0:0:0:0:
256,192,28492,1,8,0:0:0:0:
256,192,28662,1,0,0:0:0:0:
256,192,28718,1,8,0:0:0:0:
256,192,28775,1,8,0:0:0:0:
256,192,28831,1,0,0:0:0:0:
256,192,28916,1,0,0:0:0:0:
256,192,29001,1,8,0:0:0:0:
256,192,29170,1,8,0:0:0:0:
256,192,29340,1,4,0:0:0:0:
256,192,29509,1,0,0:0:0:0:
256,192,29594,1,0,0:0:0:0:
256,192,29679,1,8,0:0:0:0:
256,192,29848,1,8,0:0:0:0:
256,192,30018,1,0,0:0:0:0:
256,192,30074,1,8,0:0:0:0:
256,192,30131,1,8,0:0:0:0:
256,192,30187,1,0,0:0:0:0:
256,192,30272,1,0,0:0:0:0:
256,192,30357,1,8,0:0:0:0:
256,192,30526,1,0,0:0:0:0:
256,192,30611,1,8,0:0:0:0:
256,192,30695,1,0,0:0:0:0:
256,192,30865,1,8,0:0:0:0:
256,192,30950,1,8,0:0:0:0:
256,192,31034,1,0,0:0:0:0:
256,192,31204,1,8,0:0:0:0:
256,192,31289,1,0,0:0:0:0:
256,192,31373,1,8,0:0:0:0:
256,192,31458,1,8,0:0:0:0:
256,192,31543,1,0,0:0:0:0:
256,192,31628,1,8,0:0:0:0:
256,192,31712,1,0,0:0:0:0:
256,192,31797,1,0,0:0:0:0:
256,192,31882,1,8,0:0:0:0:
256,192,31967,1,8,0:0:0:0:
256,192,32051,1,0,0:0:0:0:
256,192,32221,1,8,0:0:0:0:
256,192,32306,1,0,0:0:0:0:
256,192,32390,1,8,0:0:0:0:
256,192,32560,1,0,0:0:0:0:
256,192,32729,1,12,0:0:0:0:
256,192,32899,1,12,0:0:0:0:
256,192,33068,1,4,0:0:0:0:
256,192,35779,1,12,0:0:0:0:
256,192,36119,1,0,0:0:0:0:
256,192,36203,1,0,0:0:0:0:
256,192,36288,1,8,0:0:0:0:
256,192,36457,1,0,0:0:0:0:
256,192,36542,1,8,0:0:0:0:
256,192,36627,1,0,0:0:0:0:
256,192,36796,1,8,0:0:0:0:
256,192,36881,1,8,0:0:0:0:
256,192,36966,1,0,0:0:0:0:
256,192,37051,1,0,0:0:0:0:
256,192,37135,1,8,0:0:0:0:
256,192,37305,1,0,0:0:0:0:
256,192,37390,1,0,0:0:0:0:
256,192,37474,1,8,0:0:0:0:
256,192,37559,1,0,0:0:0:0:
256,192,37644,1,8,0:0:0:0:
256,192,37729,1,8,0:0:0:0:
256,192,37813,1,0,0:0:0:0:
256,192,37983,1,8,0:0:0:0:
256,192,38068,1,0,0:0:0:0:
256,192,38152,1,8,0:0:0:0:
256,192,38237,1,8,0:0:0:0:
256,192,38322,1,0,0:0:0:0:
256,192,38407,1,8,0:0:0:0:
256,192,38491,1,0,0:0:0:0:
256,192,38661,1,8,0:0:0:0:
256,192,38830,1,0,0:0:0:0:
256,192,38915,1,8,0:0:0:0:
256,192,39000,1,0,0:0:0:0:
256,192,39169,1,8,0:0:0:0:
256,192,39254,1,8,0:0:0:0:
256,192,39339,1,0,0:0:0:0:
256,192,39424,1,0,0:0:0:0:
256,192,39508,1,8,0:0:0:0:
256,192,39678,1,0,0:0:0:0:
256,192,39763,1,0,0:0:0:0:
256,192,39847,1,8,0:0:0:0:
256,192,39932,1,0,0:0:0:0:
256,192,40017,1,8,0:0:0:0:
256,192,40102,1,8,0:0:0:0:
256,192,40186,1,0,0:0:0:0:
256,192,40356,1,8,0:0:0:0:
256,192,40441,1,0,0:0:0:0:
256,192,40610,1,0,0:0:0:0:
256,192,40695,1,8,0:0:0:0:
256,192,40780,1,8,0:0:0:0:
256,192,40864,1,0,0:0:0:0:
256,192,41034,1,8,0:0:0:0:
256,192,41119,1,0,0:0:0:0:
256,192,41203,1,8,0:0:0:0:
256,192,41373,1,0,0:0:0:0:
256,192,41542,1,8,0:0:0:0:
256,192,41627,1,0,0:0:0:0:
256,192,41712,1,8,0:0:0:0:
256,192,41796,1,8,0:0:0:0:
256,192,41881,1,0,0:0:0:0:
256,192,41966,1,0,0:0:0:0:
256,192,42051,1,8,0:0:0:0:
256,192,42135,1,0,0:0:0:0:
256,192,42220,1,8,0:0:0:0:
256,192,42305,1,8,0:0:0:0:
256,192,42390,1,0,0:0:0:0:
256,192,42474,1,8,0:0:0:0:
256,192,42559,1,0,0:0:0:0:
256,192,42729,1,0,0:0:0:0:
256,192,42898,1,8,0:0:0:0:
256,192,42983,1,8,0:0:0:0:
256,192,43068,1,0,0:0:0:0:
256,192,43152,1,8,0:0:0:0:
256,192,43237,1,0,0:0:0:0:
256,192,43322,1,0,0:0:0:0:
256,192,43407,1,8,0:0:0:0:
256,192,43491,1,0,0:0:0:0:
256,192,43576,1,8,0:0:0:0:
256,192,43661,1,8,0:0:0:0:
256,192,43746,1,0,0:0:0:0:
256,192,43830,1,8,0:0:0:0:
256,192,43915,1,0,0:0:0:0:
256,192,44085,1,8,0:0:0:0:
256,192,44169,1,8,0:0:0:0:
256,192,44254,1,0,0:0:0:0:
256,192,44424,1,8,0:0:0:0:
256,192,44593,1,0,0:0:0:0:
256,192,44678,1,8,0:0:0:0:
256,192,44763,1,0,0:0:0:0:
256,192,44932,1,8,0:0:0:0:
256,192,45017,1,8,0:0:0:0:
256,192,45102,1,0,0:0:0:0:
256,192,45186,1,0,0:0:0:0:
256,192,45271,1,8,0:0:0:0:
256,192,45441,1,0,0:0:0:0:
256,192,45525,1,8,0:0:0:0:
256,192,45610,1,8,0:0:0:0:
256,192,45695,1,0,0:0:0:0:
256,192,45780,1,8,0:0:0:0:
256,192,45949,1,0,0:0:0:0:
256,192,46034,1,8,0:0:0:0:
256,192,46119,1,8,0:0:0:0:
256,192,46288,1,4,0:0:0:0:
256,192,46542,1,12,0:0:0:0:
256,192,46796,1,12,0:0:0:0:
256,192,46966,1,4,0:0:0:0:
256,192,47220,1,0,0:0:0:0:
256,192,47305,1,8,0:0:0:0:
256,192,47474,1,0,0:0:0:0:
256,192,47644,1,12,0:0:0:0:
256,192,47898,1,12,0:0:0:0:
256,192,48152,1,4,0:0:0:0:
256,192,48491,1,8,0:0:0:0:
256,192,48576,1,8,0:0:0:0:
256,192,48661,1,0,0:0:0:0:
256,192,48830,1,0,0:0:0:0:
256,192,49000,1,12,0:0:0:0:
256,192,49254,1,12,0:0:0:0:
256,192,49508,1,12,0:0:0:0:
256,192,49678,1,4,0:0:0:0:
256,192,49847,1,8,0:0:0:0:
256,192,49932,1,8,0:0:0:0:
256,192,50017,1,0,0:0:0:0:
256,192,50186,1,0,0:0:0:0:
256,192,50356,1,12,0:0:0:0:
256,192,50610,1,12,0:0:0:0:
256,192,50864,1,4,0:0:0:0:
256,192,51203,1,8,0:0:0:0:
256,192,51288,1,0,0:0:0:0:
256,192,51373,1,8,0:0:0:0:
256,192,51542,1,0,0:0:0:0:
256,192,51712,1,8,0:0:0:0:
256,192,51796,1,8,0:0:0:0:
256,192,51881,1,0,0:0:0:0:
256,192,51966,1,0,0:0:0:0:
256,192,52051,1,8,0:0:0:0:
256,192,52220,1,8,0:0:0:0:
256,192,52390,1,4,0:0:0:0:
256,192,52644,1,0,0:0:0:0:
256,192,52729,1,8,0:0:0:0:
256,192,52898,1,0,0:0:0:0:
256,192,53068,1,12,0:0:0:0:
256,192,53322,1,12,0:0:0:0:
256,192,53576,1,4,0:0:0:0:
256,192,53915,1,8,0:0:0:0:
256,192,54000,1,8,0:0:0:0:
256,192,54085,1,0,0:0:0:0:
256,192,54254,1,0,0:0:0:0:
256,192,54424,1,8,0:0:0:0:
256,192,54508,1,8,0:0:0:0:
256,192,54593,1,0,0:0:0:0:
256,192,54678,1,0,0:0:0:0:
256,192,54763,1,8,0:0:0:0:
256,192,54932,1,8,0:0:0:0:
256,192,55102,1,4,0:0:0:0:
256,192,55271,1,8,0:0:0:0:
256,192,55356,1,8,0:0:0:0:
256,192,55441,1,8,0:0:0:0:
256,192,55610,1,0,0:0:0:0:
256,192,55780,1,8,0:0:0:0:
256,192,55864,1,0,0:0:0:0:
256,192,55949,1,8,0:0:0:0:
256,192,56119,1,0,0:0:0:0:
256,192,56288,1,8,0:0:0:0:
256,192,56373,1,8,0:0:0:0:
256,192,56457,1,0,0:0:0:0:
256,192,56627,1,8,0:0:0:0:
256,192,56796,1,0,0:0:0:0:
256,192,56909,1,8,0:0:0:0:
256,192,57022,1,0,0:0:0:0:
256,192,57135,1,8,0:0:0:0:
256,192,57248,1,0,0:0:0:0:
256,192,57361,1,8,0:0:0:0:
256,192,57474,1,0,0:0:0:0:
256,192,57587,1,8,0:0:0:0:
256,192,57700,1,0,0:0:0:0:
256,192,57813,1,12,0:0:0:0:
256,192,57898,12,0,58830,0:0:0:0:
256,192,59000,5,0,0:0:0:0:
256,192,59056,1,0,0:0:0:0:
256,192,59113,1,0,0:0:0:0:
256,192,59169,1,8,0:0:0:0:
256,192,59339,1,0,0:0:0:0:
256,192,59424,1,8,0:0:0:0:
256,192,59593,1,8,0:0:0:0:
256,192,59678,1,8,0:0:0:0:
256,192,59847,1,0,0:0:0:0:
256,192,59932,1,0,0:0:0:0:
256,192,60017,1,8,0:0:0:0:
256,192,60102,1,8,0:0:0:0:
256,192,60186,1,0,0:0:0:0:
256,192,60356,1,0,0:0:0:0:
256,192,60525,1,12,0:0:0:0:
256,192,60780,1,0,0:0:0:0:
256,192,60864,1,8,0:0:0:0:
256,192,61034,1,0,0:0:0:0:
256,192,61203,1,12,0:0:0:0:
256,192,61373,1,8,0:0:0:0:
256,192,61457,1,8,0:0:0:0:
256,192,61542,1,0,0:0:0:0:
256,192,61712,1,0,0:0:0:0:
256,192,61881,1,12,0:0:0:0:
256,192,62220,1,12,0:0:0:0:
256,192,62559,1,12,0:0:0:0:
160,192,62898,2,4,L|224:192,1,1E-06
256,192,63237,1,4,0:0:0:0:
256,192,63491,1,8,0:0:0:0:
256,192,63576,1,0,0:0:0:0:
256,192,63746,1,8,0:0:0:0:
256,192,63915,1,0,0:0:0:0:
256,192,64085,1,8,0:0:0:0:
256,192,64169,1,8,0:0:0:0:
256,192,64254,1,0,0:0:0:0:
256,192,64339,1,0,0:0:0:0:
256,192,64424,1,8,0:0:0:0:
256,192,64593,1,0,0:0:0:0:
256,192,64763,1,8,0:0:0:0:
256,192,64847,1,0,0:0:0:0:
256,192,65017,1,0,0:0:0:0:
256,192,65102,1,8,0:0:0:0:
256,192,65271,1,0,0:0:0:0:
256,192,65356,1,0,0:0:0:0:
256,192,65441,1,8,0:0:0:0:
256,192,65525,1,8,0:0:0:0:
256,192,65610,1,0,0:0:0:0:
256,192,65780,1,8,0:0:0:0:
256,192,65949,1,4,0:0:0:0:
256,192,66119,1,8,0:0:0:0:
256,192,66203,1,0,0:0:0:0:
256,192,66373,1,0,0:0:0:0:
256,192,66457,1,8,0:0:0:0:
256,192,66627,1,0,0:0:0:0:
256,192,66796,1,8,0:0:0:0:
256,192,66881,1,8,0:0:0:0:
256,192,66966,1,0,0:0:0:0:
256,192,67051,1,0,0:0:0:0:
256,192,67135,1,8,0:0:0:0:
256,192,67305,1,0,0:0:0:0:
256,192,67474,1,8,0:0:0:0:
256,192,67559,1,0,0:0:0:0:
256,192,67729,1,0,0:0:0:0:
256,192,67813,1,8,0:0:0:0:
256,192,67983,1,0,0:0:0:0:
256,192,68068,1,0,0:0:0:0:
256,192,68152,1,8,0:0:0:0:
256,192,68237,1,8,0:0:0:0:
256,192,68322,1,0,0:0:0:0:
256,192,68491,1,8,0:0:0:0:
256,192,68661,1,4,0:0:0:0:
256,192,68830,1,8,0:0:0:0:
256,192,68915,1,8,0:0:0:0:
256,192,69000,1,0,0:0:0:0:
256,192,69169,1,8,0:0:0:0:
256,192,69339,1,0,0:0:0:0:
256,192,69424,1,0,0:0:0:0:
256,192,69508,1,8,0:0:0:0:
256,192,69593,1,8,0:0:0:0:
256,192,69678,1,0,0:0:0:0:
256,192,69847,1,8,0:0:0:0:
256,192,70017,1,4,0:0:0:0:
256,192,70186,1,8,0:0:0:0:
256,192,70271,1,0,0:0:0:0:
256,192,70356,1,8,0:0:0:0:
256,192,70525,1,0,0:0:0:0:
256,192,70610,1,0,0:0:0:0:
256,192,70695,1,8,0:0:0:0:
256,192,70780,1,0,0:0:0:0:
256,192,70864,1,8,0:0:0:0:
256,192,70949,1,8,0:0:0:0:
256,192,71034,1,0,0:0:0:0:
256,192,71203,1,8,0:0:0:0:
256,192,71373,1,4,0:0:0:0:
256,192,71542,1,8,0:0:0:0:
256,192,71627,1,8,0:0:0:0:
256,192,71712,1,0,0:0:0:0:
256,192,71881,1,8,0:0:0:0:
256,192,72051,1,4,0:0:0:0:
256,192,72220,1,8,0:0:0:0:
256,192,72305,1,0,0:0:0:0:
256,192,72390,1,8,0:0:0:0:
256,192,72559,1,8,0:0:0:0:
256,192,72729,1,4,0:0:0:0:
256,192,72898,1,8,0:0:0:0:
256,192,72983,1,0,0:0:0:0:
256,192,73068,1,8,0:0:0:0:
256,192,73152,1,8,0:0:0:0:
256,192,73237,1,0,0:0:0:0:
256,192,73322,1,8,0:0:0:0:
256,192,73407,1,0,0:0:0:0:
256,192,73491,1,0,0:0:0:0:
256,192,73576,1,8,0:0:0:0:
256,192,73661,1,8,0:0:0:0:
256,192,73746,1,0,0:0:0:0:
256,192,73915,1,8,0:0:0:0:
256,192,74085,1,4,0:0:0:0:
256,192,74339,1,8,0:0:0:0:
256,192,74424,1,0,0:0:0:0:
256,192,74593,1,8,0:0:0:0:
256,192,74763,1,0,0:0:0:0:
256,192,74932,1,8,0:0:0:0:
256,192,75017,1,8,0:0:0:0:
256,192,75102,1,0,0:0:0:0:
256,192,75186,1,0,0:0:0:0:
256,192,75271,1,8,0:0:0:0:
256,192,75441,1,0,0:0:0:0:
256,192,75610,1,8,0:0:0:0:
256,192,75695,1,0,0:0:0:0:
256,192,75864,1,0,0:0:0:0:
256,192,75949,1,8,0:0:0:0:
256,192,76119,1,0,0:0:0:0:
256,192,76203,1,0,0:0:0:0:
256,192,76288,1,8,0:0:0:0:
256,192,76373,1,8,0:0:0:0:
256,192,76457,1,0,0:0:0:0:
256,192,76627,1,8,0:0:0:0:
256,192,76796,1,4,0:0:0:0:
256,192,76966,1,8,0:0:0:0:
256,192,77051,1,0,0:0:0:0:
256,192,77220,1,0,0:0:0:0:
256,192,77305,1,8,0:0:0:0:
256,192,77474,1,0,0:0:0:0:
256,192,77644,1,8,0:0:0:0:
256,192,77729,1,8,0:0:0:0:
256,192,77813,1,0,0:0:0:0:
256,192,77898,1,0,0:0:0:0:
256,192,77983,1,8,0:0:0:0:
256,192,78152,1,0,0:0:0:0:
256,192,78322,1,8,0:0:0:0:
256,192,78407,1,0,0:0:0:0:
256,192,78576,1,0,0:0:0:0:
256,192,78661,1,8,0:0:0:0:
256,192,78830,1,0,0:0:0:0:
256,192,78915,1,0,0:0:0:0:
256,192,79000,1,8,0:0:0:0:
256,192,79085,1,8,0:0:0:0:
256,192,79169,1,0,0:0:0:0:
256,192,79339,1,8,0:0:0:0:
256,192,79508,1,4,0:0:0:0:
256,192,79678,1,8,0:0:0:0:
256,192,79763,1,8,0:0:0:0:
256,192,79847,1,0,0:0:0:0:
256,192,80017,1,8,0:0:0:0:
256,192,80186,1,0,0:0:0:0:
256,192,80271,1,0,0:0:0:0:
256,192,80356,1,8,0:0:0:0:
256,192,80441,1,8,0:0:0:0:
256,192,80525,1,0,0:0:0:0:
256,192,80695,1,8,0:0:0:0:
256,192,80864,1,4,0:0:0:0:
256,192,81034,1,8,0:0:0:0:
256,192,81119,1,0,0:0:0:0:
256,192,81203,1,8,0:0:0:0:
256,192,81373,1,0,0:0:0:0:
256,192,81457,1,0,0:0:0:0:
256,192,81542,1,8,0:0:0:0:
256,192,81627,1,0,0:0:0:0:
256,192,81712,1,8,0:0:0:0:
256,192,81796,1,8,0:0:0:0:
256,192,81881,1,0,0:0:0:0:
256,192,82051,1,8,0:0:0:0:
256,192,82220,1,4,0:0:0:0:
256,192,82390,1,8,0:0:0:0:
256,192,82474,1,8,0:0:0:0:
256,192,82559,1,0,0:0:0:0:
256,192,82729,1,8,0:0:0:0:
256,192,82898,1,4,0:0:0:0:
256,192,83068,1,8,0:0:0:0:
256,192,83152,1,0,0:0:0:0:
256,192,83237,1,8,0:0:0:0:
256,192,83407,1,8,0:0:0:0:
256,192,83576,1,4,0:0:0:0:
256,192,83915,1,4,0:0:0:0:
256,192,84254,1,4,0:0:0:0:
256,192,84424,1,0,0:0:0:0:
256,192,84508,1,0,0:0:0:0:
256,192,84593,1,8,0:0:0:0:
256,192,84678,1,8,0:0:0:0:
256,192,84763,1,8,0:0:0:0:
256,192,84847,1,8,0:0:0:0:
256,192,84932,1,0,0:0:0:0:
256,192,85102,1,8,0:0:0:0:
256,192,85186,1,8,0:0:0:0:
256,192,85271,1,0,0:0:0:0:
256,192,85441,1,8,0:0:0:0:
256,192,85610,1,0,0:0:0:0:
256,192,85780,1,8,0:0:0:0:
256,192,85864,1,0,0:0:0:0:
256,192,85949,1,8,0:0:0:0:
256,192,86119,1,8,0:0:0:0:
256,192,86288,1,0,0:0:0:0:
256,192,86457,1,8,0:0:0:0:
256,192,86542,1,8,0:0:0:0:
256,192,86627,1,0,0:0:0:0:
256,192,86796,1,8,0:0:0:0:
256,192,86966,1,0,0:0:0:0:
256,192,87051,1,0,0:0:0:0:
256,192,87135,1,8,0:0:0:0:
256,192,87220,1,8,0:0:0:0:
256,192,87305,1,0,0:0:0:0:
256,192,87474,1,8,0:0:0:0:
256,192,87644,1,0,0:0:0:0:
256,192,87813,1,8,0:0:0:0:
256,192,87898,1,8,0:0:0:0:
256,192,87983,1,0,0:0:0:0:
256,192,88152,1,8,0:0:0:0:
256,192,88322,1,0,0:0:0:0:
256,192,88407,1,8,0:0:0:0:
256,192,88576,1,8,0:0:0:0:
256,192,88661,1,0,0:0:0:0:
256,192,88830,1,8,0:0:0:0:
256,192,88915,1,8,0:0:0:0:
256,192,89000,1,0,0:0:0:0:
256,192,89169,1,8,0:0:0:0:
256,192,89254,1,0,0:0:0:0:
256,192,89339,1,0,0:0:0:0:
256,192,89508,1,8,0:0:0:0:
256,192,89593,1,8,0:0:0:0:
256,192,89678,1,0,0:0:0:0:
256,192,89847,1,8,0:0:0:0:
256,192,89932,1,0,0:0:0:0:
256,192,90017,1,8,0:0:0:0:
256,192,90186,1,8,0:0:0:0:
256,192,90356,1,0,0:0:0:0:
256,192,90525,1,8,0:0:0:0:
256,192,90610,1,8,0:0:0:0:
256,192,90695,1,0,0:0:0:0:
256,192,90864,1,8,0:0:0:0:
256,192,91034,1,0,0:0:0:0:
256,192,91203,1,8,0:0:0:0:
256,192,91288,1,0,0:0:0:0:
256,192,91373,1,8,0:0:0:0:
256,192,91542,1,8,0:0:0:0:
256,192,91712,1,0,0:0:0:0:
256,192,91796,1,8,0:0:0:0:
256,192,91966,1,8,0:0:0:0:
256,192,92051,1,0,0:0:0:0:
256,192,92220,1,8,0:0:0:0:
256,192,92305,1,8,0:0:0:0:
256,192,92390,1,0,0:0:0:0:
256,192,92559,1,8,0:0:0:0:
256,192,92644,1,0,0:0:0:0:
256,192,92729,1,8,0:0:0:0:
256,192,92898,1,8,0:0:0:0:
256,192,93068,1,0,0:0:0:0:
256,192,93152,1,0,0:0:0:0:
256,192,93237,1,8,0:0:0:0:
256,192,93322,1,8,0:0:0:0:
256,192,93407,1,0,0:0:0:0:
256,192,93576,1,8,0:0:0:0:
256,192,93661,1,0,0:0:0:0:
256,192,93746,1,8,0:0:0:0:
256,192,93830,1,8,0:0:0:0:
256,192,94000,1,0,0:0:0:0:
256,192,94085,1,8,0:0:0:0:
256,192,94254,1,0,0:0:0:0:
256,192,94339,1,0,0:0:0:0:
256,192,94424,1,8,0:0:0:0:
256,192,94508,1,0,0:0:0:0:
256,192,94593,1,8,0:0:0:0:
256,192,94678,1,0,0:0:0:0:
256,192,94763,1,8,0:0:0:0:
256,192,94932,1,8,0:0:0:0:
256,192,95017,1,0,0:0:0:0:
256,192,95102,1,8,0:0:0:0:
256,192,95186,1,0,0:0:0:0:
256,192,95271,1,8,0:0:0:0:
256,192,95441,1,0,0:0:0:0:
256,192,95554,1,8,0:0:0:0:
256,192,95667,1,8,0:0:0:0:
256,192,95780,1,0,0:0:0:0:
256,192,95893,1,0,0:0:0:0:
256,192,96006,1,8,0:0:0:0:
256,192,96119,1,0,0:0:0:0:
256,192,96231,1,8,0:0:0:0:
256,192,96344,1,8,0:0:0:0:
256,192,96457,1,0,0:0:0:0:
256,192,96627,1,8,0:0:0:0:
256,192,96712,1,8,0:0:0:0:
256,192,96796,1,0,0:0:0:0:
256,192,96966,1,0,0:0:0:0:
256,192,97135,1,12,0:0:0:0:
256,192,97390,1,0,0:0:0:0:
256,192,97474,1,8,0:0:0:0:
256,192,97644,1,0,0:0:0:0:
256,192,97813,1,12,0:0:0:0:
256,192,97983,1,8,0:0:0:0:
256,192,98068,1,8,0:0:0:0:
256,192,98152,1,0,0:0:0:0:
256,192,98322,1,0,0:0:0:0:
256,192,98491,1,12,0:0:0:0:
256,192,98830,1,12,0:0:0:0:
256,192,99169,1,12,0:0:0:0:
160,192,99508,2,4,L|224:192,1,1E-06
