osu file format v14

[General]
AudioFilename: audio.mp3
AudioLeadIn: 0
PreviewTime: 63195
Countdown: 0
SampleSet: Normal
StackLeniency: 0.7
Mode: 1
LetterboxInBreaks: 0
WidescreenStoryboard: 0

[Editor]
Bookmarks: 1537,10351,22560,36119,46967,63238,84933,99509
DistanceSpacing: 0.5
BeatDivisor: 2
GridSize: 32
TimelineZoom: 0.7500019

[Metadata]
Title:Nigra Ludia -Get & Play Senden-you Shouka-ban-
TitleUnicode:Nigra Ludia -ゲット&プレー宣伝用唱歌版-
Artist:Akhuta rejected by Akhuta
ArtistUnicode:Akhuta rejected by Akhuta
Creator:Midnaait
Version:Kantan
Source:REFLEC BEAT groovin'!!
Tags:we are "try to singers" bemani
BeatmapID:1661185
BeatmapSetID:791738

[Difficulty]
HPDrainRate:8.5
CircleSize:2
OverallDifficulty:3
ApproachRate:8
SliderMultiplier:1.4
SliderTickRate:1

[Events]
//Background and Video events
0,0,"being meguca is suffering.png",0,-15
//Break Periods
//Storyboard Layer 0 (Background)
//Storyboard Layer 1 (Fail)
//Storyboard Layer 2 (Pass)
//Storyboard Layer 3 (Foreground)
//Storyboard Sound Samples

[TimingPoints]
1545,338.983050847458,3,1,0,90,1,0
8663,338.983050847458,5,1,0,90,1,0
10357,338.983050847458,4,1,0,90,1,0
33238,-100,5,1,0,60,0,0
35724,-100,5,1,0,100,0,0
35865,-100,4,1,0,90,0,0
57871,-100,5,1,0,25,0,0
60357,-100,4,1,0,90,0,0
62842,-100,5,1,0,50,0,0
62984,-100,4,1,0,90,0,0
63238,-100,3,1,0,90,0,1
84933,-100,3,1,0,90,0,0
99453,-100,5,1,0,42,0,0

[HitObjects]
192,160,1545,5,4,0:0:0:0:
160,160,2561,1,12,0:0:0:0:
160,160,3578,1,4,0:0:0:0:
160,160,4595,1,12,0:0:0:0:
160,160,5612,1,4,0:0:0:0:
160,160,6290,1,8,0:0:0:0:
160,160,6968,1,8,0:0:0:0:
160,160,7307,1,8,0:0:0:0:
160,160,7646,1,4,0:0:0:0:
160,160,8155,1,4,0:0:0:0:
160,160,8663,1,12,0:0:0:0:
256,64,10357,5,4,0:0:0:0:
256,64,11034,1,8,0:0:0:0:
256,64,11712,1,0,0:0:0:0:
256,64,12051,1,0,0:0:0:0:
256,64,12390,1,8,0:0:0:0:
256,64,13068,1,8,0:0:0:0:
256,64,13746,1,8,0:0:0:0:
256,64,14085,1,8,0:0:0:0:
256,64,14424,1,0,0:0:0:0:
256,64,14763,1,8,0:0:0:0:
256,64,15102,1,0,0:0:0:0:
256,64,15780,1,8,0:0:0:0:
256,64,16797,1,0,0:0:0:0:
256,96,17136,1,8,0:0:0:0:
256,64,17814,1,8,0:0:0:0:
256,64,18153,1,8,0:0:0:0:
256,64,18492,1,4,0:0:0:0:
256,64,19509,1,4,0:0:0:0:
256,64,20526,1,12,0:0:0:0:
256,64,21882,5,12,0:0:0:0:
256,64,22221,1,12,0:0:0:0:
224,128,22560,1,4,0:0:0:0:
256,160,23238,1,8,0:0:0:0:
256,160,23916,1,0,0:0:0:0:
256,160,24255,1,0,0:0:0:0:
256,160,24594,1,8,0:0:0:0:
256,160,25272,1,0,0:0:0:0:
256,160,25611,1,8,0:0:0:0:
256,160,25950,1,0,0:0:0:0:
256,160,26628,1,8,0:0:0:0:
256,160,27984,1,4,0:0:0:0:
256,160,28662,1,0,0:0:0:0:
256,160,29001,1,8,0:0:0:0:
256,160,29340,1,0,0:0:0:0:
256,160,30018,1,0,0:0:0:0:
256,160,30357,1,8,0:0:0:0:
256,160,30695,1,0,0:0:0:0:
256,160,31373,1,0,0:0:0:0:
256,160,32051,1,8,0:0:0:0:
256,160,32390,1,8,0:0:0:0:
256,160,32729,1,0,0:0:0:0:
256,160,33068,1,0,0:0:0:0:
256,160,33407,1,8,0:0:0:0:
256,160,35780,1,12,0:0:0:0:
256,160,36119,1,0,0:0:0:0:
256,160,36797,1,8,0:0:0:0:
256,160,37475,1,0,0:0:0:0:
256,160,37814,1,8,0:0:0:0:
256,160,38153,1,0,0:0:0:0:
256,160,38831,1,8,0:0:0:0:
256,160,40187,1,8,0:0:0:0:
256,160,40526,1,0,0:0:0:0:
256,160,40865,1,8,0:0:0:0:
256,160,41543,1,8,0:0:0:0:
256,160,42051,1,8,0:0:0:0:
256,160,42899,1,0,0:0:0:0:
256,160,43407,1,0,0:0:0:0:
256,160,44255,1,0,0:0:0:0:
256,160,44594,1,0,0:0:0:0:
256,160,44933,1,8,0:0:0:0:
256,160,45272,1,8,0:0:0:0:
256,160,45611,1,0,0:0:0:0:
256,160,46289,1,8,0:0:0:0:
256,160,46967,1,4,0:0:0:0:
256,160,47645,1,4,0:0:0:0:
256,160,48662,1,8,0:0:0:0:
256,160,49001,1,8,0:0:0:0:
256,160,49679,1,4,0:0:0:0:
256,160,50357,1,4,0:0:0:0:
256,160,51373,1,8,0:0:0:0:
256,160,51712,1,8,0:0:0:0:
256,160,52390,1,4,0:0:0:0:
256,160,53068,1,4,0:0:0:0:
256,160,54085,1,8,0:0:0:0:
256,160,54424,1,8,0:0:0:0:
256,160,55102,1,0,0:0:0:0:
256,160,55780,1,8,0:0:0:0:
256,160,56119,1,8,0:0:0:0:
256,160,56458,1,8,0:0:0:0:
256,160,56797,1,0,0:0:0:0:
256,160,57814,1,12,0:0:0:0:
256,192,58153,8,0,60187,0:0:0:0:
256,160,60526,5,12,0:0:0:0:
256,160,61882,1,4,0:0:0:0:
256,160,62221,1,4,0:0:0:0:
256,160,62560,1,4,0:0:0:0:
256,160,63238,1,4,0:0:0:0:
256,160,63916,1,8,0:0:0:0:
256,160,64255,1,8,0:0:0:0:
256,160,64594,1,0,0:0:0:0:
256,160,64933,1,0,0:0:0:0:
256,160,65272,1,8,0:0:0:0:
256,160,65950,1,8,0:0:0:0:
256,160,66628,1,0,0:0:0:0:
256,160,66967,1,0,0:0:0:0:
256,160,67306,1,8,0:0:0:0:
256,160,67645,1,8,0:0:0:0:
256,160,67984,1,0,0:0:0:0:
256,160,68662,1,12,0:0:0:0:
256,160,69679,1,0,0:0:0:0:
256,160,70018,1,12,0:0:0:0:
256,160,70695,1,0,0:0:0:0:
256,160,71034,1,8,0:0:0:0:
256,160,71373,1,4,0:0:0:0:
256,160,72051,1,8,0:0:0:0:
256,160,72729,1,8,0:0:0:0:
256,160,73068,1,0,0:0:0:0:
256,160,73407,1,8,0:0:0:0:
256,160,74085,1,4,0:0:0:0:
256,160,74763,1,8,0:0:0:0:
256,160,75102,1,0,0:0:0:0:
256,160,75441,1,8,0:0:0:0:
256,160,75780,1,0,0:0:0:0:
256,160,76119,1,8,0:0:0:0:
256,160,76797,1,8,0:0:0:0:
256,160,77475,1,0,0:0:0:0:
256,160,77814,1,8,0:0:0:0:
256,160,78153,1,0,0:0:0:0:
256,160,78492,1,8,0:0:0:0:
256,160,78831,1,0,0:0:0:0:
256,160,79509,1,4,0:0:0:0:
256,160,80526,1,8,0:0:0:0:
256,160,80865,1,4,0:0:0:0:
256,160,81543,1,8,0:0:0:0:
256,160,81881,1,8,0:0:0:0:
256,160,82220,1,4,0:0:0:0:
256,160,82898,1,12,0:0:0:0:
256,160,83576,1,4,0:0:0:0:
256,160,83915,1,4,0:0:0:0:
256,160,84254,1,4,0:0:0:0:
256,160,84933,1,4,0:0:0:0:
256,160,85950,1,8,0:0:0:0:
256,160,86289,1,0,0:0:0:0:
256,160,86967,1,8,0:0:0:0:
256,160,87306,1,8,0:0:0:0:
256,160,87645,1,0,0:0:0:0:
256,160,88323,1,0,0:0:0:0:
256,160,88662,1,8,0:0:0:0:
256,160,89001,1,0,0:0:0:0:
256,160,89340,1,0,0:0:0:0:
256,160,89679,1,8,0:0:0:0:
256,160,90357,1,0,0:0:0:0:
256,160,91373,1,8,0:0:0:0:
256,160,91712,1,0,0:0:0:0:
256,160,92390,1,0,0:0:0:0:
256,160,92729,1,8,0:0:0:0:
256,160,93068,1,0,0:0:0:0:
256,160,93746,1,8,0:0:0:0:
256,160,94424,1,4,0:0:0:0:
256,160,94933,1,4,0:0:0:0:
256,160,95441,1,8,0:0:0:0:
256,160,96458,1,0,0:0:0:0:
256,160,96797,1,8,0:0:0:0:
256,160,97136,1,4,0:0:0:0:
256,160,97814,1,4,0:0:0:0:
256,160,98492,1,12,0:0:0:0:
256,160,98831,1,12,0:0:0:0:
256,160,99170,1,12,0:0:0:0:
