osu file format v14

[General]
AudioFilename: audio.mp3
AudioLeadIn: 0
PreviewTime: 48257
Countdown: 0
SampleSet: Soft
StackLeniency: 0.4
Mode: 0
LetterboxInBreaks: 0
WidescreenStoryboard: 1

[Editor]
DistanceSpacing: 1.4
BeatDivisor: 8
GridSize: 16
TimelineZoom: 2.3

[Metadata]
Title:Wind
TitleUnicode:Wind
Artist:Akeboshi
ArtistUnicode:明星
Creator:Monstrata
Version:Hard
Source:NARUTO -ナルト-
Tags:naruto ending 1 one stoned town waindo
BeatmapID:1407272
BeatmapSetID:664841

[Difficulty]
HPDrainRate:4
CircleSize:4
OverallDifficulty:6
ApproachRate:7.5
SliderMultiplier:1.34
SliderTickRate:1

[Events]
//Background and Video events
0,0,"742642.jpg",0,0
//Break Periods
//Storyboard Layer 0 (Background)
//Storyboard Layer 1 (Fail)
//Storyboard Layer 2 (Pass)
//Storyboard Layer 3 (Foreground)
//Storyboard Sound Samples

[TimingPoints]
1358,342.921808112387,5,2,1,5,1,0
3072,-100,5,2,1,20,0,0
4787,-100,5,2,1,35,0,0
5987,-100,5,2,1,5,0,0
6158,342.921808112387,5,2,1,60,1,0
6158,-133.333333333333,5,2,1,60,0,0
7188,342.921808112387,5,2,1,60,1,0
48338,-100,5,2,1,90,0,1
62055,-133.333333333333,5,2,1,60,0,0
70285,-200,5,2,1,60,0,0
71344,342.921808112387,5,2,1,60,1,0
71344,-200,5,2,1,60,0,0
73714,342.921808112387,5,2,1,60,1,0
73714,-200,5,2,1,60,0,0
74742,342.921808112387,5,2,1,60,1,0
74742,-200,5,2,1,60,0,0
82114,-166.666666666667,5,2,1,60,0,0
82629,-142.857142857143,5,2,1,60,0,0
83143,-125,5,2,1,60,0,0
83486,-111.111111111111,5,2,1,60,0,0
84000,-100,5,2,1,60,0,0
85029,-100,5,2,1,60,0,1
98746,366.07687614399,5,2,1,45,1,0
98746,-125,5,2,1,45,0,0
99295,352.941176470588,5,2,1,45,1,0
99295,-125,5,2,1,45,0,0
99824,363.636363636364,5,2,1,45,1,0
99824,-125,5,2,1,45,0,0
100369,352.941176470588,5,2,1,45,1,0
100369,-125,5,2,1,45,0,0
100721,317.460317460317,5,2,1,45,1,0
100721,-125,5,2,1,45,0,0
101197,377.358490566038,5,2,1,45,1,0
101197,-125,5,2,1,45,0,0
101574,320.855614973262,5,2,1,45,1,0
101894,382.165605095541,5,2,1,45,1,0
102276,387.096774193548,5,2,1,30,1,0
102276,-200,5,2,1,30,0,0
103436,491.803278688525,5,2,1,30,1,0
103436,-200,5,2,1,30,0,0
104173,454.545454545455,5,2,1,30,1,0
104627,413.793103448276,5,2,1,30,1,0
104627,-200,5,2,1,30,0,0
105040,-200,5,2,1,10,0,0
105247,512.820512820513,5,2,1,30,1,0
105759,800,5,2,1,30,1,0
105759,-133.333333333333,5,2,1,30,0,0

[Colours]
Combo1 : 145,255,145
Combo2 : 255,255,128
Combo3 : 200,131,237
Combo4 : 255,179,85

[HitObjects]
256,192,1358,12,0,5815,0:0:0:0:
280,202,6158,6,0,P|298:246|292:280,2,75.3750028753282,0|0|0,3:0|3:0|3:0,0:0:0:0:
214,166,6843,1,4,0:0:0:0:
214,166,7188,6,0,L|62:178,1,134,10|8,2:1|0:0,0:0:0:0:
49,251,7702,1,2,3:2:0:0:
17,325,7873,2,0,P|49:331|82:323,1,67,2|0,0:0|0:0,0:0:0:0:
170,248,8216,2,0,P|133:302|149:365,1,134,10|8,1:0|0:0,0:0:0:0:
362,365,8902,6,0,P|378:301|341:247,1,134,10|8,0:1|0:0,0:0:0:0:
263,227,9416,1,0,0:0:0:0:
227,154,9588,2,0,P|257:146|310:160,1,67,2|0,0:0|0:0,0:0:0:0:
404,81,9931,2,0,P|371:89|338:84,1,67,10|0,1:0|0:0,0:0:0:0:
367,8,10274,1,8,0:0:0:0:
476,187,10617,6,0,L|458:335,1,134,10|8,1:0|0:0,0:0:0:0:
381,299,11131,1,2,1:0:0:0:
323,355,11303,2,0,L|248:346,1,67,2|0,0:0|0:0,0:0:0:0:
238,222,11645,2,0,B|266:265|266:265|256:347,1,134,10|8,1:0|0:0,0:0:0:0:
67,191,12331,6,0,P|134:196|183:147,1,134,10|0,0:1|0:0,0:0:0:0:
106,119,12846,1,0,0:0:0:0:
116,39,13017,2,0,P|147:49|172:73,1,67,2|0,0:0|0:0,0:0:0:0:
252,125,13360,2,0,P|245:92|253:60,1,67,10|0,1:0|0:0,0:0:0:0:
319,13,13703,1,12,0:0:0:0:
179,152,14046,6,0,P|225:199|289:194,1,134,10|8,0:1|0:0,0:0:0:0:
341,132,14560,2,0,L|326:288,1,134,2|0,1:0|0:0,0:0:0:0:
408,256,15075,2,0,L|487:248,1,67,10|0,1:0|0:0,0:0:0:0:
481,168,15418,2,0,L|414:174,1,67,8|0,0:0|1:0,0:0:0:0:
383,58,15761,6,0,P|423:109|415:174,1,134,10|0,0:1|0:0,0:0:0:0:
338,205,16275,1,0,1:0:0:0:
261,233,16446,2,0,P|244:266|241:301,1,67,2|0,0:0|0:0,0:0:0:0:
368,335,16789,2,0,P|348:304|319:284,1,67,10|0,1:1|0:0,0:0:0:0:
291,360,17132,1,8,0:0:0:0:
413,174,17475,6,0,L|403:107,1,67,10|0,0:1|0:0,0:0:0:0:
491,189,17818,2,0,P|453:243|388:251,1,134,10|0,0:0|0:0,0:0:0:0:
319,209,18332,1,0,0:0:0:0:
247,246,18504,2,0,P|232:278|233:310,1,67,10|0,1:1|0:0,0:0:0:0:
299,355,18847,2,0,P|312:324|312:291,1,67,8|0,0:0|1:0,0:0:0:0:
233,309,19190,6,0,L|79:345,1,134,10|0,0:1|0:0,0:0:0:0:
62,269,19704,1,0,1:0:0:0:
21,197,19876,2,0,P|52:187|88:191,1,67,2|0,0:0|0:0,0:0:0:0:
156,149,20219,2,0,P|166:180|162:215,1,67,10|0,0:1|0:0,0:0:0:0:
62,269,20561,1,12,0:0:0:0:
90,99,20904,6,0,L|223:99,1,134,10|8,1:1|0:0,0:0:0:0:
281,42,21419,1,0,1:0:0:0:
356,67,21590,2,0,L|355:160,1,67,2|0,0:0|0:0,0:0:0:0:
327,224,21933,2,0,P|356:208|390:206,1,67,10|0,1:0|0:0,0:0:0:0:
442,267,22276,2,0,P|413:283|380:286,1,67,8|0,0:0|0:0,0:0:0:0:
470,191,22619,5,2,0:3:0:0:
347,67,22962,2,0,L|356:146,1,67,2|0,0:0|1:0,0:0:0:0:
269,91,23305,2,0,L|277:158,1,67,2|0,0:0|0:0,0:0:0:0:
191,115,23648,1,10,1:1:0:0:
209,281,23991,1,8,0:0:0:0:
191,115,24334,6,0,P|142:101|72:154,1,134,10|8,0:1|0:0,0:0:0:0:
9,99,24848,2,0,P|-5:148|48:218,1,134,2|0,1:1|0:0,0:0:0:0:
155,248,25362,2,0,L|147:182,1,67,10|0,1:0|0:0,0:0:0:0:
37,213,25705,2,0,L|45:279,1,67,10|0,0:0|1:0,0:0:0:0:
76,143,26048,1,2,0:3:0:0:
231,270,26391,6,0,L|315:285,1,67,2|0,0:0|1:0,0:0:0:0:
332,209,26734,2,0,L|266:197,1,67,2|0,0:0|0:0,0:0:0:0:
376,276,27077,1,10,0:1:0:0:
424,102,27420,1,12,0:0:0:0:
376,276,27763,6,0,B|311:298|311:252|241:280,1,134,14|8,0:1|0:0,0:0:0:0:
183,330,28277,1,2,1:0:0:0:
119,380,28449,2,0,P|104:349|102:317,1,67,2|0,0:0|0:0,0:0:0:0:
105,187,28792,2,0,P|118:253|102:317,1,134,10|8,1:0|0:0,0:0:0:0:
138,112,29477,6,0,P|187:68|251:50,1,134,10|8,0:1|0:0,0:0:0:0:
325,85,29992,1,0,0:0:0:0:
395,123,30163,2,0,P|427:129|460:121,1,67,2|0,0:0|0:0,0:0:0:0:
456,41,30506,2,0,P|423:34|390:42,1,67,10|0,1:0|0:0,0:0:0:0:
325,85,30849,1,8,0:0:0:0:
184,163,31192,6,0,B|249:189|249:143|314:165,1,134,10|8,0:1|0:0,0:0:0:0:
284,240,31706,1,2,1:0:0:0:
253,314,31878,2,0,P|221:291|206:251,1,67,2|0,0:0|0:0,0:0:0:0:
363,229,32221,2,0,P|359:268|331:301,1,67,10|0,1:0|0:0,0:0:0:0:
314,165,32564,1,8,0:0:0:0:
479,203,32907,6,0,P|415:190|363:229,1,134,10|8,0:1|0:0,0:0:0:0:
432,268,33421,1,0,0:0:0:0:
475,336,33592,2,0,P|498:312|510:281,1,67,2|0,0:0|0:0,0:0:0:0:
395,340,33935,2,0,L|243:347,1,134,10|12,0:1|0:0,0:0:0:0:
207,285,34450,1,2,0:0:0:0:
135,321,34621,6,0,L|128:169,1,134,10|8,0:1|0:0,0:0:0:0:
152,109,35136,1,0,1:0:0:0:
175,30,35307,2,0,L|261:13,1,67,0|0,0:0|0:0,0:0:0:0:
319,34,35650,2,0,L|253:46,1,67,10|0,1:0|0:0,0:0:0:0:
398,20,35993,2,0,L|410:85,1,67,8|0,0:0|1:0,0:0:0:0:
427,164,36336,1,8,2:1:0:0:
227,250,36679,5,2,0:0:0:0:
210,171,36851,2,0,P|275:185|307:245,1,134,2|0,1:0|0:0,0:0:0:0:
427,164,37365,2,0,P|393:159|362:170,1,67,10|0,0:1|0:0,0:0:0:0:
403,241,37708,1,12,0:0:0:0:
466,93,38050,6,0,L|480:226,1,134,10|8,1:1|0:0,0:0:0:0:
403,241,38565,2,0,P|468:255|500:315,1,134,2|0,1:0|0:0,0:0:0:0:
419,321,39079,2,0,L|341:329,1,67,10|0,1:0|0:0,0:0:0:0:
336,248,39422,2,0,L|403:241,1,67,8|0,0:0|1:0,0:0:0:0:
349,105,39765,6,0,L|356:171,1,67,8|0,0:1|0:0,0:0:0:0:
428,96,40108,2,0,L|435:162,1,67,2|0,0:0|1:0,0:0:0:0:
380,33,40451,1,2,0:0:0:0:
277,180,40794,1,10,1:0:0:0:
380,33,41137,2,0,P|410:19|443:19,1,67,8|0,0:0|0:0,0:0:0:0:
319,85,41480,6,0,P|285:85|255:71,1,67,10|0,1:0|0:0,0:0:0:0:
304,7,41823,1,10,0:0:0:0:
394,114,41994,2,0,L|387:266,1,134,2|0,1:0|0:0,0:0:0:0:
309,268,42508,2,0,L|312:201,1,67,10|0,1:1|0:0,0:0:0:0:
196,169,42851,6,0,P|260:159|311:200,1,134,8|8,0:0|0:1,0:0:0:0:
240,238,43366,1,0,0:0:0:0:
158,241,43537,2,0,P|125:211|115:172,1,67,2|0,0:0|1:0,0:0:0:0:
71,122,43880,2,0,P|101:109|135:112,1,67,2|0,0:0|0:0,0:0:0:0:
196,169,44223,1,10,1:0:0:0:
120,313,44566,1,8,0:0:0:0:
302,276,44909,6,0,P|244:245|181:261,1,134,10|8,1:1|0:0,0:0:0:0:
302,276,45423,2,0,L|307:141,1,134,2|0,1:0|0:0,0:0:0:0:
231,98,45938,2,0,L|229:165,1,67,10|0,1:0|0:0,0:0:0:0:
306,142,46281,2,0,L|308:75,1,67,8|0,0:0|1:0,0:0:0:0:
249,19,46624,6,0,P|210:20|172:42,1,67,8|0,0:1|0:0,0:0:0:0:
80,16,46966,2,0,P|112:24|150:122,1,134,2|2,0:0|0:0,0:0:0:0:
76,95,47481,1,0,0:0:0:0:
8,137,47652,2,0,L|-9:208,1,67,10|0,1:1|0:0,0:0:0:0:
42,265,47995,1,12,0:0:0:0:
200,160,48338,6,0,P|256:124|321:134,1,134,14|0,1:0|0:0,0:0:0:0:
346,14,48852,2,0,P|310:69|320:134,1,134,2|0,1:0|0:0,0:0:0:0:
396,162,49367,2,0,L|470:147,1,67,8|0,1:0|0:0,0:0:0:0:
480,70,49710,2,0,L|406:55,1,67,8|0,0:0|1:0,0:0:0:0:
320,134,50053,6,0,P|317:178|340:224,1,67,10|0,0:1|0:0,0:0:0:0:
435,237,50396,2,0,P|388:192|323:198,1,134,10|0,0:0|0:0,0:0:0:0:
282,267,50910,1,2,0:0:0:0:
240,334,51081,2,0,L|144:328,1,67,8|0,1:0|0:0,0:0:0:0:
96,360,51424,2,0,P|93:306|106:280,1,67,12|0,0:0|0:0,0:0:0:0:
120,178,51767,6,0,P|136:229|92:299,1,134,10|8,1:0|0:0,0:0:0:0:
120,178,52282,2,0,L|269:172,1,134,2|0,1:0|0:0,0:0:0:0:
321,128,52796,2,0,P|300:106|267:92,1,67,8|0,1:0|0:0,0:0:0:0:
325,208,53139,2,0,P|354:200|383:179,1,67,10|0,0:0|1:0,0:0:0:0:
399,34,53482,6,0,P|390:67|395:100,1,67,10|0,0:1|0:0,0:0:0:0:
497,135,53825,2,0,P|431:134|384:179,1,134,10|0,0:0|0:0,0:0:0:0:
403,258,54339,1,2,0:0:0:0:
421,336,54511,2,0,P|452:322|483:276,1,67,8|0,1:0|0:0,0:0:0:0:
343,312,54854,2,0,P|340:345|364:395,1,67,12|0,0:0|0:0,0:0:0:0:
403,258,55197,6,0,L|247:283,1,134,10|8,1:0|0:0,0:0:0:0:
219,169,55711,2,0,B|257:190|257:190|271:279,1,134,2|0,1:0|0:0,0:0:0:0:
195,308,56225,2,0,L|185:241,1,67,8|0,1:0|0:0,0:0:0:0:
271,279,56568,2,0,L|280:345,1,67,8|0,0:0|1:0,0:0:0:0:
119,337,56911,6,0,L|109:270,1,67,10|0,0:1|0:0,0:0:0:0:
120,190,57254,2,0,B|186:174|186:215|262:189,1,134,10|0,0:0|0:0,0:0:0:0:
307,134,57768,1,0,0:0:0:0:
269,60,57940,2,0,L|252:193,1,134,10|8,1:0|0:0,0:0:0:0:
300,257,58454,1,2,0:0:0:0:
347,320,58626,6,0,L|479:337,1,134,10|0,1:0|0:0,0:0:0:0:
511,265,59140,2,0,L|378:247,1,134,2|0,0:0|0:0,0:0:0:0:
283,177,59655,2,0,P|347:191|379:248,1,134,10|0,1:0|0:0,0:0:0:0:
291,323,60169,2,0,L|300:257,1,67,10|0,1:0|0:0,0:0:0:0:
222,373,60512,6,0,L|203:231,1,134,2|0,0:0|1:0,0:0:0:0:
135,281,61026,2,0,L|144:352,1,67,2|0,0:0|0:0,0:0:0:0:
204,240,61369,2,0,L|195:173,1,67,2|0,1:0|0:0,0:0:0:0:
119,146,61712,1,12,0:0:0:0:
119,146,62055,6,0,P|77:120|26:124,1,100.500003833771,6|0,0:0|0:0,0:0:0:0:
59,197,62569,2,0,P|70:245|55:292,1,100.500003833771,2|0,1:0|0:0,0:0:0:0:
23,366,63084,2,0,P|72:370|115:344,1,100.500003833771,2|0,1:0|0:0,0:0:0:0:
168,284,63598,1,0,1:0:0:0:
241,316,63770,6,0,L|315:318,2,50.2500019168854,8|2|0,0:0|0:3|0:0,0:0:0:0:
232,237,64284,1,0,1:0:0:0:
232,237,64455,2,0,L|306:239,1,50.2500019168854,0|0,1:0|0:0,0:0:0:0:
357,266,64798,2,0,L|359:192,1,50.2500019168854,2|2,1:0|0:0,0:0:0:0:
300,159,65141,2,0,L|301:108,1,50.2500019168854,0|0,0:0|0:0,0:0:0:0:
283,30,65484,6,0,P|347:42|377:78,1,100.500003833771,6|0,0:0|0:0,0:0:0:0:
429,9,65999,2,0,P|450:70|434:114,1,100.500003833771,2|0,1:0|0:0,0:0:0:0:
375,148,66513,1,2,1:0:0:0:
359,306,66856,2,0,L|401:359,1,50.2500019168854,0|0,0:0|1:0,0:0:0:0:
367,227,67199,5,6,0:0:0:0:
124,214,70285,2,0,L|118:274,2,50.25,0|0|0,3:0|3:0|3:0,0:0:0:0:
192,177,70971,1,4,0:0:0:0:
192,177,71344,6,0,L|259:172,1,67,2|0,0:0|0:0,0:0:0:0:
258,172,71858,2,0,P|278:198|283:265,1,100.5,2|0,0:0|0:0,0:0:0:0:
194,321,72715,1,0,0:0:0:0:
98,270,73058,5,2,0:0:0:0:
94,161,73401,1,0,0:0:0:0:
282,153,73714,1,2,0:0:0:0:
186,103,74057,2,0,L|188:142,2,33.5,2|0|2,0:0|0:0|0:0,0:0:0:0:
277,44,74742,6,0,L|358:51,1,67,2|0,0:0|0:0,0:0:0:0:
343,49,75257,2,0,P|382:74|396:139,1,100.5,2|0,0:0|0:0,0:0:0:0:
339,214,76114,1,0,0:0:0:0:
231,207,76457,5,2,0:0:0:0:
65,266,76800,1,2,0:0:0:0:
170,297,77143,1,0,0:0:0:0:
90,372,77486,2,0,L|47:377,2,33.5,2|0|0,0:0|0:0|0:0,0:0:0:0:
170,297,78172,6,0,L|246:288,1,67,2|0,0:0|0:0,0:0:0:0:
236,289,78686,2,0,P|255:249|235:187,1,100.5,2|0,0:0|0:0,0:0:0:0:
148,144,79542,1,0,0:0:0:0:
167,37,79885,5,2,0:0:0:0:
274,22,80229,1,2,0:0:0:0:
321,119,80572,1,0,0:0:0:0:
241,196,80915,2,0,P|230:227|231:260,1,67,2|0,0:0|0:0,0:0:0:0:
286,320,81428,1,2,0:0:0:0:
286,320,81601,6,0,L|358:327,1,67,2|0,0:0|0:0,0:0:0:0:
352,326,82114,2,0,L|418:271,1,80.3999975463868,2|0,0:0|0:0,0:0:0:0:
414,274,82630,2,0,L|423:172,1,93.7999971374513,2|0,0:0|0:0,0:0:0:0:
423,180,83144,2,0,L|380:128,1,53.6,2|0,0:0|0:0,0:0:0:0:
388,138,83487,2,0,L|254:124,1,120.59999631958,2|0,0:0|0:0,0:0:0:0:
268,125,84000,2,0,L|216:168,1,67,2|0,0:0|0:0,0:0:0:0:
239,247,84343,2,0,L|291:204,1,67,2|0,1:0|1:0,0:0:0:0:
160,223,84687,5,6,0:0:0:0:
412,337,85030,6,0,B|432:293|432:293|413:182,1,134,14|8,1:0|0:0,0:0:0:0:
290,204,85544,2,0,B|333:224|333:224|418:209,1,134,2|0,1:0|0:0,0:0:0:0:
411,128,86059,2,0,L|325:142,1,67,8|0,1:0|0:0,0:0:0:0:
221,92,86402,2,0,L|288:81,1,67,8|0,0:0|0:0,0:0:0:0:
290,204,86745,6,0,L|283:270,1,67,10|0,0:1|0:0,0:0:0:0:
362,287,87087,2,0,L|368:220,1,67,10|0,0:0|1:0,0:0:0:0:
230,329,87430,2,0,L|163:340,1,67,2|0,0:0|0:0,0:0:0:0:
289,383,87773,2,0,L|355:371,1,67,10|0,1:0|0:0,0:0:0:0:
433,352,88030,1,2,0:0:0:0:
433,352,88116,2,0,L|439:285,1,67,10|0,0:0|0:0,0:0:0:0:
512,169,88459,6,0,P|456:202|393:185,1,134,14|8,1:1|0:0,0:0:0:0:
250,132,88974,2,0,P|307:163|324:227,1,134,2|0,1:0|0:0,0:0:0:0:
260,277,89488,2,0,P|244:248|244:215,1,67,8|0,1:0|0:0,0:0:0:0:
335,307,89831,2,0,P|317:335|289:352,1,67,10|0,0:0|1:0,0:0:0:0:
145,328,90174,6,0,P|178:329|207:344,1,67,10|0,0:1|0:0,0:0:0:0:
76,369,90517,2,0,P|69:303|111:254,1,134,10|0,0:0|0:0,0:0:0:0:
191,252,91031,1,0,0:0:0:0:
229,180,91203,2,0,L|267:178,2,33.5,10|0|0,0:1|0:0|0:0,0:0:0:0:
149,183,91545,2,0,P|124:162|108:105,1,67,12|0,0:0|0:0,0:0:0:0:
167,50,91888,6,0,L|147:199,1,134,14|8,1:0|0:0,0:0:0:0:
42,65,92403,2,0,B|85:37|85:37|166:49,1,134,2|0,1:0|0:0,0:0:0:0:
266,111,92916,2,0,B|200:121,1,67,8|0,1:0|0:0,0:0:0:0:
245,33,93259,2,0,B|311:23,1,67,8|0,0:0|1:0,0:0:0:0:
360,92,93602,6,0,B|352:158,1,67,10|0,0:1|0:0,0:0:0:0:
422,256,93945,2,0,P|408:192|352:158,1,134,10|0,0:0|0:0,0:0:0:0:
341,240,94460,1,0,0:0:0:0:
368,318,94631,2,0,P|401:336|445:334,1,67,10|0,1:0|0:0,0:0:0:0:
286,302,94974,2,0,P|253:321|233:360,1,67,8|2,0:0|0:0,0:0:0:0:
341,240,95317,6,0,B|299:221|299:221|199:233,1,134,10|8,0:1|0:0,0:0:0:0:
165,137,95831,2,0,B|207:156|207:156|307:144,1,134,2|0,1:0|0:0,0:0:0:0:
138,211,96346,2,0,P|142:262|228:307,1,134,10|8,1:0|0:0,0:0:0:0:
350,330,96860,2,0,L|284:322,1,67,10|0,1:0|0:0,0:0:0:0:
419,288,97203,6,0,P|474:254|486:190,1,134,2|0,0:0|1:0,0:0:0:0:
398,140,97717,2,0,L|407:207,1,67,10|0,0:1|0:0,0:0:0:0:
486,190,98060,2,0,L|477:123,1,67,2|0,1:0|0:0,0:0:0:0:
319,157,98403,1,12,0:0:0:0:
319,157,98746,6,0,L|199:148,1,107.2,2|0,0:0|0:0,0:0:0:0:
165,52,99295,2,0,L|217:160,1,107.2,2|0,0:0|0:0,0:0:0:0:
151,237,99824,2,0,L|218:137,1,107.2,2|0,0:0|0:0,0:0:0:0:
257,244,100369,2,0,L|290:312,1,53.6,2|0,0:0|0:0,0:0:0:0:
347,339,100721,6,0,B|267:310|266:369|186:337,1,160.8,2|2,0:0|0:0,0:0:0:0:
91,196,101574,1,2,0:0:0:0:
264,181,101894,1,0,0:0:0:0:
190,338,102276,6,0,P|157:347|87:334,1,100.5,2|0,0:0|0:0,0:0:0:0:
96,226,103436,2,0,P|129:217|199:230,1,100.5,2|0,0:0|0:0,0:0:0:0:
275,289,104627,2,0,P|323:298|372:287,1,100.5,2|0,0:0|0:0,0:0:0:0:
319,195,105759,6,0,L|321:208,1,12.5625004792214,2|0,0:0|0:0,0:0:0:0:
