osu file format v14

[General]
AudioFilename: audio.mp3
AudioLeadIn: 0
PreviewTime: 48257
Countdown: 0
SampleSet: Soft
StackLeniency: 0.4
Mode: 0
LetterboxInBreaks: 0
WidescreenStoryboard: 1

[Editor]
DistanceSpacing: 1
BeatDivisor: 4
GridSize: 16
TimelineZoom: 2.3

[Metadata]
Title:Wind
TitleUnicode:Wind
Artist:Akeboshi
ArtistUnicode:明星
Creator:Monstrata
Version:Normal
Source:NARUTO -ナルト-
Tags:naruto ending 1 one stoned town waindo
BeatmapID:1419101
BeatmapSetID:664841

[Difficulty]
HPDrainRate:3
CircleSize:3
OverallDifficulty:4
ApproachRate:5
SliderMultiplier:1
SliderTickRate:1

[Events]
//Background and Video events
0,0,"742642.jpg",0,0
//Break Periods
2,67399,70144
//Storyboard Layer 0 (Background)
//Storyboard Layer 1 (Fail)
//Storyboard Layer 2 (Pass)
//Storyboard Layer 3 (Foreground)
//Storyboard Sound Samples

[TimingPoints]
1358,342.921808112387,5,2,1,5,1,0
3072,-100,5,2,1,20,0,0
4787,-100,5,2,1,35,0,0
5987,-100,5,2,1,5,0,0
6158,342.921808112387,5,2,1,60,1,0
6158,-100,5,2,1,60,0,0
7188,342.921808112387,5,2,1,60,1,0
48338,-100,5,2,1,90,0,1
62055,-100,5,2,1,60,0,0
70285,-100,5,2,1,60,0,0
71344,342.921808112387,5,2,1,60,1,0
71344,-100,5,2,1,60,0,0
73058,-95.6937799043062,5,2,1,60,0,0
73714,342.921808112387,5,2,1,60,1,0
73714,-100,5,2,1,60,0,0
74742,342.921808112387,5,2,1,60,1,0
74742,-100,5,2,1,60,0,0
82114,-100,5,2,1,60,0,0
82629,-100,5,2,1,60,0,0
83143,-100,5,2,1,60,0,0
83486,-100,5,2,1,60,0,0
84000,-100,5,2,1,60,0,0
85029,-100,5,2,1,60,0,1
98746,366.07687614399,5,2,1,45,1,0
98746,-100,5,2,1,45,0,0
99295,352.941176470588,5,2,1,45,1,0
99295,-100,5,2,1,45,0,0
99824,363.636363636364,5,2,1,45,1,0
99824,-100,5,2,1,45,0,0
100369,352.941176470588,5,2,1,45,1,0
100369,-100,5,2,1,45,0,0
100721,317.460317460317,5,2,1,45,1,0
100721,-100,5,2,1,45,0,0
101197,377.358490566038,5,2,1,45,1,0
101197,-100,5,2,1,45,0,0
101574,320.855614973262,5,2,1,45,1,0
101894,382.165605095541,5,2,1,45,1,0
102276,387.096774193548,5,2,1,30,1,0
102276,-100,5,2,1,30,0,0
103436,491.803278688525,5,2,1,30,1,0
103436,-100,5,2,1,30,0,0
104173,454.545454545455,5,2,1,30,1,0
104627,413.793103448276,5,2,1,30,1,0
104627,-100,5,2,1,30,0,0
105040,-100,5,2,1,10,0,0
105247,512.820512820513,5,2,1,30,1,0
105759,800,5,2,1,30,1,0
105759,-100,5,2,1,30,0,0

[Colours]
Combo1 : 145,255,145
Combo2 : 255,255,128
Combo3 : 200,131,237
Combo4 : 255,179,85

[HitObjects]
256,192,1358,12,0,6158,3:0:0:0:
131,131,7188,6,0,L|243:115,1,100,10|8,2:1|0:0,0:0:0:0:
212,163,7702,2,0,L|169:267,1,100,2|0,3:2|0:0,0:0:0:0:
156,301,8216,2,0,L|255:287,1,100,10|8,1:0|0:0,0:0:0:0:
322,361,8902,6,0,L|420:375,1,100,10|8,0:1|0:0,0:0:0:0:
402,329,9416,2,0,L|364:236,1,100,0|0,0:0|0:0,0:0:0:0:
347,190,9931,2,0,L|445:204,1,100,10|8,1:0|0:0,0:0:0:0:
485,111,10617,6,0,P|483:67|438:16,1,100,10|8,1:0|0:0,0:0:0:0:
401,14,11131,2,0,P|363:37|342:101,1,100,2|0,1:0|0:0,0:0:0:0:
296,106,11645,2,0,P|247:113|202:91,1,100,10|8,1:0|0:0,0:0:0:0:
156,180,12331,6,0,P|157:223|202:274,1,100,10|0,0:1|0:0,0:0:0:0:
240,277,12846,2,0,P|277:253|298:189,1,100,0|0,0:0|0:0,0:0:0:0:
345,185,13360,2,0,P|393:177|438:199,1,100,10|12,1:0|0:0,0:0:0:0:
471,293,14046,6,0,L|360:309,1,100,10|8,0:1|0:0,0:0:0:0:
322,317,14560,2,0,L|221:241,1,100,2|0,1:0|0:0,0:0:0:0:
202,225,15075,2,0,L|94:241,1,100,10|8,1:0|0:0,0:0:0:0:
4,255,15761,6,0,P|34:313|79:339,2,100,10|0|2,0:1|0:0|0:0,0:0:0:0:
42,162,16789,2,0,L|26:63,1,100,10|8,1:1|0:0,0:0:0:0:
121,96,17475,6,0,L|244:104,1,100,10|10,0:1|0:0,0:0:0:0:
285,179,18161,1,0,0:0:0:0:
383,187,18504,2,0,P|407:231|402:280,1,100,10|8,1:1|0:0,0:0:0:0:
334,354,19190,6,0,L|211:362,1,100,10|0,0:1|0:0,0:0:0:0:
153,300,19876,1,2,0:0:0:0:
71,239,20219,2,0,L|66:170,1,50,10|0,0:1|0:0,0:0:0:0:
63,139,20561,1,12,0:0:0:0:
162,132,20904,6,0,L|262:126,1,100,10|8,1:1|0:0,0:0:0:0:
272,225,21590,2,0,L|276:293,1,50,2|0,0:0|0:0,0:0:0:0:
278,324,21933,2,0,L|377:317,1,100,10|8,1:0|0:0,0:0:0:0:
476,310,22619,5,2,0:3:0:0:
468,211,22962,2,0,L|464:152,1,50,2|0,0:0|1:0,0:0:0:0:
422,135,23305,2,0,L|425:75,1,50,2|0,0:0|0:0,0:0:0:0:
460,49,23648,1,10,1:1:0:0:
362,25,23991,1,8,0:0:0:0:
292,96,24334,6,0,P|243:105|194:95,1,100,10|8,0:1|0:0,0:0:0:0:
151,69,24848,2,0,P|159:117|149:166,1,100,2|0,1:1|0:0,0:0:0:0:
126,210,25362,1,10,1:0:0:0:
153,306,25705,1,10,0:0:0:0:
249,330,26048,5,2,0:3:0:0:
317,258,26391,2,0,L|381:251,1,50,2|0,0:0|1:0,0:0:0:0:
395,211,26734,2,0,L|459:204,1,50,2|0,0:0|0:0,0:0:0:0:
485,176,27077,1,10,0:1:0:0:
507,78,27420,1,12,0:0:0:0:
425,19,27763,6,0,L|312:29,1,100,14|8,0:1|0:0,0:0:0:0:
255,99,28449,2,0,L|198:104,1,50,2|0,0:0|0:0,0:0:0:0:
173,142,28792,2,0,L|73:133,1,100,10|8,1:0|0:0,0:0:0:0:
59,232,29477,6,0,L|172:242,1,100,10|8,0:1|0:0,0:0:0:0:
229,312,30163,2,0,L|285:317,1,50,2|0,0:0|0:0,0:0:0:0:
311,355,30506,2,0,L|410:346,1,100,10|8,1:0|0:0,0:0:0:0:
507,366,31192,6,0,P|505:316|479:274,1,100,10|8,0:1|0:0,0:0:0:0:
394,220,31878,2,0,P|374:184|373:163,1,50,2|0,0:0|0:0,0:0:0:0:
397,131,32221,2,0,P|423:89|425:39,1,100,10|8,1:0|0:0,0:0:0:0:
327,58,32907,6,0,P|300:99|298:149,1,100,10|8,0:1|0:0,0:0:0:0:
209,102,33592,2,0,P|173:82|152:81,1,50,2|0,0:0|0:0,0:0:0:0:
120,105,33935,2,0,P|78:131|28:133,1,100,10|12,0:1|0:0,0:0:0:0:
12,232,34621,6,0,L|37:343,1,100,10|8,0:1|0:0,0:0:0:0:
128,362,35307,1,0,0:0:0:0:
222,329,35650,2,0,L|244:232,1,100,10|8,1:0|0:0,0:0:0:0:
338,199,36336,5,8,2:1:0:0:
431,165,36679,1,2,0:0:0:0:
442,116,36850,2,0,L|463:18,1,100,2|0,1:0|0:0,0:0:0:0:
415,31,37365,2,0,L|319:60,1,100,10|12,0:1|0:0,0:0:0:0:
225,95,38050,6,0,L|151:27,1,100,10|8,1:1|0:0,0:0:0:0:
103,43,38565,2,0,L|81:140,1,100,2|0,1:0|0:0,0:0:0:0:
118,174,39079,1,10,1:0:0:0:
213,144,39421,1,8,0:0:0:0:
191,241,39765,5,8,0:1:0:0:
168,337,40108,2,0,L|118:352,2,50,2|0|2,0:0|1:0|0:0,0:0:0:0:
263,309,40794,2,0,L|378:345,1,100,10|8,1:0|0:0,0:0:0:0:
453,308,41480,5,10,1:0:0:0:
489,214,41823,1,10,0:0:0:0:
475,166,41994,2,0,L|445:70,1,100,2|0,1:0|0:0,0:0:0:0:
401,45,42508,1,10,1:1:0:0:
309,86,42851,1,8,0:0:0:0:
224,32,43194,5,8,0:1:0:0:
132,73,43537,2,0,L|121:135,1,50,2|0,0:0|1:0,0:0:0:0:
152,162,43880,2,0,L|163:224,1,50,2|0,0:0|0:0,0:0:0:0:
132,251,44223,2,0,L|112:360,1,100,10|8,1:0|0:0,0:0:0:0:
208,314,44909,6,0,L|302:280,1,100,10|8,1:1|0:0,0:0:0:0:
348,262,45423,1,2,1:0:0:0:
253,145,45938,2,0,L|158:110,1,100,10|8,1:0|0:0,0:0:0:0:
66,152,46624,6,0,P|56:174|55:199,1,50,8|0,0:1|0:0,0:0:0:0:
87,237,46966,2,0,P|97:259|98:284,1,50,2|0,0:0|1:0,0:0:0:0:
65,322,47309,1,2,0:0:0:0:
155,365,47652,1,10,1:1:0:0:
237,308,47995,1,12,0:0:0:0:
228,208,48338,6,0,L|338:175,1,100,14|0,1:0|0:0,0:0:0:0:
371,165,48852,2,0,P|392:120|383:71,1,100,2|0,1:0|0:0,0:0:0:0:
353,31,49367,1,8,1:0:0:0:
254,12,49710,1,8,0:0:0:0:
188,88,50053,5,10,0:1:0:0:
221,183,50396,2,0,P|292:212|364:196,1,150,10|2,0:0|0:0,0:0:0:0:
405,172,51081,1,8,1:0:0:0:
483,231,51424,1,12,0:0:0:0:
470,328,51767,6,0,P|440:348|369:354,1,100,10|8,1:0|0:0,0:0:0:0:
341,320,52282,2,0,P|311:300|240:294,1,100,2|0,1:0|0:0,0:0:0:0:
202,312,52796,1,8,1:0:0:0:
124,375,53139,1,10,0:0:0:0:
30,338,53482,5,10,0:1:0:0:
13,238,53825,2,0,P|53:200|156:199,1,150,10|2,0:0|0:0,0:0:0:0:
187,220,54511,1,8,1:0:0:0:
286,230,54854,1,12,0:0:0:0:
321,137,55197,6,0,L|308:38,1,100,10|8,1:0|0:0,0:0:0:0:
265,63,55711,2,0,P|218:79|169:72,1,100,2|0,1:0|0:0,0:0:0:0:
124,49,56225,1,8,1:0:0:0:
51,117,56568,1,8,0:0:0:0:
73,214,56911,5,10,0:1:0:0:
167,242,57254,2,0,P|242:243|308:209,1,150,10|0,0:0|0:0,0:0:0:0:
326,162,57940,1,10,1:0:0:0:
408,104,58283,2,0,P|432:101|457:106,1,50,8|2,0:0|0:0,0:0:0:0:
496,137,58626,6,0,L|474:256,1,100,10|0,1:0|0:0,0:0:0:0:
434,261,59140,2,0,L|412:380,1,100,2|0,0:0|0:0,0:0:0:0:
365,352,59655,2,0,P|327:329|230:352,1,150,10|10,1:0|1:0,0:0:0:0:
135,318,60512,6,0,L|116:219,1,100,2|0,0:0|1:0,0:0:0:0:
144,177,61026,2,0,L|134:127,2,50,2|0|2,0:0|0:0|1:0,0:0:0:0:
239,206,61712,1,12,0:0:0:0:
333,234,62055,6,0,P|405:217|447:157,2,150,6|2|2,0:0|1:0|1:0,0:0:0:0:
239,206,63427,1,0,0:0:0:0:
167,275,63770,6,0,L|163:378,2,100,8|0|0,0:0|0:0|1:0,0:0:0:0:
144,177,64798,2,0,L|145:127,1,50,2|2,1:0|0:0,0:0:0:0:
269,43,65484,6,0,P|340:21|410:44,2,150,6|2|2,0:0|1:0|1:0,0:0:0:0:
224,132,66856,2,0,L|222:181,1,50,0|0,0:0|1:0,0:0:0:0:
237,229,67199,5,6,0:0:0:0:
255,192,71344,6,0,P|327:175|393:207,2,150,2|2|0,0:0|0:0|0:0,0:0:0:0:
229,288,72715,1,0,0:0:0:0:
132,313,73058,2,0,P|81:279|92:140,1,200,2|0,0:0|0:0,0:0:0:0:
183,118,74056,2,0,L|292:87,1,100,2|2,0:0|0:0,0:0:0:0:
375,62,74742,6,0,L|361:217,2,150,2|2|0,0:0|0:0|0:0,0:0:0:0:
470,33,76113,1,0,0:0:0:0:
506,126,76456,2,0,B|526:246|459:199|479:318,1,200,2|0,0:0|0:0,0:0:0:0:
397,376,77485,2,0,P|347:382|302:363,1,100,2|0,0:0|0:0,0:0:0:0:
233,291,78171,6,0,P|159:284|94:319,2,150,2|2|0,0:0|0:0|0:0,0:0:0:0:
330,268,79542,1,0,0:0:0:0:
358,172,79885,1,2,0:0:0:0:
288,99,80228,2,0,L|298:-3,1,100,2|0,0:0|0:0,0:0:0:0:
199,22,80914,2,0,P|140:50|97:49,1,100,2|0,0:0|0:0,0:0:0:0:
59,33,81428,1,2,0:0:0:0:
17,61,81600,6,0,L|32:223,1,150,2|2,0:0|0:0,0:0:0:0:
168,273,82629,2,0,L|178:164,1,100,2|0,0:0|0:0,0:0:0:0:
182,123,83143,1,2,0:0:0:0:
255,56,83486,2,0,P|328:45|387:89,1,150,2|2,0:0|0:0,0:0:0:0:
442,172,84343,2,0,L|448:234,1,50,2|0,1:0|1:0,0:0:0:0:
418,263,84686,1,6,0:0:0:0:
335,319,85029,6,0,L|229:309,1,100,14|8,1:0|0:0,0:0:0:0:
184,299,85544,2,0,P|165:252|176:204,1,100,2|0,1:0|0:0,0:0:0:0:
205,166,86058,1,8,1:0:0:0:
303,183,86401,1,8,0:0:0:0:
366,106,86744,5,10,0:1:0:0:
331,12,87087,2,0,P|282:6|238:28,1,100,10|2,0:0|0:0,0:0:0:0:
158,89,87773,2,0,L|150:155,2,50,10|0|10,1:0|0:0|0:0,0:0:0:0:
59,69,88458,6,0,L|46:174,1,100,14|8,1:1|0:0,0:0:0:0:
42,218,88973,2,0,P|82:245|133:246,1,100,2|0,1:0|0:0,0:0:0:0:
179,229,89487,1,8,1:0:0:0:
234,145,89830,1,10,0:0:0:0:
334,150,90173,5,10,0:1:0:0:
378,238,90516,2,0,P|390:287|374:333,1,100,10|0,0:0|0:0,0:0:0:0:
274,342,91202,2,0,L|213:345,1,50,10|0,0:1|0:0,0:0:0:0:
183,315,91545,2,0,L|122:318,1,50,12|0,0:0|0:0,0:0:0:0:
94,285,91888,6,0,P|78:238|89:190,1,100,14|8,1:0|0:0,0:0:0:0:
128,157,92402,2,0,L|246:162,1,100,2|0,1:0|0:0,0:0:0:0:
271,187,92916,1,8,1:0:0:0:
306,280,93259,1,8,0:0:0:0:
404,296,93602,5,10,0:1:0:0:
467,218,93945,2,0,P|479:146|441:83,1,150,10|0,0:0|0:0,0:0:0:0:
391,88,94631,2,0,L|281:97,1,100,10|8,1:0|0:0,0:0:0:0:
250,66,95145,1,2,0:0:0:0:
208,35,95317,6,0,L|109:44,1,100,10|8,0:1|0:0,0:0:0:0:
72,78,95831,2,0,L|80:177,1,100,2|0,1:0|0:0,0:0:0:0:
114,214,96346,2,0,L|213:205,1,100,10|8,1:0|0:0,0:0:0:0:
253,236,96860,1,10,1:0:0:0:
289,328,97203,2,0,L|388:336,1,100,2|0,0:0|1:0,0:0:0:0:
428,305,97717,2,0,L|432:244,1,50,10|0,0:1|0:0,0:0:0:0:
436,205,98060,1,2,1:0:0:0:
370,129,98403,1,12,0:0:0:0:
378,29,98746,6,0,P|339:33|285:76,1,100,2|0,0:0|0:0,0:0:0:0:
263,110,99295,2,0,L|160:100,1,100,2|0,0:0|0:0,0:0:0:0:
125,70,99824,2,0,L|146:237,1,150,2|2,0:0|0:0,0:0:0:0:
132,317,100721,2,0,L|299:296,1,150,2|2,0:0|0:0,0:0:0:0:
319,205,101574,2,0,L|426:219,1,100,2|0,0:0|0:0,0:0:0:0:
478,140,102276,6,0,P|460:69|394:37,1,150,2|0,0:0|0:0,0:0:0:0:
266,121,103436,2,0,P|178:139|116:103,1,150,2|0,0:0|0:0,0:0:0:0:
67,38,104627,2,0,L|65:200,1,150,2|0,0:0|0:0,0:0:0:0:
107,268,105759,5,2,0:0:0:0:
