osu file format v14

[General]
AudioFilename: audio.mp3
AudioLeadIn: 0
PreviewTime: 48257
Countdown: 0
SampleSet: Soft
StackLeniency: 0.4
Mode: 0
LetterboxInBreaks: 0
WidescreenStoryboard: 0

[Editor]
DistanceSpacing: 1.2
BeatDivisor: 4
GridSize: 16
TimelineZoom: 2.3

[Metadata]
Title:Wind
TitleUnicode:Wind
Artist:Akeboshi
ArtistUnicode:明星
Creator:Monstrata
Version:Hidden Leaf
Source:NARUTO -ナルト-
Tags:naruto ending 1 one stoned town waindo
BeatmapID:1407003
BeatmapSetID:664841

[Difficulty]
HPDrainRate:5
CircleSize:4
OverallDifficulty:7
ApproachRate:8.8
SliderMultiplier:1.44
SliderTickRate:1

[Events]
//Background and Video events
0,0,"742642.jpg",0,0
//Break Periods
//Storyboard Layer 0 (Background)
//Storyboard Layer 1 (Fail)
//Storyboard Layer 2 (Pass)
//Storyboard Layer 3 (Foreground)
//Storyboard Sound Samples

[TimingPoints]
1358,342.921808112387,5,2,1,5,1,0
3072,-100,5,2,1,20,0,0
4787,-100,5,2,1,35,0,0
5987,-100,5,2,1,5,0,0
6158,342.921808112387,5,2,1,60,1,0
6158,-133.333333333333,5,2,1,60,0,0
7188,342.921808112387,5,2,1,60,1,0
48338,-84.7457627118644,5,2,1,90,0,1
62055,-133.333333333333,5,2,1,60,0,0
70285,-200,5,2,1,60,0,0
71344,342.921808112387,5,2,1,60,1,0
71344,-200,5,2,1,60,0,0
73714,342.921808112387,5,2,1,60,1,0
73714,-200,5,2,1,60,0,0
74742,342.921808112387,5,2,1,60,1,0
74742,-200,5,2,1,60,0,0
82114,-166.666666666667,5,2,1,60,0,0
82629,-142.857142857143,5,2,1,60,0,0
83143,-125,5,2,1,60,0,0
83486,-111.111111111111,5,2,1,60,0,0
84000,-100,5,2,1,60,0,0
85029,-84.7457627118644,5,2,1,60,0,1
98746,366.07687614399,5,2,1,45,1,0
98746,-125,5,2,1,45,0,0
99295,352.941176470588,5,2,1,45,1,0
99295,-125,5,2,1,45,0,0
99824,363.636363636364,5,2,1,45,1,0
99824,-125,5,2,1,45,0,0
100369,352.941176470588,5,2,1,45,1,0
100369,-125,5,2,1,45,0,0
100721,317.460317460317,5,2,1,45,1,0
100721,-125,5,2,1,45,0,0
101197,377.358490566038,5,2,1,45,1,0
101197,-125,5,2,1,45,0,0
101574,320.855614973262,5,2,1,45,1,0
101894,382.165605095541,5,2,1,45,1,0
102276,387.096774193548,5,2,1,30,1,0
102276,-200,5,2,1,30,0,0
103436,491.803278688525,5,2,1,30,1,0
103436,-200,5,2,1,30,0,0
104173,454.545454545455,5,2,1,30,1,0
104627,413.793103448276,5,2,1,30,1,0
104627,-200,5,2,1,30,0,0
105040,-200,5,2,1,10,0,0
105247,512.820512820513,5,2,1,30,1,0
105759,800,5,2,1,30,1,0
105759,-133.333333333333,5,2,1,30,0,0

[Colours]
Combo1 : 145,255,145
Combo2 : 255,255,128
Combo3 : 200,131,237
Combo4 : 255,179,85

[HitObjects]
256,192,1358,12,0,5987,0:0:0:0:
395,237,6158,6,0,P|358:252|319:248,2,81.0000030899049,0|0|0,3:0|3:0|3:0,0:0:0:0:
256,192,6843,1,4,0:0:0:0:
112,346,7188,6,0,P|85:281|101:212,1,144,10|8,2:1|0:0,0:0:0:0:
186,189,7702,1,2,3:2:0:0:
186,189,7788,1,0,0:0:0:0:
186,189,7873,2,0,P|219:197|264:188,1,72,2|0,0:0|0:0,0:0:0:0:
408,166,8216,2,0,P|373:158|338:164,1,72,10|0,1:0|0:0,0:0:0:0:
370,244,8559,2,0,P|404:252|440:246,1,72,8|0,0:0|1:0,0:0:0:0:
486,124,8902,6,0,P|438:176|440:246,1,144,10|8,0:1|0:0,0:0:0:0:
314,112,9588,2,0,P|343:132|362:167,1,72,2|0,0:0|0:0,0:0:0:0:
258,257,9931,2,0,P|260:221|281:187,1,72,10|0,1:0|0:0,0:0:0:0:
309,326,10274,2,0,P|276:341|237:340,1,72,8|0,0:0|0:0,0:0:0:0:
136,242,10617,6,0,P|155:309|119:368,1,144,10|8,1:0|0:0,0:0:0:0:
8,284,11131,1,2,1:0:0:0:
8,284,11217,1,0,0:0:0:0:
8,284,11303,2,0,P|43:284|76:300,1,72,2|0,0:0|0:0,0:0:0:0:
309,326,11645,2,0,P|276:341|237:340,1,72,10|0,1:0|0:0,0:0:0:0:
191,271,11988,2,0,P|223:255|259:256,1,72,8|0,0:0|3:0,0:0:0:0:
118,368,12331,6,0,L|103:225,1,144,10|0,0:1|0:0,0:0:0:0:
336,363,13017,2,0,L|326:268,1,72,2|0,0:0|0:0,0:0:0:0:
255,173,13360,2,0,P|247:207|257:242,1,72,10|0,1:0|0:0,0:0:0:0:
386,228,13703,1,12,0:0:0:0:
119,300,14046,6,0,P|189:294|248:332,1,144,10|8,0:1|0:0,0:0:0:0:
119,300,14560,2,0,P|78:241|82:171,1,144,2|0,1:0|0:0,0:0:0:0:
120,112,15075,2,0,P|107:145|82:171,1,72,10|0,1:0|0:0,0:0:0:0:
91,27,15418,2,0,P|126:21|160:30,1,72,8|0,0:0|1:0,0:0:0:0:
291,147,15761,6,0,P|325:156|361:151,1,72,10|0,0:1|0:0,0:0:0:0:
226,89,16103,2,0,L|208:184,1,72,0|0,0:0|1:0,0:0:0:0:
280,296,16446,2,0,L|267:226,1,72,2|0,0:0|0:0,0:0:0:0:
127,173,16789,1,10,1:1:0:0:
97,252,16961,1,0,0:0:0:0:
152,318,17132,1,8,0:0:0:0:
152,318,17475,5,10,0:1:0:0:
182,239,17647,1,0,0:0:0:0:
67,331,17818,2,0,P|22:290|31:199,1,144,10|0,0:0|0:0,0:0:0:0:
94,167,18332,1,0,0:0:0:0:
17,55,18504,2,0,L|20:127,1,72,10|0,1:1|0:0,0:0:0:0:
167,126,18847,2,0,L|170:55,1,72,8|0,0:0|1:0,0:0:0:0:
94,167,19190,6,0,P|122:198|164:211,1,72,10|0,0:1|0:0,0:0:0:0:
296,158,19533,2,0,P|261:164|232:185,1,72,0|0,0:0|1:0,0:0:0:0:
371,115,19876,2,0,P|383:81|380:46,1,72,2|0,0:0|0:0,0:0:0:0:
296,243,20219,1,10,0:1:0:0:
369,200,20390,1,0,0:0:0:0:
297,73,20561,1,12,0:0:0:0:
369,284,20904,6,0,P|425:280|489:356,1,144,10|8,1:1|0:0,0:0:0:0:
404,363,21419,1,0,1:0:0:0:
290,319,21590,2,0,L|273:220,1,72,2|0,0:0|0:0,0:0:0:0:
290,177,21933,2,0,L|277:247,1,72,10|0,1:0|0:0,0:0:0:0:
371,148,22276,1,8,0:0:0:0:
152,252,22619,5,2,0:3:0:0:
371,148,22962,2,0,P|411:152|446:176,1,72,2|0,0:0|1:0,0:0:0:0:
305,92,23305,2,0,P|288:55|291:13,1,72,2|0,0:0|0:0,0:0:0:0:
289,177,23648,2,0,P|265:209|227:227,1,72,10|0,1:1|0:0,0:0:0:0:
387,63,23991,1,8,0:0:0:0:
92,124,24334,6,0,L|81:195,1,72,10|0,0:1|0:0,0:0:0:0:
152,252,24677,1,8,0:0:0:0:
177,96,24848,2,0,L|166:167,1,72,2|0,1:1|0:0,0:0:0:0:
237,224,25191,1,0,0:0:0:0:
262,68,25362,2,0,L|251:139,1,72,10|0,1:0|0:0,0:0:0:0:
378,250,25705,2,0,L|388:178,1,72,10|0,0:0|1:0,0:0:0:0:
237,224,26048,5,2,0:3:0:0:
472,157,26391,2,0,P|484:124|479:89,1,72,2|0,0:0|1:0,0:0:0:0:
451,242,26734,2,0,P|473:269|506:283,1,72,2|0,0:0|0:0,0:0:0:0:
388,179,27077,2,0,P|353:185|325:207,1,72,10|0,0:1|0:0,0:0:0:0:
472,157,27420,1,12,0:0:0:0:
198,178,27763,6,0,P|256:218|325:207,1,144,14|8,0:1|0:0,0:0:0:0:
452,133,28277,1,2,1:0:0:0:
452,133,28363,1,0,0:0:0:0:
452,133,28449,2,0,P|417:129|385:144,1,72,2|0,0:0|0:0,0:0:0:0:
326,354,28792,2,0,P|346:324|350:289,1,72,10|0,1:0|0:0,0:0:0:0:
161,289,29134,2,0,P|165:324|186:354,1,72,8|0,0:0|1:0,0:0:0:0:
325,207,29477,6,0,P|412:229|435:293,2,144,10|8|2,0:1|0:0|0:0,0:0:0:0:
350,289,30335,1,0,0:0:0:0:
426,344,30506,2,0,L|434:265,1,72,10|0,1:0|0:0,0:0:0:0:
207,332,30849,1,8,0:0:0:0:
221,75,31192,6,0,L|364:90,1,144,10|8,0:1|0:0,0:0:0:0:
282,168,31706,1,2,1:0:0:0:
282,168,31792,1,0,0:0:0:0:
282,168,31878,2,0,L|354:175,1,72,2|0,0:0|0:0,0:0:0:0:
141,106,32221,2,0,L|133:178,1,72,10|0,1:0|0:0,0:0:0:0:
151,20,32564,2,0,L|78:12,1,72,8|0,0:0|1:0,0:0:0:0:
214,147,32907,6,0,L|230:-15,1,144,10|8,0:1|0:0,0:0:0:0:
297,57,33421,1,0,0:0:0:0:
365,110,33592,2,0,P|399:118|434:112,1,72,2|0,0:0|0:0,0:0:0:0:
214,147,33935,2,0,P|180:139|145:145,1,72,10|0,0:1|0:0,0:0:0:0:
298,238,34278,2,0,L|298:167,1,72,12|2,0:0|0:0,0:0:0:0:
215,3,34621,6,0,L|213:173,1,144,10|8,0:1|0:0,0:0:0:0:
177,226,35136,1,0,1:0:0:0:
58,151,35307,2,0,P|93:145|128:154,1,72
122,292,35650,2,0,P|99:265|90:231,1,72,10|0,1:0|0:0,0:0:0:0:
209,307,35993,2,0,L|283:318,1,72,8|0,0:0|1:0,0:0:0:0:
395,231,36336,6,0,L|324:243,1,72,8|0,2:1|0:0,0:0:0:0:
259,177,36679,1,2,0:0:0:0:
194,111,36850,2,0,P|240:85|333:124,1,144,2|0,1:0|0:0,0:0:0:0:
194,243,37365,2,0,L|123:232,1,72,10|0,0:1|0:0,0:0:0:0:
259,177,37708,1,12,0:0:0:0:
2,324,38050,6,0,P|31:304|67:299,1,72,10|0,1:1|0:0,0:0:0:0:
140,346,38393,1,8,0:0:0:0:
283,237,38565,2,0,P|253:217|218:212,1,72,2|0,1:0|0:0,0:0:0:0:
145,259,38908,1,0,0:0:0:0:
240,366,39079,2,0,L|222:297,1,72,10|0,1:0|0:0,0:0:0:0:
126,189,39422,2,0,L|144:258,1,72,8|0,0:0|1:0,0:0:0:0:
258,124,39765,6,0,P|222:118|188:129,1,72,8|0,0:1|0:0,0:0:0:0:
44,165,40108,1,2,0:0:0:0:
106,105,40279,1,0,1:0:0:0:
126,189,40451,2,0,L|107:258,1,72,2|0,0:0|0:0,0:0:0:0:
24,81,40794,2,0,L|42:11,1,72,10|0,1:0|0:0,0:0:0:0:
129,20,41137,2,0,P|164:25|198:14,1,72,8|0,0:0|0:0,0:0:0:0:
342,51,41480,6,0,P|306:46|273:57,1,72,10|0,1:0|0:0,0:0:0:0:
287,212,41823,1,10,0:0:0:0:
371,196,41994,2,0,P|393:168|400:133,1,72,2|0,1:0|0:0,0:0:0:0:
231,148,42337,1,0,0:0:0:0:
202,228,42508,2,0,P|214:261|241:285,1,72,10|0,1:1|0:0,0:0:0:0:
315,132,42851,2,0,P|302:98|275:74,1,72,8|0,0:0|1:0,0:0:0:0:
134,98,43194,6,0,L|276:74,1,144,8|2,0:1|0:0,0:0:0:0:
319,0,43709,1,0,1:0:0:0:
433,85,43880,2,0,L|362:74,1,72,2|0,0:0|0:0,0:0:0:0:
503,35,44223,1,10,1:0:0:0:
256,192,44566,1,8,0:0:0:0:
503,35,44909,6,0,P|516:68|516:104,1,72,10|0,1:1|0:0,0:0:0:0:
456,167,45252,1,8,0:0:0:0:
388,113,45423,2,0,P|450:80|516:104,1,144,2|0,1:0|0:0,0:0:0:0:
396,229,45938,2,0,L|304:219,1,72,10|0,1:0|0:0,0:0:0:0:
236,128,46281,2,0,L|308:136,1,72,8|0,0:0|1:0,0:0:0:0:
340,306,46624,6,0,L|355:385,1,72,8|0,0:1|0:0,0:0:0:0:
258,277,46966,1,2,0:0:0:0:
175,306,47138,1,0,1:0:0:0:
105,205,47309,2,0,L|91:275,1,72,2|0,0:0|0:0,0:0:0:0:
162,140,47652,2,0,L|238:113,1,72,10|0,1:1|0:0,0:0:0:0:
22,76,47995,2,0,L|77:123,1,72,12|0,0:0|0:0,0:0:0:0:
273,44,48338,6,0,P|312:96|260:195,1,169.919994036621,14|0,1:0|0:0,0:0:0:0:
146,130,48852,1,2,1:0:0:0:
146,130,48938,1,0,0:0:0:0:
146,130,49024,2,0,L|229:115,1,84.9599970183106,2|0,0:0|0:0,0:0:0:0:
323,256,49367,2,0,L|406:270,1,84.9599970183106,8|0,1:0|0:0,0:0:0:0:
277,186,49710,1,8,0:0:0:0:
239,260,49881,1,0,1:0:0:0:
361,181,50053,6,0,L|346:97,1,84.9599970183106,10|0,0:1|0:0,0:0:0:0:
242,1,50396,2,0,P|267:78|346:98,1,169.919994036621,10|0,0:0|0:0,0:0:0:0:
409,1,50910,1,2,0:0:0:0:
409,1,50996,1,0,0:0:0:0:
409,1,51081,2,0,L|325:16,1,84.9599970183106,8|0,1:0|0:0,0:0:0:0:
404,160,51424,2,0,P|427:124|429:82,1,84.9599970183106,12|0,0:0|0:0,0:0:0:0:
319,269,51767,6,0,L|137:236,1,169.919994036621,10|8,1:0|0:0,0:0:0:0:
178,95,52282,1,2,1:0:0:0:
178,95,52367,1,0,0:0:0:0:
178,95,52453,2,0,L|206:174,1,84.9599970183106,2|0,0:0|0:0,0:0:0:0:
181,320,52796,2,0,L|126:384,1,84.9599970183106,8|0,1:0|0:0,0:0:0:0:
68,224,53139,2,0,L|151:238,1,84.9599970183106,10|0,0:0|1:0,0:0:0:0:
349,320,53482,6,0,L|266:335,1,84.9599970183106,10|0,0:1|0:0,0:0:0:0:
338,124,53825,2,0,P|404:173|399:254,1,169.919994036621,10|0,0:0|0:0,0:0:0:0:
242,224,54339,1,2,0:0:0:0:
242,224,54425,1,0,0:0:0:0:
242,224,54511,2,0,L|326:210,1,84.9599970183106,8|0,1:0|0:0,0:0:0:0:
103,174,54854,2,0,L|158:239,1,84.9599970183106,12|0,0:0|0:0,0:0:0:0:
184,383,55197,6,0,L|242:224,1,169.919994036621,10|8,1:0|0:0,0:0:0:0:
48,109,55711,1,2,1:0:0:0:
48,109,55797,1,0,0:0:0:0:
48,109,55882,2,0,L|103:174,1,84.9599970183106,2|0,0:0|0:0,0:0:0:0:
210,77,56225,2,0,P|168:75|130:92,1,84.9599970183106,8|0,1:0|0:0,0:0:0:0:
242,223,56568,2,0,P|283:225|322:207,1,84.9599970183106,8|0,0:0|1:0,0:0:0:0:
332,123,56911,6,0,L|319:225,1,84.9599970183106,10|0,0:1|0:0,0:0:0:0:
381,337,57254,2,0,P|386:255|321:207,1,169.919994036621,10|0,0:0|0:0,0:0:0:0:
237,197,57768,1,0,0:0:0:0:
225,280,57940,2,0,L|327:293,1,84.9599970183106,10|0,1:0|0:0,0:0:0:0:
152,186,58283,2,0,L|50:199,1,84.9599970183106,8|2,0:0|0:0,0:0:0:0:
225,280,58626,6,0,L|246:110,1,169.919994036621,10|0,1:0|0:0,0:0:0:0:
148,316,59140,2,0,P|175:349|299:321,1,169.919994036621,2|0,0:0|0:0,0:0:0:0:
397,238,59655,2,0,P|355:235|317:253,1,84.9599970183106,10|0,1:0|0:0,0:0:0:0:
289,335,59997,1,0,0:0:0:0:
178,177,60169,6,0,P|220:174|259:192,1,84.9599970183106,10|0,1:0|0:0,0:0:0:0:
370,319,60512,2,0,P|450:304|480:229,1,169.919994036621,2|0,0:0|1:0,0:0:0:0:
342,176,61026,1,2,0:0:0:0:
316,253,61197,1,0,0:0:0:0:
396,237,61369,1,2,1:0:0:0:
127,146,61712,1,12,0:0:0:0:
414,58,62055,6,0,P|434:108|421:159,1,108.000004119873,6|0,0:0|0:0,0:0:0:0:
313,165,62569,2,0,L|441:158,1,108.000004119873,2|0,1:0|0:0,0:0:0:0:
478,224,63084,1,2,1:0:0:0:
478,224,63427,2,0,P|466:249|462:276,1,54.0000020599366,0|0,0:0|1:0,0:0:0:0:
377,287,63770,6,0,P|388:311|392:338,2,54.0000020599366,8|2|0,0:0|0:3|0:0,0:0:0:0:
292,269,64284,1,0,1:0:0:0:
292,269,64455,2,0,L|223:275,1,54.0000020599366,0|0,1:0|0:0,0:0:0:0:
158,360,64798,2,0,L|212:356,1,54.0000020599366,2|2,1:0|0:0,0:0:0:0:
223,166,65313,1,0,0:0:0:0:
223,166,65484,6,0,L|239:288,1,108.000004119873,6|0,0:0|0:0,0:0:0:0:
134,166,65999,2,0,L|117:288,1,108.000004119873,2|0,1:0|0:0,0:0:0:0:
179,338,66513,1,2,1:0:0:0:
179,338,66856,2,0,P|143:359|113:362,1,54.0000020599366,0|0,0:0|1:0,0:0:0:0:
237,272,67199,5,6,0:0:0:0:
409,170,70285,2,0,P|419:195|421:222,2,54,0|0|0,3:0|3:0|3:0,0:0:0:0:
375,280,70971,1,4,0:0:0:0:
274,216,71344,6,0,L|346:212,1,72,2|0,0:0|0:0,0:0:0:0:
346,212,71858,2,0,P|307:247|303:302,1,108,2|0,0:0|0:0,0:0:0:0:
219,357,72715,1,0,0:0:0:0:
127,312,73058,1,2,0:0:0:0:
42,367,73401,1,0,0:0:0:0:
32,166,73714,1,2,0:0:0:0:
122,211,74056,2,0,L|172:212,1,36,2|0,0:0|0:0,0:0:0:0:
235,189,74314,1,0,0:0:0:0:
235,189,74399,2,0,L|285:190,1,36,2|0,0:0|0:0,0:0:0:0:
190,120,74742,6,0,P|154:114|119:122,1,72,2|0,0:0|0:0,0:0:0:0:
119,122,75256,2,0,P|124:67|94:13,1,108,2|0,0:0|0:0,0:0:0:0:
25,88,76114,1,0,0:0:0:0:
41,186,76457,1,2,0:0:0:0:
216,160,76800,2,0,L|210:114,1,36,2|0,0:0|0:0,0:0:0:0:
135,220,77143,1,0,0:0:0:0:
231,286,77486,2,0,L|225:240,1,36,2|0,0:0|0:0,0:0:0:0:
150,346,77829,1,0,0:0:0:0:
310,194,78171,6,0,L|391:186,1,72,2|0,0:0|0:0,0:0:0:0:
381,186,78686,2,0,P|406:233|397:286,1,108,2|0,0:0|0:0,0:0:0:0:
332,363,79542,1,0,0:0:0:0:
242,318,79885,1,2,0:0:0:0:
160,377,80228,1,2,0:0:0:0:
67,337,80571,1,0,0:0:0:0:
148,276,80915,2,0,L|225:298,1,72,2|0,0:0|0:0,0:0:0:0:
69,255,81429,1,2,0:0:0:0:
54,175,81600,6,0,L|42:99,1,72,2|0,0:0|0:0,0:0:0:0:
125,170,82114,2,0,L|110:81,1,86.3999973632813,2|0,0:0|0:0,0:0:0:0:
196,165,82629,2,0,L|178:54,1,100.799996923828,2|0,0:0|0:0,0:0:0:0:
263,132,83144,2,0,L|250:54,1,57.6,2|0,0:0|0:0,0:0:0:0:
339,155,83486,2,0,L|315:8,1,129.599996044922,2|0,0:0|0:0,0:0:0:0:
404,114,84000,2,0,L|392:35,1,72,2|0,0:0|0:0,0:0:0:0:
472,67,84343,1,2,1:0:0:0:
407,192,84515,1,0,1:0:0:0:
472,317,84687,1,6,0:0:0:0:
40,316,85030,6,0,P|107:275|214:301,1,169.919994036621,14|8,1:0|0:0,0:0:0:0:
319,209,85544,1,2,1:0:0:0:
319,209,85630,1,0,0:0:0:0:
319,209,85715,2,0,P|280:222|238:213,1,84.9599970183106,2|0,0:0|0:0,0:0:0:0:
308,40,86058,2,0,L|321:226,1,169.919994036621,8|8,1:0|0:0,0:0:0:0:
237,87,86572,1,2,1:0:0:0:
384,77,86744,6,0,L|469:71,1,84.9599970183106,10|0,0:1|0:0,0:0:0:0:
319,209,87087,2,0,L|234:214,1,84.9599970183106,10|0,0:0|1:0,0:0:0:0:
236,1,87430,2,0,P|277:11|308:39,1,84.9599970183106,2|0,0:0|0:0,0:0:0:0:
158,176,87773,2,0,P|117:166|86:137,1,84.9599970183106,10|0,1:0|0:0,0:0:0:0:
151,6,88031,1,2,0:0:0:0:
151,6,88115,2,0,L|157:100,1,84.9599970183106,10|0,0:0|0:0,0:0:0:0:
385,161,88458,6,0,P|314:117|232:131,1,169.919994036621,14|8,1:1|0:0,1:1:0:0:
391,246,88974,1,2,1:0:0:0:
391,246,89058,1,0,0:0:0:0:
391,246,89144,2,0,L|385:161,1,84.9599970183106,2|0,0:0|0:0,0:0:0:0:
320,293,89487,2,0,P|352:322|407:331,1,84.9599970183106,8|0,1:0|0:0,0:0:0:0:
243,255,89830,2,0,P|202:267|167:311,1,84.9599970183106,10|0,0:0|1:0,0:0:0:0:
469,293,90174,6,0,L|463:208,1,84.9599970183106,10|0,0:1|0:0,0:0:0:0:
281,27,90516,2,0,L|293:203,1,169.919994036621,10|0,0:0|0:0,0:0:0:0:
331,272,91030,1,0,0:0:0:0:
463,208,91202,2,0,L|379:203,1,84.9599970183106,10|0,0:1|0:0,0:0:0:0:
199,337,91545,2,0,L|246:267,1,84.9599970183106,12|0,0:0|0:0,0:0:0:0:
216,44,91888,6,0,L|306:224,1,169.919994036621,14|8,1:0|0:0,0:0:0:0:
291,5,92403,1,2,1:0:0:0:
291,5,92489,1,0,0:0:0:0:
291,5,92573,2,0,L|215:43,1,84.9599970183106,2|0,0:0|0:0,0:0:0:0:
216,233,92916,2,0,L|291:194,1,84.9599970183106,8|0,1:0|0:0,0:0:0:0:
150,100,93259,1,8,0:0:0:0:
146,186,93431,1,0,1:0:0:0:
0,174,93603,6,0,P|30:146|72:138,1,84.9599970183106,10|0,0:1|0:0,0:0:0:0:
214,158,93945,2,0,P|137:186|72:138,1,169.919994036621,10|0,0:0|0:0,0:0:0:0:
150,100,94461,1,0,0:0:0:0:
207,264,94631,2,0,P|215:305|202:345,1,84.9599970183106,10|0,1:0|0:0,0:0:0:0:
121,247,94975,1,8,0:0:0:0:
178,182,95145,1,2,0:0:0:0:
291,279,95317,6,0,L|401:301,1,84.9599970183106,10|0,0:1|0:0,0:0:0:0:
436,236,95661,1,8,0:0:0:0:
405,157,95832,2,0,P|370:181|394:310,1,169.919994036621,2|0,1:0|0:0,0:0:0:0:
457,91,96346,2,0,P|418:73|376:77,1,84.9599970183106,10|0,1:0|0:0,0:0:0:0:
309,128,96688,1,8,0:0:0:0:
161,91,96861,6,0,P|199:73|241:77,1,84.9599970183106,10|0,1:0|0:0,0:0:0:0:
309,128,97203,2,0,L|309:297,1,169.919994036621,2|0,0:0|1:0,0:0:0:0:
235,255,97717,1,10,0:1:0:0:
235,169,97890,1,0,0:0:0:0:
383,172,98061,2,0,L|383:256,1,84.9599970183106,2|0,1:0|0:0,0:0:0:0:
150,255,98404,2,0,L|150:170,1,84.9599970183106,12|0,0:0|0:0,0:0:0:0:
272,69,98746,6,0,P|270:127|215:178,1,115.2,2|0,0:0|0:0,0:0:0:0:
85,114,99295,2,0,P|136:85|208:108,1,115.2,2|0,0:0|0:0,0:0:0:0:
278,241,99824,2,0,P|329:269|401:246,1,115.2,2|0,0:0|0:0,0:0:0:0:
342,183,100369,2,0,P|318:166|288:158,1,57.6,2|0,0:0|0:0,0:0:0:0:
168,169,100721,6,0,P|216:139|236:86,1,115.2,2|0,0:0|0:0,0:0:0:0:
148,29,101197,2,0,L|150:86,1,57.6,2|0,0:0|0:0,0:0:0:0:
229,0,101575,1,2,0:0:0:0:
69,115,101893,1,0,0:0:0:0:
229,0,102276,6,0,P|271:-3|331:38,1,108,2|0,0:0|0:0,0:0:0:0:
241,174,103436,2,0,P|233:122|257:75,1,108,2|0,0:0|0:0,0:0:0:0:
310,217,104627,2,0,P|268:214|208:255,1,108,2|0,0:0|0:0,0:0:0:0:
201,322,105759,6,0,L|206:346,1,13.5000005149841,2|0,0:0|0:0,0:0:0:0:
