osu file format v14

[General]
AudioFilename: audio.mp3
AudioLeadIn: 0
PreviewTime: 85911
Countdown: 1
SampleSet: Soft
StackLeniency: 0.7
Mode: 0
LetterboxInBreaks: 0
WidescreenStoryboard: 1

[Editor]
Bookmarks: 6574,19205,53150,61833,107620,117093,167616,181825
DistanceSpacing: 0.8
BeatDivisor: 1
GridSize: 8
TimelineZoom: 1

[Metadata]
Title:Akikaze Uta
TitleUnicode:Akikaze Uta
Artist:Akeboshi
ArtistUnicode:Akeboshi
Creator:Saronin Jayhart
Version:Easy
Source:
Tags:Japanese, Celtic
BeatmapID:1147699
BeatmapSetID:541246

[Difficulty]
HPDrainRate:2.2
CircleSize:3
OverallDifficulty:2
ApproachRate:2.5
SliderMultiplier:1.00000000596046
SliderTickRate:1

[Events]
//Background and Video events
0,0,"41744-andltahrefhttpwwwjpo-dbke.jpg",0,0
//Break Periods
2,53350,61123
2,107820,115593
//Storyboard Layer 0 (Background)
//Storyboard Layer 1 (Fail)
//Storyboard Layer 2 (Pass)
//Storyboard Layer 3 (Foreground)
//Storyboard Sound Samples

[TimingPoints]
259,394.710389610391,4,1,0,100,1,0
6574,-100,4,2,0,100,0,0
24731,-100,4,1,0,100,0,0
53150,-100,4,3,0,100,0,0
76043,-100,4,2,0,100,0,1
88674,-100,4,3,0,100,0,0
107620,-100,4,1,0,100,0,0
151827,-100,4,2,0,100,0,1
167616,-100,4,2,0,100,0,0
181825,-100,4,2,0,100,0,0

[HitObjects]
248,256,19205,6,0,B|136:248|144:48|368:48|376:248|264:256,1,400.000002384186
256,176,21178,1,0,0:0:0:0:
256,96,21573,1,2,0:0:0:0:
112,32,22362,5,0,0:0:0:0:
112,112,22757,1,0,0:0:0:0:
112,192,23152,1,0,0:0:0:0:
72,264,23546,1,2,0:0:0:0:
56,344,23941,2,0,L|256:344,1,200.000001192092,0|4,0:0|2:0,0:0:0:0:
408,304,25520,6,0,P|456:200|400:160,1,200.000001192092
336,304,27099,2,0,P|280:208|344:160,1,200.000001192092
208,64,28678,5,0,0:0:0:0:
128,64,29072,1,0,0:0:0:0:
48,64,29467,1,0,0:0:0:0:
48,224,30256,6,0,L|48:328,2,100.000000596046
128,240,31441,1,0,0:0:0:0:
128,320,31835,1,4,0:0:0:0:
368,344,33019,5,0,0:0:0:0:
328,280,33414,1,0,0:0:0:0:
400,256,33809,2,0,P|456:256|464:216,1,100.000000596046
448,64,34993,6,0,P|392:112|288:64,1,200.000001192092
136,112,36572,1,0,0:0:0:0:
112,192,36967,1,0,0:0:0:0:
184,232,37361,1,0,0:0:0:0:
248,184,37756,1,0,0:0:0:0:
216,112,38151,1,4,0:0:0:0:
368,56,38940,6,0,P|432:56|456:176,1,200.000001192092
384,168,40124,1,0,0:0:0:0:
304,168,40519,1,0,0:0:0:0:
216,304,41308,5,0,0:0:0:0:
136,304,41703,1,0,0:0:0:0:
136,224,42098,1,0,0:0:0:0:
88,80,42887,2,0,P|136:64|184:80,2,100.000000596046
136,144,44071,1,0,0:0:0:0:
272,336,45255,6,0,P|344:312|400:200,1,200.000001192092
448,144,46440,1,0,0:0:0:0:
368,136,46834,1,4,0:0:0:0:
240,48,47624,6,0,P|48:128|40:200,1,300.000001788138
48,272,49203,2,0,L|256:272,3,200.000001192092,0|4|0|4,0:0|0:0|0:0|0:0,0:0:0:0:
408,264,52360,1,0,0:0:0:0:
408,104,53150,1,4,1:0:0:0:
96,192,62623,5,2,0:0:0:0:
176,328,63412,2,0,P|248:280|344:328,2,200.000001192092,0|4|0,0:0|0:0|0:0,0:0:0:0:
256,192,65780,5,8,0:0:0:0:
336,192,66175,1,0,0:0:0:0:
336,112,66570,1,0,0:0:0:0:
176,80,67359,2,0,B|280:16|360:16|448:80,1,200.000001192092
144,272,69728,6,0,L|40:272,1,100.000000596046
152,152,70912,1,4,0:0:0:0:
96,96,71306,1,0,0:0:0:0:
64,168,71701,2,0,L|128:248,1,100.000000596046,8|0,0:0|0:0,0:0:0:0:
264,328,72885,2,2,P|336:304|280:224,1,200.000001192092,4|0,0:0|0:0,0:0:0:0:
400,344,74464,5,2,0:0:0:0:
472,304,74859,1,4,0:0:0:0:
408,256,75253,1,4,0:0:0:0:
480,224,75648,1,8,0:0:0:0:
408,184,76043,6,0,B|472:8|280:24|0:0|0:120|64:208,2,600.000003576276,8|4|8,0:0|0:0|0:0,0:0:0:0:
376,256,81174,1,2,0:0:0:0:
312,304,81569,1,2,0:0:0:0:
232,304,81964,1,4,0:0:0:0:
56,144,83148,6,0,B|128:248|16:192|56:328,1,200.000001192092,2|0,0:0|0:0,0:0:0:0:
128,288,84332,1,0,0:0:0:0:
192,336,84727,1,0,0:0:0:0:
256,288,85121,1,4,0:0:0:0:
288,48,86305,6,0,P|400:64|448:136,1,200.000001192092,2|0,0:0|0:0,0:0:0:0:
400,200,87489,1,0,0:0:0:0:
464,248,87884,1,0,0:0:0:0:
408,312,88279,1,4,0:0:0:0:
336,272,88674,6,2,L|336:72,1,200.000001192092,0|0,0:0|0:0,0:0:0:0:
176,48,90252,2,2,P|104:112|168:176,1,200.000001192092,0|0,0:0|0:0,0:0:0:0:
224,120,91437,1,4,0:0:0:0:
304,144,91831,2,0,L|368:64,1,100.000000596046,2|0,0:0|0:0,0:0:0:0:
424,120,92621,1,4,0:0:0:0:
432,280,93410,2,12,P|408:320|360:344,3,100.000000596046
280,344,94989,6,2,P|208:336|120:240,1,200.000001192092,0|0,0:0|0:0,0:0:0:0:
128,88,96568,2,2,L|328:88,1,200.000001192092,0|0,0:0|0:0,0:0:0:0:
296,160,97752,1,4,0:0:0:0:
216,160,98147,2,0,L|112:160,1,100.000000596046,2|0,0:0|0:0,0:0:0:0:
32,160,98936,1,4,0:0:0:0:
120,296,99726,2,12,L|224:232,3,100.000000596046
288,240,101304,6,2,P|328:304|456:336,1,200.000001192092,0|0,0:0|0:0,0:0:0:0:
480,184,102883,2,2,P|392:208|288:184,1,200.000001192092,0|0,0:0|0:0,0:0:0:0:
296,264,104067,1,4,0:0:0:0:
376,264,104462,2,0,L|376:160,1,100.000000596046,2|0,0:0|0:0,0:0:0:0:
456,160,105251,1,4,0:0:0:0:
328,64,106041,2,12,P|256:64|240:80,3,100.000000596046
296,136,107620,1,4,0:0:0:0:
256,304,117093,6,0,L|352:272,1,100.000000596046,12|0,0:0|0:0,0:0:0:0:
400,208,117882,1,8,0:0:0:0:
456,56,118672,2,0,L|352:56,1,100.000000596046,4|0,0:0|0:0,0:0:0:0:
280,72,119461,1,8,0:0:0:0:
120,40,120250,2,0,L|64:128,1,100.000000596046,4|0,0:0|0:0,0:0:0:0:
56,208,121040,1,8,0:0:0:0:
160,328,121829,6,0,L|264:328,1,100.000000596046,4|0,0:0|0:0,0:0:0:0:
320,272,122619,2,0,L|256:192,1,100.000000596046,4|0,0:0|0:0,0:0:0:0:
280,120,123408,1,4,0:0:0:0:
424,56,124198,1,8,0:0:0:0:
472,208,124987,6,0,L|472:312,1,100.000000596046,4|0,0:0|0:0,0:0:0:0:
400,344,125776,1,8,0:0:0:0:
256,272,126566,2,0,L|176:336,1,100.000000596046,4|0,0:0|0:0,0:0:0:0:
96,336,127355,1,8,0:0:0:0:
64,176,128145,6,0,L|112:88,1,100.000000596046,4|0,0:0|0:0,0:0:0:0:
192,64,128934,2,0,L|296:64,1,100.000000596046,4|0,0:0|0:0,0:0:0:0:
368,96,129724,1,4,0:0:0:0:
256,208,130513,1,8,0:0:0:0:
256,48,131302,5,4,0:0:0:0:
144,160,132092,1,8,0:0:0:0:
256,272,132881,1,4,0:0:0:0:
368,160,133671,1,8,0:0:0:0:
256,48,134460,2,0,L|256:152,3,100.000000596046,4|0|4|0,0:0|0:0|0:0|0:0,0:0:0:0:
256,232,136039,1,4,0:0:0:0:
112,296,136828,5,8,0:0:0:0:
184,152,137618,1,4,0:0:0:0:
64,40,138407,1,8,0:0:0:0:
224,56,139197,1,4,0:0:0:0:
384,56,139986,1,8,0:0:0:0:
272,168,140775,2,0,L|376:168,3,100.000000596046,4|0|4|0,0:0|0:0|0:0|0:0,0:0:0:0:
368,248,142354,1,4,0:0:0:0:
256,192,143933,12,0,147091,0:0:0:0:
256,288,148670,6,0,L|256:88,2,200.000001192092
304,224,150643,1,0,0:0:0:0:
256,160,151038,1,0,0:0:0:0:
208,224,151433,1,0,0:0:0:0:
424,336,152617,6,0,P|424:280|296:224,1,200.000001192092,2|0,0:0|0:0,0:0:0:0:
344,296,153801,1,0,0:0:0:0:
288,352,154196,1,0,0:0:0:0:
256,280,154590,1,4,0:0:0:0:
256,40,155774,6,0,P|360:64|416:152,1,200.000001192092,2|0,0:0|0:0,0:0:0:0:
416,216,156959,1,0,0:0:0:0:
416,296,157353,1,0,0:0:0:0:
336,296,157748,1,4,0:0:0:0:
120,200,158932,6,0,P|104:296|200:328,1,200.000001192092,2|0,0:0|0:0,0:0:0:0:
264,336,160116,1,0,0:0:0:0:
320,280,160511,1,0,0:0:0:0:
376,224,160906,1,4,0:0:0:0:
144,152,162090,6,0,P|232:168|216:80,1,200.000001192092,2|0,0:0|0:0,0:0:0:0:
152,40,163274,1,0,0:0:0:0:
72,40,163669,1,0,0:0:0:0:
72,120,164063,1,4,0:0:0:0:
288,224,165247,6,0,L|456:336,1,200.000001192092,2|0,0:0|0:0,0:0:0:0:
376,352,166432,1,0,0:0:0:0:
360,272,166826,1,0,0:0:0:0:
440,256,167221,1,8,0:0:0:0:
392,192,167616,1,4,0:0:0:0:
