osu file format v14

[General]
AudioFilename: audio.mp3
AudioLeadIn: 0
PreviewTime: 46628
Countdown: 0
SampleSet: Normal
StackLeniency: 0.7
Mode: 1
LetterboxInBreaks: 0
WidescreenStoryboard: 0

[Editor]
DistanceSpacing: 1
BeatDivisor: 4
GridSize: 32
TimelineZoom: 1.3

[Metadata]
Title:Responsibility Response (Cut Ver.)
TitleUnicode:Responsibility Response (Cut Ver.)
Artist:Akazawa Izumi (CV: Yonezawa Madoka)
ArtistUnicode:赤沢泉美 (CV: 米澤円)
Creator:Faputa
Version:Onirashiku Oni
Source:Another
Tags:キャラクターソングアルバム Character Songs Album Party 歌宴 LACA-15196 Lantis 松井洋平 Matsui Youhei Adoriano Spinesi アナザー Salsa Japanese Anime Jpop J-pop pop radar ilv_Rem Yasuho
BeatmapID:2851872
BeatmapSetID:1380137

[Difficulty]
HPDrainRate:6
CircleSize:2
OverallDifficulty:6
ApproachRate:10
SliderMultiplier:1.4
SliderTickRate:1

[Events]
//Background and Video events
0,0,"another.jpg",0,0
//Break Periods
//Storyboard Layer 0 (Background)
//Storyboard Layer 1 (Fail)
//Storyboard Layer 2 (Pass)
//Storyboard Layer 3 (Foreground)
//Storyboard Layer 4 (Overlay)
//Storyboard Sound Samples

[TimingPoints]
193,297.029702970297,4,1,0,85,1,0
193,-133.333333333333,4,1,0,85,0,0
4945,-117.647058823529,4,1,0,85,0,0
5391,-116.13012612893,4,1,0,85,0,0
5836,-114.651945356883,4,1,0,85,0,0
6133,-113.687135277459,4,1,0,85,0,0
6579,-112.270112910053,4,1,0,85,0,0
7321,-109.985108016375,4,1,0,85,0,0
7767,-108.658330399558,4,1,0,85,0,0
8212,-107.363066460959,4,1,0,85,0,0
8509,-106.516691165506,4,1,0,85,0,0
8658,-106.09843175908,4,1,0,85,0,0
8732,-105.890475363522,4,1,0,85,0,0
8806,-105.683444265722,4,1,0,85,0,0
8955,-105.271690442278,4,1,0,85,0,0
9103,-104.863132639279,4,1,0,85,0,0
9252,-104.457733789465,4,1,0,85,0,0
9400,-104.055565672069,4,1,0,85,0,0
9549,-103.656374970717,4,1,0,85,0,0
9697,-103.260235412685,4,1,0,85,0,0
9994,-102.476970862723,4,1,0,85,0,0
10143,-102.089777750554,4,1,0,85,0,0
10440,-101.324206048852,4,1,0,85,0,0
10589,-100.945658932883,4,1,0,85,0,0
10886,-100.196987276987,4,1,0,85,0,0
11183,-99.4593390330165,4,1,0,85,0,0
11331,-99.0946710849677,4,1,0,85,0,0
11628,-98.3731055799193,4,1,0,85,0,0
11777,-98.0162491337814,4,1,0,85,0,0
12074,-97.3102474502282,4,1,0,85,0,0
12371,-96.6144369020774,4,1,0,85,0,0
12519,-96.2702035055832,4,1,0,85,0,0
12816,-95.5890435838244,4,1,0,85,0,0
12965,-95.2520655410412,4,1,0,85,0,0
13559,-111.111111111111,4,1,0,85,0,0
22618,-111.111111111111,4,1,0,85,0,0
22767,-109.762254955766,4,1,0,85,0,0
22915,-108.445755433132,4,1,0,85,0,0
23064,-107.160462075912,4,1,0,85,0,0
23212,-105.905278319071,4,1,0,85,0,0
23287,-105.28864883077,4,1,0,85,0,0
23361,-104.679158379567,4,1,0,85,0,0
23435,-104.076792020224,4,1,0,85,0,0
23509,-103.481211433846,4,1,0,85,0,0
23584,-102.564102564103,4,1,0,85,0,0
23658,-102.310268165444,4,1,0,85,0,0
23806,-101.165528048648,4,1,0,85,0,0
23955,-100.046121261902,4,1,0,85,0,0
33460,-100,4,1,0,85,0,0
33905,-101.26582278481,4,1,0,85,0,0
34351,-102.564102564103,4,1,0,85,0,0
34648,-103.448240190262,4,1,0,85,0,0
35093,-104.80345683722,4,1,0,85,0,0
35539,-106.194652674459,4,1,0,85,0,0
35688,-106.666666666667,4,1,0,85,0,0
35836,-107.142895408177,4,1,0,85,0,0
36282,-108.597324379122,4,1,0,85,0,0
36727,-110.091783519921,4,1,0,85,0,0
37024,-111.111111111111,4,1,0,85,0,0
37618,-107.52688172043,4,1,0,85,0,0
37915,-106.382978723404,4,1,0,85,0,0
38212,-105.263157894737,4,1,0,85,0,0
42965,-105.263157894737,4,1,0,85,0,0
43262,-104.265392960626,4,1,0,85,0,0
43410,-103.773624065519,4,1,0,85,0,0
43559,-103.286365580025,4,1,0,85,0,0
43707,-102.803767141243,4,1,0,85,0,0
43856,-102.325552839381,4,1,0,85,0,0
44153,-101.382451103244,4,1,0,85,0,0
44301,-100.917440451141,4,1,0,85,0,0
44450,-100.456575133984,4,1,0,85,0,0
44598,-100,4,1,0,85,0,0
44747,-99.5475563563603,4,1,0,85,0,0
44895,-99.0990901712531,4,1,0,85,0,0
45044,-98.6547439120158,4,1,0,85,0,0
45341,-97.7778038518588,4,1,0,85,0,0
45638,-96.9163166372364,4,1,0,85,0,0
45935,-96.0698773860155,4,1,0,85,0,0
46232,-95.2380952380952,4,1,0,85,0,0
46678,-96.1538461538461,4,1,0,85,0,0
46826,-97.0873786407767,4,1,0,85,0,0
46975,-98.0392156862745,4,1,0,85,0,0
47123,-99.009900990099,4,1,0,85,0,0
47272,-100,4,1,0,85,0,0
47569,-92.5925925925926,4,1,0,95,0,0
47717,-92.5925925925926,4,1,0,95,0,1
61975,-92.5925925925926,4,1,0,95,0,1
62123,-92.4389556246794,4,1,0,95,0,1
62420,-92.1332061895088,4,1,0,95,0,1
62717,-91.8295569958511,4,1,0,95,0,1
63014,-91.5278189652963,4,1,0,95,0,1
63163,-91.3776923294824,4,1,0,95,0,1
63311,-91.2280573715007,4,1,0,95,0,1
63608,-90.9302528588471,4,1,0,95,0,1
63905,-90.6344684696279,4,1,0,95,0,1
64054,-90.4872557748967,4,1,0,95,0,1
64351,-90.1942603980453,4,1,0,95,0,1
64499,-90.048473093066,4,1,0,95,0,1
64796,-89.7583078045746,4,1,0,95,0,1
65093,-89.4700865712558,4,1,0,95,0,1
65242,-89.3266290720661,4,1,0,95,0,1
65391,-89.1836308796538,4,1,0,95,0,1
65539,-89.0410897917062,4,1,0,95,0,1
65688,-88.8990036199674,4,1,0,95,0,1
65836,-88.7573701901272,4,1,0,95,0,1
65985,-88.6161873417093,4,1,0,95,0,1
66059,-88.54580341592,4,1,0,95,0,1
66133,-88.4755312070894,4,1,0,95,0,1
66207,-88.4052922944179,4,1,0,95,0,1
66282,-88.3352428468329,4,1,0,95,0,1
66356,-88.261253309797,4,1,0,95,0,1
66430,-88.1953986696606,4,1,0,95,0,1
66579,-88.0559965693384,4,1,0,95,0,1
66727,-87.9170344529275,4,1,0,95,0,1
66876,-87.7785102406799,4,1,0,95,0,1
66950,-87.7094501669988,4,1,0,95,0,1
67024,-87.6404218659347,4,1,0,95,0,1
67173,-87.5027672750151,4,1,0,95,0,1
67470,-87.2288273828735,4,1,0,95,0,1
67767,-86.9565217391304,4,1,0,95,0,1
68361,-93.4579439252336,4,1,0,95,0,1
68509,-94.3396226415094,4,1,0,90,0,0
68707,-96.1538461538461,4,1,0,90,0,0
68905,-98.0392156862745,4,1,0,90,0,0
69103,-100,4,1,0,90,0,0
76232,-100,4,1,0,90,0,0
76381,-99.5678754206743,4,1,0,90,0,0
76455,-99.3532105990005,4,1,0,90,0,0
76529,-99.1394694055597,4,1,0,90,0,0
76678,-98.7147341612209,4,1,0,90,0,0
76975,-97.8760888714887,4,1,0,90,0,0
77272,-97.0515732060017,4,1,0,90,0,0
77420,-96.6445028606773,4,1,0,90,0,0
77569,-96.240833060651,4,1,0,90,0,0
77643,-96.0402600770243,4,1,0,90,0,0
77717,-95.8405213724363,4,1,0,90,0,0
77866,-95.443526065627,4,1,0,90,0,0
78163,-94.6593211033491,4,1,0,90,0,0
78311,-94.2721202459748,4,1,0,90,0,0
78460,-93.8879859994235,4,1,0,90,0,0
78608,-93.5069695419748,4,1,0,90,0,0
78757,-93.1290330691884,4,1,0,90,0,0
79054,-92.3822518912957,4,1,0,90,0,0
79351,-91.6473519872354,4,1,0,90,0,0
79648,-90.9240520485643,4,1,0,90,0,0
79796,-89.2857142857143,4,1,0,90,0,0

[HitObjects]
256,192,193,5,0,0:0:0:0:
256,192,341,1,8,0:0:0:0:
256,192,490,1,8,0:0:0:0:
256,192,638,1,0,0:0:0:0:
256,192,935,1,8,0:0:0:0:
256,192,1232,1,0,0:0:0:0:
256,192,1529,1,8,0:0:0:0:
256,192,1826,1,0,0:0:0:0:
256,192,2272,1,8,0:0:0:0:
256,192,2420,1,8,0:0:0:0:
256,192,2569,1,0,0:0:0:0:
256,192,2717,1,8,0:0:0:0:
256,192,2866,1,8,0:0:0:0:
256,192,3014,1,0,0:0:0:0:
256,192,3311,1,8,0:0:0:0:
256,192,3608,1,0,0:0:0:0:
256,192,3905,1,0,0:0:0:0:
256,192,4054,1,8,0:0:0:0:
256,192,4202,1,8,0:0:0:0:
256,192,4351,1,8,0:0:0:0:
256,192,4648,1,0,0:0:0:0:
256,192,4945,1,12,0:0:0:0:
256,192,5391,1,4,0:0:0:0:
256,192,5836,1,4,0:0:0:0:
256,192,6133,1,12,0:0:0:0:
256,192,6579,1,12,0:0:0:0:
256,192,7321,1,4,0:0:0:0:
256,192,7767,1,4,0:0:0:0:
256,192,8212,1,4,0:0:0:0:
256,192,8509,1,12,0:0:0:0:
256,192,8658,1,0,0:0:0:0:
256,192,8732,1,8,0:0:0:0:
256,192,8806,1,8,0:0:0:0:
256,192,8955,1,8,0:0:0:0:
256,192,9103,1,0,0:0:0:0:
256,192,9252,1,0,0:0:0:0:
256,192,9400,1,8,0:0:0:0:
256,192,9549,1,0,0:0:0:0:
256,192,9697,1,12,0:0:0:0:
256,192,9994,1,8,0:0:0:0:
256,192,10143,1,4,0:0:0:0:
256,192,10440,1,8,0:0:0:0:
256,192,10589,1,4,0:0:0:0:
256,192,10886,1,12,0:0:0:0:
256,192,11183,1,0,0:0:0:0:
256,192,11331,1,12,0:0:0:0:
256,192,11628,1,0,0:0:0:0:
256,192,11777,1,12,0:0:0:0:
256,192,12074,1,4,0:0:0:0:
256,192,12371,1,8,0:0:0:0:
256,192,12519,1,4,0:0:0:0:
256,192,12816,1,8,0:0:0:0:
256,192,12965,1,4,0:0:0:0:
256,192,13856,1,8,0:0:0:0:
256,192,14153,1,8,0:0:0:0:
256,192,14301,1,8,0:0:0:0:
256,192,14450,1,0,0:0:0:0:
256,192,14747,1,8,0:0:0:0:
256,192,14895,1,0,0:0:0:0:
256,192,15192,1,8,0:0:0:0:
256,192,15490,1,0,0:0:0:0:
256,192,15638,1,8,0:0:0:0:
256,192,15787,1,0,0:0:0:0:
256,192,15935,1,8,0:0:0:0:
256,192,16084,1,8,0:0:0:0:
256,192,16232,1,8,0:0:0:0:
256,192,16381,1,0,0:0:0:0:
256,192,16529,1,8,0:0:0:0:
256,192,16678,1,8,0:0:0:0:
256,192,16826,1,0,0:0:0:0:
256,192,17123,1,8,0:0:0:0:
256,192,17272,1,0,0:0:0:0:
256,192,17569,1,8,0:0:0:0:
256,192,17866,1,0,0:0:0:0:
256,192,18014,1,8,0:0:0:0:
256,192,18163,1,0,0:0:0:0:
256,192,18311,1,8,0:0:0:0:
256,192,18460,1,8,0:0:0:0:
256,192,18608,1,0,0:0:0:0:
256,192,18757,1,0,0:0:0:0:
256,192,18905,1,8,0:0:0:0:
256,192,19054,1,0,0:0:0:0:
256,192,19202,1,8,0:0:0:0:
256,192,19499,1,0,0:0:0:0:
256,192,19648,1,8,0:0:0:0:
256,192,19796,1,0,0:0:0:0:
256,192,19945,1,0,0:0:0:0:
256,192,20093,1,8,0:0:0:0:
256,192,20242,1,8,0:0:0:0:
256,192,20391,1,0,0:0:0:0:
256,192,20688,1,8,0:0:0:0:
256,192,20836,1,0,0:0:0:0:
256,192,21133,1,0,0:0:0:0:
256,192,21282,1,8,0:0:0:0:
256,192,21430,1,8,0:0:0:0:
256,192,21579,1,0,0:0:0:0:
256,192,21876,1,8,0:0:0:0:
256,192,22024,1,0,0:0:0:0:
256,192,22321,1,8,0:0:0:0:
256,192,22618,1,0,0:0:0:0:
256,192,22767,1,8,0:0:0:0:
256,192,22915,1,0,0:0:0:0:
256,192,23064,1,8,0:0:0:0:
256,192,23212,1,8,0:0:0:0:
256,192,23287,1,8,0:0:0:0:
256,192,23361,1,0,0:0:0:0:
256,192,23435,1,0,0:0:0:0:
256,192,23509,1,8,0:0:0:0:
256,192,23584,1,8,0:0:0:0:
256,192,23658,1,8,0:0:0:0:
256,192,23806,1,8,0:0:0:0:
256,192,23955,1,0,0:0:0:0:
256,192,24252,1,8,0:0:0:0:
256,192,24400,1,0,0:0:0:0:
256,192,24697,1,8,0:0:0:0:
256,192,24846,1,0,0:0:0:0:
256,192,24994,1,8,0:0:0:0:
256,192,25143,1,0,0:0:0:0:
256,192,25292,1,0,0:0:0:0:
256,192,25366,1,0,0:0:0:0:
256,192,25440,1,8,0:0:0:0:
256,192,25589,1,0,0:0:0:0:
256,192,25737,1,8,0:0:0:0:
256,192,25886,1,8,0:0:0:0:
256,192,26034,1,0,0:0:0:0:
256,192,26183,1,8,0:0:0:0:
256,192,26331,1,0,0:0:0:0:
256,192,26628,1,8,0:0:0:0:
256,192,26777,1,8,0:0:0:0:
256,192,27074,1,8,0:0:0:0:
256,192,27371,1,0,0:0:0:0:
256,192,27519,1,8,0:0:0:0:
256,192,27668,1,0,0:0:0:0:
256,192,27816,1,8,0:0:0:0:
256,192,27965,1,0,0:0:0:0:
256,192,28039,1,0,0:0:0:0:
256,192,28113,1,8,0:0:0:0:
256,192,28262,1,8,0:0:0:0:
256,192,28410,1,8,0:0:0:0:
256,192,28559,1,0,0:0:0:0:
256,192,28707,1,8,0:0:0:0:
256,192,29004,1,0,0:0:0:0:
256,192,29153,1,8,0:0:0:0:
256,192,29301,1,0,0:0:0:0:
256,192,29450,1,0,0:0:0:0:
256,192,29598,1,8,0:0:0:0:
256,192,29747,1,8,0:0:0:0:
256,192,29895,1,8,0:0:0:0:
256,192,30193,1,0,0:0:0:0:
256,192,30341,1,8,0:0:0:0:
256,192,30638,1,8,0:0:0:0:
256,192,30787,1,0,0:0:0:0:
256,192,30935,1,0,0:0:0:0:
256,192,31084,1,8,0:0:0:0:
256,192,31381,1,8,0:0:0:0:
256,192,31529,1,0,0:0:0:0:
256,192,31678,1,8,0:0:0:0:
256,192,31826,1,8,0:0:0:0:
256,192,31975,1,0,0:0:0:0:
256,192,32123,1,0,0:0:0:0:
256,192,32272,1,8,0:0:0:0:
256,192,32420,1,0,0:0:0:0:
256,192,32569,1,8,0:0:0:0:
256,192,32717,1,0,0:0:0:0:
256,192,32792,1,0,0:0:0:0:
256,192,32866,1,8,0:0:0:0:
256,192,32940,1,0,0:0:0:0:
256,192,33014,1,8,0:0:0:0:
256,192,33089,1,8,0:0:0:0:
256,192,33163,1,8,0:0:0:0:
256,192,33311,1,0,0:0:0:0:
256,192,33460,1,12,0:0:0:0:
256,192,33905,1,8,0:0:0:0:
256,192,34351,1,0,0:0:0:0:
256,192,34648,1,8,0:0:0:0:
256,192,35093,1,0,0:0:0:0:
256,192,35539,1,0,0:0:0:0:
256,192,35688,1,0,0:0:0:0:
256,192,35836,1,8,0:0:0:0:
256,192,36282,1,8,0:0:0:0:
256,192,36727,1,8,0:0:0:0:
256,192,37024,1,0,0:0:0:0:
256,192,37618,1,0,0:0:0:0:
256,192,37915,1,8,0:0:0:0:
256,192,38212,1,4,0:0:0:0:
256,192,38509,1,8,0:0:0:0:
256,192,38658,1,0,0:0:0:0:
256,192,39103,1,8,0:0:0:0:
256,192,39252,1,8,0:0:0:0:
256,192,39400,1,0,0:0:0:0:
256,192,39697,1,0,0:0:0:0:
256,192,39846,1,8,0:0:0:0:
256,192,40292,1,0,0:0:0:0:
256,192,40589,1,8,0:0:0:0:
256,192,40886,1,8,0:0:0:0:
256,192,41034,1,0,0:0:0:0:
256,192,41331,1,0,0:0:0:0:
256,192,41480,1,8,0:0:0:0:
256,192,41777,1,0,0:0:0:0:
256,192,42074,1,8,0:0:0:0:
256,192,42222,1,0,0:0:0:0:
256,192,42371,1,8,0:0:0:0:
256,192,42519,1,8,0:0:0:0:
256,192,42668,1,0,0:0:0:0:
256,192,42965,1,8,0:0:0:0:
256,192,43262,1,0,0:0:0:0:
256,192,43410,1,8,0:0:0:0:
256,192,43559,1,0,0:0:0:0:
256,192,43707,1,0,0:0:0:0:
256,192,43856,1,8,0:0:0:0:
256,192,44153,1,0,0:0:0:0:
256,192,44301,1,0,0:0:0:0:
256,192,44450,1,8,0:0:0:0:
256,192,44598,1,8,0:0:0:0:
256,192,44747,1,0,0:0:0:0:
256,192,44895,1,8,0:0:0:0:
256,192,45044,1,0,0:0:0:0:
256,192,45341,1,12,0:0:0:0:
256,192,45638,1,12,0:0:0:0:
256,192,45935,1,12,0:0:0:0:
256,192,46232,1,12,0:0:0:0:
256,192,46678,1,8,0:0:0:0:
256,192,46826,1,0,0:0:0:0:
256,192,46975,1,8,0:0:0:0:
256,192,47123,1,8,0:0:0:0:
256,192,47420,1,0,0:0:0:0:
256,192,47717,1,12,0:0:0:0:
256,192,48014,1,0,0:0:0:0:
256,192,48163,1,8,0:0:0:0:
256,192,48460,1,0,0:0:0:0:
256,192,48608,1,8,0:0:0:0:
256,192,48757,1,8,0:0:0:0:
256,192,48905,1,0,0:0:0:0:
256,192,49054,1,8,0:0:0:0:
256,192,49351,1,8,0:0:0:0:
256,192,49499,1,8,0:0:0:0:
256,192,49648,1,0,0:0:0:0:
256,192,49796,1,8,0:0:0:0:
256,192,49945,1,0,0:0:0:0:
256,192,50093,1,8,0:0:0:0:
256,192,50391,1,8,0:0:0:0:
256,192,50539,1,0,0:0:0:0:
256,192,50688,1,8,0:0:0:0:
256,192,50836,1,8,0:0:0:0:
256,192,50985,1,8,0:0:0:0:
256,192,51133,1,0,0:0:0:0:
256,192,51207,1,0,0:0:0:0:
256,192,51282,1,8,0:0:0:0:
256,192,51430,1,0,0:0:0:0:
256,192,51579,1,8,0:0:0:0:
256,192,51653,1,0,0:0:0:0:
256,192,51727,1,8,0:0:0:0:
256,192,51801,1,8,0:0:0:0:
256,192,51876,1,0,0:0:0:0:
256,192,52024,1,0,0:0:0:0:
256,192,52173,1,8,0:0:0:0:
256,192,52321,1,0,0:0:0:0:
256,192,52470,1,8,0:0:0:0:
256,192,52767,1,0,0:0:0:0:
256,192,52915,1,8,0:0:0:0:
256,192,53212,1,8,0:0:0:0:
256,192,53361,1,0,0:0:0:0:
256,192,53509,1,8,0:0:0:0:
256,192,53658,1,0,0:0:0:0:
256,192,53806,1,8,0:0:0:0:
256,192,53955,1,8,0:0:0:0:
256,192,54103,1,0,0:0:0:0:
256,192,54252,1,8,0:0:0:0:
256,192,54400,1,8,0:0:0:0:
256,192,54549,1,0,0:0:0:0:
256,192,54697,1,0,0:0:0:0:
256,192,54846,1,8,0:0:0:0:
256,192,55143,1,0,0:0:0:0:
256,192,55292,1,8,0:0:0:0:
256,192,55440,1,0,0:0:0:0:
256,192,55589,1,0,0:0:0:0:
256,192,55737,1,8,0:0:0:0:
256,192,55886,1,0,0:0:0:0:
256,192,55960,1,0,0:0:0:0:
256,192,56034,1,8,0:0:0:0:
256,192,56183,1,0,0:0:0:0:
256,192,56331,1,8,0:0:0:0:
256,192,56480,1,0,0:0:0:0:
256,192,56554,1,0,0:0:0:0:
256,192,56628,1,8,0:0:0:0:
256,192,56702,1,8,0:0:0:0:
256,192,56777,1,0,0:0:0:0:
256,192,56925,1,8,0:0:0:0:
256,192,57222,1,4,0:0:0:0:
256,192,57519,1,8,0:0:0:0:
256,192,57668,1,8,0:0:0:0:
256,192,57965,1,0,0:0:0:0:
256,192,58113,1,8,0:0:0:0:
256,192,58262,1,8,0:0:0:0:
256,192,58410,1,0,0:0:0:0:
256,192,58559,1,8,0:0:0:0:
256,192,58856,1,8,0:0:0:0:
256,192,59004,1,0,0:0:0:0:
256,192,59153,1,8,0:0:0:0:
256,192,59301,1,8,0:0:0:0:
256,192,59450,1,0,0:0:0:0:
256,192,59598,1,8,0:0:0:0:
256,192,59895,1,0,0:0:0:0:
256,192,60044,1,8,0:0:0:0:
256,192,60192,1,0,0:0:0:0:
256,192,60341,1,0,0:0:0:0:
256,192,60490,1,8,0:0:0:0:
256,192,60638,1,8,0:0:0:0:
256,192,60712,1,8,0:0:0:0:
256,192,60787,1,0,0:0:0:0:
256,192,60935,1,8,0:0:0:0:
256,192,61084,1,0,0:0:0:0:
256,192,61158,1,0,0:0:0:0:
256,192,61232,1,8,0:0:0:0:
256,192,61306,1,8,0:0:0:0:
256,192,61381,1,8,0:0:0:0:
256,192,61529,1,0,0:0:0:0:
256,192,61678,1,8,0:0:0:0:
256,192,61826,1,8,0:0:0:0:
256,192,61975,1,0,0:0:0:0:
256,192,62123,1,8,0:0:0:0:
256,192,62420,1,0,0:0:0:0:
256,192,62717,1,8,0:0:0:0:
256,192,63014,1,8,0:0:0:0:
256,192,63163,1,0,0:0:0:0:
256,192,63311,1,8,0:0:0:0:
256,192,63608,1,0,0:0:0:0:
256,192,63905,1,8,0:0:0:0:
256,192,64054,1,0,0:0:0:0:
256,192,64351,1,8,0:0:0:0:
256,192,64499,1,0,0:0:0:0:
256,192,64796,1,8,0:0:0:0:
256,192,65093,1,0,0:0:0:0:
256,192,65242,1,8,0:0:0:0:
256,192,65391,1,8,0:0:0:0:
256,192,65539,1,8,0:0:0:0:
256,192,65688,1,0,0:0:0:0:
256,192,65836,1,8,0:0:0:0:
256,192,65985,1,0,0:0:0:0:
256,192,66059,1,0,0:0:0:0:
256,192,66133,1,8,0:0:0:0:
256,192,66207,1,8,0:0:0:0:
256,192,66282,1,0,0:0:0:0:
256,192,66356,1,0,0:0:0:0:
256,192,66430,1,8,0:0:0:0:
256,192,66579,1,8,0:0:0:0:
256,192,66727,1,0,0:0:0:0:
256,192,66876,1,8,0:0:0:0:
256,192,66950,1,8,0:0:0:0:
256,192,67024,1,8,0:0:0:0:
256,192,67173,1,4,0:0:0:0:
256,192,67470,1,4,0:0:0:0:
256,192,67767,1,12,0:0:0:0:
256,192,68361,1,8,0:0:0:0:
256,192,68509,1,0,0:0:0:0:
256,192,68707,1,0,0:0:0:0:
256,192,68905,1,0,0:0:0:0:
256,192,69103,1,12,0:0:0:0:
256,192,69252,1,0,0:0:0:0:
256,192,69400,1,8,0:0:0:0:
256,192,69549,1,8,0:0:0:0:
256,192,69623,1,8,0:0:0:0:
256,192,69697,1,0,0:0:0:0:
256,192,69846,1,8,0:0:0:0:
256,192,69994,1,8,0:0:0:0:
256,192,70143,1,8,0:0:0:0:
256,192,70292,1,0,0:0:0:0:
256,192,70440,1,8,0:0:0:0:
256,192,70589,1,0,0:0:0:0:
256,192,70737,1,8,0:0:0:0:
256,192,71034,1,0,0:0:0:0:
256,192,71183,1,8,0:0:0:0:
256,192,71331,1,0,0:0:0:0:
256,192,71405,1,0,0:0:0:0:
256,192,71480,1,8,0:0:0:0:
256,192,71628,1,0,0:0:0:0:
256,192,71777,1,8,0:0:0:0:
256,192,71925,1,8,0:0:0:0:
256,192,72074,1,0,0:0:0:0:
256,192,72222,1,8,0:0:0:0:
256,192,72371,1,8,0:0:0:0:
256,192,72519,1,0,0:0:0:0:
256,192,72593,1,0,0:0:0:0:
256,192,72668,1,0,0:0:0:0:
256,192,72816,1,8,0:0:0:0:
256,192,72965,1,0,0:0:0:0:
256,192,73113,1,8,0:0:0:0:
256,192,73188,1,8,0:0:0:0:
256,192,73262,1,8,0:0:0:0:
256,192,73410,1,0,0:0:0:0:
256,192,73485,1,0,0:0:0:0:
256,192,73559,1,8,0:0:0:0:
256,192,73856,1,4,0:0:0:0:
256,192,74004,1,8,0:0:0:0:
256,192,74153,1,8,0:0:0:0:
256,192,74301,1,0,0:0:0:0:
256,192,74450,1,8,0:0:0:0:
256,192,74598,1,0,0:0:0:0:
256,192,74747,1,8,0:0:0:0:
256,192,74895,1,8,0:0:0:0:
256,192,75044,1,0,0:0:0:0:
256,192,75193,1,8,0:0:0:0:
256,192,75267,1,8,0:0:0:0:
256,192,75341,1,8,0:0:0:0:
256,192,75490,1,0,0:0:0:0:
256,192,75564,1,0,0:0:0:0:
256,192,75638,1,8,0:0:0:0:
256,192,75712,1,0,0:0:0:0:
256,192,75787,1,8,0:0:0:0:
256,192,75935,1,8,0:0:0:0:
256,192,76084,1,0,0:0:0:0:
256,192,76232,1,8,0:0:0:0:
256,192,76381,1,0,0:0:0:0:
256,192,76455,1,0,0:0:0:0:
256,192,76529,1,0,0:0:0:0:
256,192,76678,1,12,0:0:0:0:
256,192,76975,1,12,0:0:0:0:
256,192,77272,1,0,0:0:0:0:
256,192,77420,1,8,0:0:0:0:
256,192,77569,1,8,0:0:0:0:
256,192,77643,1,8,0:0:0:0:
256,192,77717,1,0,0:0:0:0:
256,192,77866,1,12,0:0:0:0:
256,192,78163,1,12,0:0:0:0:
256,192,78311,1,0,0:0:0:0:
256,192,78460,1,0,0:0:0:0:
256,192,78608,1,12,0:0:0:0:
256,192,78757,1,12,0:0:0:0:
256,192,79054,1,4,0:0:0:0:
256,192,79351,1,4,0:0:0:0:
256,192,79648,1,12,0:0:0:0:
256,192,79796,12,0,80688,0:0:0:0:
