osu file format v14

[General]
AudioFilename: audio.mp3
AudioLeadIn: 0
PreviewTime: 46628
Countdown: 0
SampleSet: Normal
StackLeniency: 0.7
Mode: 1
LetterboxInBreaks: 0
WidescreenStoryboard: 0

[Editor]
DistanceSpacing: 1
BeatDivisor: 4
GridSize: 32
TimelineZoom: 1.3

[Metadata]
Title:Responsibility Response (Cut Ver.)
TitleUnicode:Responsibility Response (Cut Ver.)
Artist:Akazawa Izumi (CV: Yonezawa Madoka)
ArtistUnicode:赤沢泉美 (CV: 米澤円)
Creator:Faputa
Version:Muzukashii
Source:Another
Tags:キャラクターソングアルバム Character Songs Album Party 歌宴 LACA-15196 Lantis 松井洋平 Matsui Youhei Adoriano Spinesi アナザー Salsa Japanese Anime Jpop J-pop pop radar ilv_Rem Yasuho
BeatmapID:2851871
BeatmapSetID:1380137

[Difficulty]
HPDrainRate:6
CircleSize:2
OverallDifficulty:5
ApproachRate:10
SliderMultiplier:1.4
SliderTickRate:1

[Events]
//Background and Video events
0,0,"another.jpg",0,0
//Break Periods
//Storyboard Layer 0 (Background)
//Storyboard Layer 1 (Fail)
//Storyboard Layer 2 (Pass)
//Storyboard Layer 3 (Foreground)
//Storyboard Layer 4 (Overlay)
//Storyboard Sound Samples

[TimingPoints]
193,297.029702970297,4,1,0,85,1,0
193,-104.166666666667,4,1,0,85,0,0
47569,-104.166666666667,4,1,0,95,0,0
47717,-104.166666666667,4,1,0,95,0,1
68509,-104.166666666667,4,1,0,90,0,0

[HitObjects]
256,192,193,5,0,0:0:0:0:
256,192,490,1,8,0:0:0:0:
256,192,638,1,0,0:0:0:0:
256,192,935,1,8,0:0:0:0:
256,192,1232,1,0,0:0:0:0:
256,192,1529,1,8,0:0:0:0:
256,192,1826,1,0,0:0:0:0:
256,192,2272,1,8,0:0:0:0:
256,192,2420,1,8,0:0:0:0:
256,192,2569,1,0,0:0:0:0:
256,192,2866,1,8,0:0:0:0:
256,192,3014,1,0,0:0:0:0:
256,192,3311,1,8,0:0:0:0:
256,192,3608,1,0,0:0:0:0:
256,192,3905,1,0,0:0:0:0:
256,192,4054,1,8,0:0:0:0:
256,192,4202,1,8,0:0:0:0:
256,192,4351,1,8,0:0:0:0:
256,192,4648,1,0,0:0:0:0:
256,192,4945,1,12,0:0:0:0:
256,192,5391,1,4,0:0:0:0:
256,192,5836,1,4,0:0:0:0:
256,192,6133,1,12,0:0:0:0:
256,192,6579,1,12,0:0:0:0:
256,192,7321,1,4,0:0:0:0:
256,192,7767,1,4,0:0:0:0:
256,192,8212,1,4,0:0:0:0:
256,192,8509,1,12,0:0:0:0:
256,192,8658,1,0,0:0:0:0:
256,192,8732,1,0,0:0:0:0:
256,192,8806,1,0,0:0:0:0:
256,192,8955,1,8,0:0:0:0:
256,192,9103,1,0,0:0:0:0:
256,192,9400,1,8,0:0:0:0:
256,192,9697,1,12,0:0:0:0:
256,192,10143,1,4,0:0:0:0:
256,192,10589,1,4,0:0:0:0:
256,192,10886,1,12,0:0:0:0:
256,192,11331,1,12,0:0:0:0:
256,192,11777,1,12,0:0:0:0:
256,192,12074,1,4,0:0:0:0:
256,192,12519,1,4,0:0:0:0:
256,192,12965,1,4,0:0:0:0:
256,192,13856,1,8,0:0:0:0:
256,192,14153,1,8,0:0:0:0:
256,192,14301,1,8,0:0:0:0:
256,192,14450,1,0,0:0:0:0:
256,192,14895,1,0,0:0:0:0:
256,192,15192,1,8,0:0:0:0:
256,192,15490,1,0,0:0:0:0:
256,192,15638,1,8,0:0:0:0:
256,192,15935,1,0,0:0:0:0:
256,192,16232,1,8,0:0:0:0:
256,192,16529,1,8,0:0:0:0:
256,192,16678,1,8,0:0:0:0:
256,192,16826,1,0,0:0:0:0:
256,192,17272,1,8,0:0:0:0:
256,192,17569,1,8,0:0:0:0:
256,192,17866,1,0,0:0:0:0:
256,192,18014,1,8,0:0:0:0:
256,192,18311,1,0,0:0:0:0:
256,192,18608,1,8,0:0:0:0:
256,192,18905,1,0,0:0:0:0:
256,192,19054,1,0,0:0:0:0:
256,192,19202,1,8,0:0:0:0:
256,192,19648,1,8,0:0:0:0:
256,192,19796,1,0,0:0:0:0:
256,192,20093,1,8,0:0:0:0:
256,192,20242,1,8,0:0:0:0:
256,192,20391,1,0,0:0:0:0:
256,192,20688,1,8,0:0:0:0:
256,192,20836,1,8,0:0:0:0:
256,192,21282,1,0,0:0:0:0:
256,192,21579,1,8,0:0:0:0:
256,192,21876,1,8,0:0:0:0:
256,192,22024,1,0,0:0:0:0:
256,192,22321,1,8,0:0:0:0:
256,192,22618,1,0,0:0:0:0:
256,192,22767,1,8,0:0:0:0:
256,192,23064,1,8,0:0:0:0:
256,192,23361,1,0,0:0:0:0:
256,192,23435,1,0,0:0:0:0:
256,192,23509,1,0,0:0:0:0:
256,192,23658,1,8,0:0:0:0:
256,192,23806,1,8,0:0:0:0:
256,192,23955,1,0,0:0:0:0:
256,192,24400,1,0,0:0:0:0:
256,192,24697,1,8,0:0:0:0:
256,192,24994,1,0,0:0:0:0:
256,192,25143,1,8,0:0:0:0:
256,192,25440,1,0,0:0:0:0:
256,192,25737,1,8,0:0:0:0:
256,192,26034,1,0,0:0:0:0:
256,192,26183,1,8,0:0:0:0:
256,192,26331,1,0,0:0:0:0:
256,192,26628,1,8,0:0:0:0:
256,192,26777,1,8,0:0:0:0:
256,192,27074,1,8,0:0:0:0:
256,192,27371,1,0,0:0:0:0:
256,192,27519,1,8,0:0:0:0:
256,192,27816,1,8,0:0:0:0:
256,192,28113,1,8,0:0:0:0:
256,192,28262,1,0,0:0:0:0:
256,192,28410,1,8,0:0:0:0:
256,192,28707,1,8,0:0:0:0:
256,192,29153,1,8,0:0:0:0:
256,192,29301,1,0,0:0:0:0:
256,192,29450,1,8,0:0:0:0:
256,192,29598,1,0,0:0:0:0:
256,192,29895,1,8,0:0:0:0:
256,192,30341,1,8,0:0:0:0:
256,192,30787,1,0,0:0:0:0:
256,192,31084,1,8,0:0:0:0:
256,192,31381,1,8,0:0:0:0:
256,192,31678,1,8,0:0:0:0:
256,192,31826,1,8,0:0:0:0:
256,192,31975,1,0,0:0:0:0:
256,192,32123,1,0,0:0:0:0:
256,192,32272,1,8,0:0:0:0:
256,192,32569,1,8,0:0:0:0:
256,192,32717,1,0,0:0:0:0:
256,192,32792,1,0,0:0:0:0:
256,192,32866,1,0,0:0:0:0:
256,192,33014,1,8,0:0:0:0:
256,192,33163,1,8,0:0:0:0:
256,192,33460,1,12,0:0:0:0:
256,192,33905,1,8,0:0:0:0:
256,192,34351,1,0,0:0:0:0:
256,192,34648,1,8,0:0:0:0:
256,192,35093,1,0,0:0:0:0:
256,192,35539,1,0,0:0:0:0:
256,192,35688,1,0,0:0:0:0:
256,192,35836,1,8,0:0:0:0:
256,192,36282,1,8,0:0:0:0:
256,192,36727,1,8,0:0:0:0:
256,192,37024,1,0,0:0:0:0:
256,192,37915,1,8,0:0:0:0:
256,192,38212,1,4,0:0:0:0:
256,192,38658,1,0,0:0:0:0:
256,192,39103,1,8,0:0:0:0:
256,192,39252,1,8,0:0:0:0:
256,192,39400,1,0,0:0:0:0:
256,192,39846,1,8,0:0:0:0:
256,192,40292,1,0,0:0:0:0:
256,192,40589,1,8,0:0:0:0:
256,192,41034,1,0,0:0:0:0:
256,192,41480,1,8,0:0:0:0:
256,192,41777,1,0,0:0:0:0:
256,192,42074,1,8,0:0:0:0:
256,192,42222,1,0,0:0:0:0:
256,192,42371,1,8,0:0:0:0:
256,192,42668,1,0,0:0:0:0:
256,192,42965,1,8,0:0:0:0:
256,192,43262,1,0,0:0:0:0:
256,192,43410,1,8,0:0:0:0:
256,192,43559,1,0,0:0:0:0:
256,192,43856,1,8,0:0:0:0:
256,192,44153,1,0,0:0:0:0:
256,192,44450,1,8,0:0:0:0:
256,192,44598,1,8,0:0:0:0:
256,192,44747,1,0,0:0:0:0:
256,192,45044,1,0,0:0:0:0:
256,192,45341,1,12,0:0:0:0:
256,192,45638,1,12,0:0:0:0:
256,192,45935,1,12,0:0:0:0:
256,192,46232,1,12,0:0:0:0:
256,192,46678,1,8,0:0:0:0:
256,192,46975,1,8,0:0:0:0:
256,192,47123,1,8,0:0:0:0:
256,192,47420,1,0,0:0:0:0:
256,192,47717,1,12,0:0:0:0:
256,192,48163,1,8,0:0:0:0:
256,192,48460,1,0,0:0:0:0:
256,192,48608,1,8,0:0:0:0:
256,192,48905,1,0,0:0:0:0:
256,192,49054,1,8,0:0:0:0:
256,192,49351,1,8,0:0:0:0:
256,192,49499,1,8,0:0:0:0:
256,192,49648,1,0,0:0:0:0:
256,192,49796,1,8,0:0:0:0:
256,192,50093,1,8,0:0:0:0:
256,192,50391,1,0,0:0:0:0:
256,192,50688,1,8,0:0:0:0:
256,192,50836,1,8,0:0:0:0:
256,192,50985,1,8,0:0:0:0:
256,192,51133,1,0,0:0:0:0:
256,192,51282,1,8,0:0:0:0:
256,192,51579,1,0,0:0:0:0:
256,192,51727,1,0,0:0:0:0:
256,192,51876,1,8,0:0:0:0:
256,192,52024,1,0,0:0:0:0:
256,192,52173,1,8,0:0:0:0:
256,192,52321,1,0,0:0:0:0:
256,192,52470,1,8,0:0:0:0:
256,192,52915,1,8,0:0:0:0:
256,192,53212,1,0,0:0:0:0:
256,192,53361,1,0,0:0:0:0:
256,192,53509,1,8,0:0:0:0:
256,192,53658,1,0,0:0:0:0:
256,192,53806,1,8,0:0:0:0:
256,192,54103,1,0,0:0:0:0:
256,192,54252,1,8,0:0:0:0:
256,192,54549,1,0,0:0:0:0:
256,192,54697,1,0,0:0:0:0:
256,192,54846,1,8,0:0:0:0:
256,192,55143,1,0,0:0:0:0:
256,192,55440,1,8,0:0:0:0:
256,192,55737,1,8,0:0:0:0:
256,192,55886,1,0,0:0:0:0:
256,192,56034,1,12,0:0:0:0:
256,192,56331,1,12,0:0:0:0:
256,192,56628,1,12,0:0:0:0:
256,192,56925,1,12,0:0:0:0:
256,192,57222,1,4,0:0:0:0:
256,192,57668,1,8,0:0:0:0:
256,192,57965,1,0,0:0:0:0:
256,192,58113,1,8,0:0:0:0:
256,192,58410,1,0,0:0:0:0:
256,192,58559,1,8,0:0:0:0:
256,192,58856,1,8,0:0:0:0:
256,192,59004,1,0,0:0:0:0:
256,192,59153,1,8,0:0:0:0:
256,192,59301,1,8,0:0:0:0:
256,192,59598,1,8,0:0:0:0:
256,192,59895,1,0,0:0:0:0:
256,192,60192,1,8,0:0:0:0:
256,192,60341,1,0,0:0:0:0:
256,192,60490,1,8,0:0:0:0:
256,192,60638,1,8,0:0:0:0:
256,192,60787,1,0,0:0:0:0:
256,192,61084,1,0,0:0:0:0:
256,192,61232,1,8,0:0:0:0:
256,192,61381,1,8,0:0:0:0:
256,192,61529,1,0,0:0:0:0:
256,192,61678,1,8,0:0:0:0:
256,192,61826,1,8,0:0:0:0:
256,192,61975,1,0,0:0:0:0:
256,192,62123,1,8,0:0:0:0:
256,192,62420,1,0,0:0:0:0:
256,192,62717,1,8,0:0:0:0:
256,192,63014,1,8,0:0:0:0:
256,192,63311,1,0,0:0:0:0:
256,192,63608,1,8,0:0:0:0:
256,192,63905,1,0,0:0:0:0:
256,192,64351,1,8,0:0:0:0:
256,192,64499,1,0,0:0:0:0:
256,192,64796,1,8,0:0:0:0:
256,192,65093,1,0,0:0:0:0:
256,192,65391,1,8,0:0:0:0:
256,192,65688,1,0,0:0:0:0:
256,192,65836,1,8,0:0:0:0:
256,192,65985,1,0,0:0:0:0:
256,192,66282,1,8,0:0:0:0:
256,192,66430,1,8,0:0:0:0:
256,192,66579,1,8,0:0:0:0:
256,192,66727,1,0,0:0:0:0:
256,192,67024,1,8,0:0:0:0:
256,192,67173,1,4,0:0:0:0:
256,192,67470,1,4,0:0:0:0:
256,192,67767,1,12,0:0:0:0:
256,192,68509,1,0,0:0:0:0:
256,192,68707,1,0,0:0:0:0:
256,192,68905,1,0,0:0:0:0:
256,192,69103,1,12,0:0:0:0:
256,192,69400,1,8,0:0:0:0:
256,192,69549,1,8,0:0:0:0:
256,192,69697,1,0,0:0:0:0:
256,192,69846,1,8,0:0:0:0:
256,192,70143,1,8,0:0:0:0:
256,192,70440,1,0,0:0:0:0:
256,192,70737,1,8,0:0:0:0:
256,192,71183,1,8,0:0:0:0:
256,192,71331,1,0,0:0:0:0:
256,192,71480,1,8,0:0:0:0:
256,192,71628,1,0,0:0:0:0:
256,192,71777,1,8,0:0:0:0:
256,192,72074,1,0,0:0:0:0:
256,192,72222,1,8,0:0:0:0:
256,192,72519,1,8,0:0:0:0:
256,192,72816,1,0,0:0:0:0:
256,192,72965,1,8,0:0:0:0:
256,192,73113,1,8,0:0:0:0:
256,192,73188,1,8,0:0:0:0:
256,192,73262,1,8,0:0:0:0:
256,192,73559,1,8,0:0:0:0:
256,192,73856,1,4,0:0:0:0:
256,192,74153,1,8,0:0:0:0:
256,192,74450,1,8,0:0:0:0:
256,192,74598,1,0,0:0:0:0:
256,192,74747,1,8,0:0:0:0:
256,192,74895,1,8,0:0:0:0:
256,192,75193,1,8,0:0:0:0:
256,192,75267,1,8,0:0:0:0:
256,192,75341,1,8,0:0:0:0:
256,192,75490,1,0,0:0:0:0:
256,192,75787,1,8,0:0:0:0:
256,192,75935,1,8,0:0:0:0:
256,192,76232,1,0,0:0:0:0:
256,192,76678,1,8,0:0:0:0:
256,192,76975,1,8,0:0:0:0:
256,192,77272,1,0,0:0:0:0:
256,192,77420,1,8,0:0:0:0:
256,192,77569,1,0,0:0:0:0:
256,192,77866,1,8,0:0:0:0:
256,192,78163,1,8,0:0:0:0:
256,192,78311,1,0,0:0:0:0:
256,192,78460,1,0,0:0:0:0:
256,192,78608,1,8,0:0:0:0:
256,192,78757,1,8,0:0:0:0:
256,192,79054,1,4,0:0:0:0:
256,192,79351,1,4,0:0:0:0:
256,192,79648,1,12,0:0:0:0:
256,192,79796,12,0,80688,0:0:0:0:
