osu file format v14

[General]
AudioFilename: audio.mp3
AudioLeadIn: 0
PreviewTime: 135274
Countdown: 0
SampleSet: None
StackLeniency: 0.7
Mode: 0
LetterboxInBreaks: 0
WidescreenStoryboard: 0

[Editor]
Bookmarks: 88,3070,14995,26920,38101,38846,50771,62697,76113,88038,94001,96983,99964,102945,104436,105927,108908,114498,120833,134250,135740,147666,153629,156610,159591,162573,164063,165554,177479,180461,192386,207293,219219,225181,231144,235616,237852,243499,254793,266087,268910,280204,291499,304204,315499,321146,323969,326793,329616,340910,352204,360675,367734,379028,384675,387499,390322,393146,395969,398793,401616,410087,412734,424204,435499,446793,449616,460910,472204,477851,480675,489146,491969,497616,500440,503263,505204,506087,511734,517381,520557,526734
DistanceSpacing: 1.4
BeatDivisor: 4
GridSize: 4
TimelineZoom: 1

[Metadata]
Title:First Memory/Next Memory
TitleUnicode:First Memory/Next Memory
Artist:Akatsuki Records x Liz Triangle
ArtistUnicode:暁Records×Liz Triangle
Creator:Project Railgun
Version:Last Memory
Source:東方風神録 ~ Mountain of Faith
Tags:liz triangle touhou
BeatmapID:1564905
BeatmapSetID:741820

[Difficulty]
HPDrainRate:6
CircleSize:4.1
OverallDifficulty:6.5
ApproachRate:9.3
SliderMultiplier:2
SliderTickRate:1

[Events]
//Background and Video events
0,0,"back.jpg",0,0
//Break Periods
2,39045,50217
2,109108,113944
//Storyboard Layer 0 (Background)
//Storyboard Layer 1 (Fail)
//Storyboard Layer 2 (Pass)
//Storyboard Layer 3 (Foreground)
//Storyboard Sound Samples

[TimingPoints]
88,372.670807453416,4,2,1,80,1,0
2696,-133.333333333333,4,2,1,30,0,0
3069,-133.333333333333,4,2,1,80,0,0
14994,-100,4,2,1,100,0,0
26920,-100,4,2,1,100,0,1
38101,-100,4,2,1,100,0,0
76113,-100,4,2,1,100,0,1
87107,-100,4,2,1,100,0,0
88038,-100,4,2,1,100,0,1
93955,-100,4,2,1,100,0,0
94001,-100,4,2,1,100,0,1
96936,-100,4,2,1,100,0,0
96983,-100,4,2,1,100,0,1
99917,-100,4,2,1,100,0,0
99964,-100,4,2,1,100,0,1
108908,-100,4,2,1,100,0,0
135740,-100,4,2,1,100,0,1
146734,-100,4,2,1,100,0,0
147666,-100,4,2,1,100,0,1
153582,-100,4,2,1,100,0,0
153629,-100,4,2,1,100,0,1
156563,-100,4,2,1,100,0,0
156610,-100,4,2,1,100,0,1
159545,-100,4,2,1,100,0,0
159591,-100,4,2,1,100,0,1
164063,-100,4,2,1,100,0,0
165554,-100,4,2,1,100,0,1
165647,-100,4,2,1,100,0,0
219219,-100,4,2,1,100,0,1
231097,-100,4,2,1,100,0,0
231144,-100,4,2,1,100,0,1
235616,-100,4,2,1,100,0,0
237852,352.941176470588,4,2,1,100,1,0
254793,-100,4,2,1,100,0,1
266087,-100,4,2,1,100,0,0
304204,-100,4,2,1,100,0,1
321101,-100,4,2,1,100,0,0
321146,-100,4,2,1,100,0,1
323925,-100,4,2,1,100,0,0
323969,-100,4,2,1,100,0,1
326793,-100,4,2,1,100,0,0
367734,-100,4,2,1,100,0,1
384631,-100,4,2,1,100,0,0
384675,-100,4,2,1,100,0,1
387454,-100,4,2,1,100,0,0
387499,-100,4,2,1,100,0,1
390278,-100,4,2,1,100,0,0
390322,-100,4,2,1,100,0,1
390410,-100,4,2,1,100,0,0
410087,-100,4,2,1,100,0,1
412734,-100,4,2,1,100,0,0
424204,-100,4,2,1,100,0,1
424293,-100,4,2,1,100,0,0
449616,-100,4,2,1,100,0,1
460866,-100,4,2,1,100,0,0
460910,-100,4,2,1,100,0,1
472160,-100,4,2,1,100,0,0
472204,-100,4,2,1,100,0,1
477851,-100,4,2,1,100,0,0
480675,-100,4,2,1,100,0,1
489101,-100,4,2,1,100,0,0
489146,-100,4,2,1,100,0,1
491925,-100,4,2,1,100,0,0
491969,-100,4,2,1,100,0,1
497572,-100,4,2,1,100,0,0
497616,-100,4,2,1,100,0,1
500396,-100,4,2,1,100,0,0
500440,-100,4,2,1,100,0,1
503219,-100,4,2,1,100,0,0
503263,-100,4,2,1,100,0,1
505204,-100,4,2,1,100,0,0
506087,-100,4,2,1,100,0,1
517381,-100,4,2,1,100,0,0

[Colours]
Combo1 : 254,249,150
Combo2 : 21,230,131
Combo3 : 199,151,107
Combo4 : 174,160,222

[HitObjects]
376,164,2696,6,0,L|264:175,1,112.500004291535
207,179,3069,6,0,P|186:149|176:113,1,75.0000028610231,2|0,0:0|0:0,0:0:0:0:
256,20,3442,1,0,0:0:0:0:
376,164,3628,1,0,0:0:0:0:
256,268,3814,2,0,L|164:256,1,75.0000028610231,2|0,0:0|0:0,0:0:0:0:
40,336,4187,2,0,L|114:345,1,75.0000028610231
256,244,4560,5,2,0:0:0:0:
368,144,4746,1,0,0:0:0:0:
256,44,4932,1,0,0:0:0:0:
144,144,5119,1,0,0:0:0:0:
304,284,5305,2,0,P|337:299|374:296,1,75.0000028610231,2|0,0:0|0:0,0:0:0:0:
137,295,5678,2,0,P|174:299|208:284,1,75.0000028610231
384,88,6050,6,0,L|484:80,1,75.0000028610231,2|0,0:0|0:0,0:0:0:0:
320,168,6423,1,0,0:0:0:0:
424,0,6609,1,0,0:0:0:0:
512,168,6796,2,0,P|516:205|492:264,1,75.0000028610231,2|0,0:0|0:0,0:0:0:0:
404,364,7168,1,0,0:0:0:0:
316,184,7355,1,0,0:0:0:0:
156,336,7541,6,0,L|56:356,1,75.0000028610231,2|0,0:0|0:0,0:0:0:0:
12,192,7914,2,0,P|45:209|82:213,1,75.0000028610231
188,88,8286,1,2,0:0:0:0:
352,44,8473,1,0,0:0:0:0:
144,104,8659,1,0,0:0:0:0:
388,32,8845,1,0,0:0:0:0:
100,124,9032,6,0,L|116:228,1,75.0000028610231,2|0,0:0|0:0,0:0:0:0:
284,24,9404,2,0,L|300:128,1,75.0000028610231
372,304,9777,1,2,0:0:0:0:
208,348,9963,1,0,0:0:0:0:
432,284,10150,1,0,0:0:0:0:
152,368,10336,1,0,0:0:0:0:
472,260,10522,6,0,L|456:156,1,75.0000028610231,2|0,0:0|0:0,0:0:0:0:
242,16,10895,2,0,L|262:116,1,75.0000028610231
384,192,11268,1,2,0:0:0:0:
256,320,11454,1,0,0:0:0:0:
136,192,11640,1,0,0:0:0:0:
256,89,11827,1,0,0:0:0:0:
172,268,12013,6,0,P|135:273|98:266,1,75.0000028610231,2|0,0:0|0:0,0:0:0:0:
340,268,12386,2,0,P|376:273|413:266,1,75.0000028610231
96,96,12758,2,0,L|136:0,1,75.0000028610231,2|0,0:0|0:0,0:0:0:0:
388,26,13131,2,0,L|417:95,1,75.0000028610231
220,256,13504,5,2,0:0:0:0:
341,304,13690,1,0,0:0:0:0:
466,241,13876,1,0,0:0:0:0:
491,114,14063,1,0,0:0:0:0:
368,36,14249,2,0,L|268:48,1,75.0000028610231,2|0,0:0|0:0,0:0:0:0:
40,256,14622,1,0,0:0:0:0:
40,256,14994,6,0,L|139:242,1,100,4|0,0:0|0:0,0:0:0:0:
204,96,15367,2,0,L|105:109,1,100,8|0,0:0|0:0,0:0:0:0:
308,96,15740,2,0,L|407:109,1,100,2|0,0:0|0:0,0:0:0:0:
472,256,16113,2,0,L|373:242,1,100,8|0,0:0|0:0,0:0:0:0:
140,241,16485,6,0,P|127:288|141:336,1,100,2|0,0:0|0:0,0:0:0:0:
371,337,16858,2,0,P|385:289|372:241,1,100,8|0,0:0|0:0,0:0:0:0:
140,143,17230,2,0,P|127:95|141:47,1,100,2|0,0:0|0:0,0:0:0:0:
371,47,17603,2,0,P|385:94|372:142,1,100,8|0,0:0|0:0,0:0:0:0:
67,240,17976,6,0,P|100:329|194:338,1,200,2|8,0:0|0:0,0:0:0:0:
256,212,18535,1,0,0:0:0:0:
317,338,18721,2,0,P|411:329|444:240,1,200,2|8,0:0|0:0,0:0:0:0:
360,128,19280,1,0,0:0:0:0:
256,36,19466,6,0,L|156:36,1,100,2|0,0:0|0:0,0:0:0:0:
88,160,19839,2,0,L|188:160,1,100,8|0,0:0|0:0,0:0:0:0:
296,248,20212,1,2,0:0:0:0:
416,176,20398,1,0,0:0:0:0:
256,280,20584,1,8,0:0:0:0:
456,148,20771,1,0,0:0:0:0:
211,303,20957,6,0,P|116:290|48:359,1,200,2|8,0:0|0:0,0:0:0:0:
211,303,21516,1,0,0:0:0:0:
352,204,21702,2,0,L|364:80,1,100,2|0,0:0|0:0,0:0:0:0:
150,104,22075,2,0,L|160:204,1,100,8|0,0:0|0:0,0:0:0:0:
300,303,22448,6,0,P|395:290|463:359,1,200,2|8,0:0|0:0,0:0:0:0:
300,303,23007,1,0,0:0:0:0:
172,216,23193,2,0,P|152:170|159:121,1,100,2|0,0:0|0:0,0:0:0:0:
352,121,23566,2,0,P|359:170|340:216,1,100,8|0,0:0|0:0,0:0:0:0:
140,332,23938,6,0,L|40:343,1,100,4|0,0:0|0:0,0:0:0:0:
0,152,24311,2,0,L|99:140,1,100,8|0,0:0|0:0,0:0:0:0:
256,268,24684,1,2,0:0:0:0:
413,139,24870,1,0,0:0:0:0:
472,348,25056,1,8,0:0:0:0:
256,164,25243,1,0,0:0:0:0:
40,348,25429,1,4,0:0:0:0:
40,348,26920,6,0,P|136:337|198:261,1,200,4|8,0:0|0:0,0:0:0:0:
256,128,27479,1,0,0:0:0:0:
471,347,27665,2,0,P|374:336|313:261,1,200,2|8,0:0|0:0,0:0:0:0:
508,212,28224,1,0,0:0:0:0:
428,100,28410,6,0,L|328:112,1,100,2|0,0:0|0:0,0:0:0:0:
84,100,28783,2,0,L|184:112,1,100,8|0,0:0|0:0,0:0:0:0:
4,216,29156,1,2,0:0:0:0:
52,348,29342,1,0,0:0:0:0:
186,196,29528,2,0,P|195:245|180:292,1,100,8|0,0:0|0:0,0:0:0:0:
330,290,29901,6,0,P|314:244|324:196,1,100,4|0,0:0|0:0,0:0:0:0:
460,348,30274,1,8,0:0:0:0:
508,216,30460,1,0,0:0:0:0:
428,100,30647,2,0,L|331:74,1,100,2|0,0:0|0:0,0:0:0:0:
84,100,31019,2,0,L|180:74,1,100,8|0,0:0|0:0,0:0:0:0:
4,216,31392,5,2,0:0:0:0:
40,352,31578,1,0,0:0:0:0:
256,192,31765,1,8,0:0:0:0:
172,304,31951,1,0,0:0:0:0:
472,352,32137,1,2,0:0:0:0:
340,304,32324,1,0,0:0:0:0:
508,216,32510,2,0,L|493:117,1,100,8|0,0:0|0:0,0:0:0:0:
339,24,32883,6,0,P|254:67|168:24,1,200,4|8,0:0|0:0,0:0:0:0:
19,117,33442,1,0,0:0:0:0:
112,260,33628,2,0,P|145:296|193:307,1,100,2|0,0:0|0:0,0:0:0:0:
400,259,34001,2,0,P|366:296|318:307,1,100,8|0,0:0|0:0,0:0:0:0:
168,72,34373,6,0,P|253:28|339:72,1,200,4|8,0:0|0:0,0:0:0:0:
472,180,34932,1,0,0:0:0:0:
432,344,35119,2,0,L|333:360,1,100,2|0,0:0|0:0,0:0:0:0:
80,344,35491,2,0,L|178:360,1,100,8|0,0:0|0:0,0:0:0:0:
400,192,35864,5,4,0:0:0:0:
256,48,36050,1,0,0:0:0:0:
112,192,36237,1,8,0:0:0:0:
256,336,36423,2,0,L|353:314,1,100
152,368,36796,1,0,0:0:0:0:
440,288,36982,1,8,0:0:0:0:
256,48,37168,5,4,0:0:0:0:
256,48,37541,1,2,0:0:0:0:
440,288,37727,1,0,0:0:0:0:
72,288,37914,1,2,0:0:0:0:
476,288,38100,5,4,0:0:0:0:
36,288,38286,1,4,0:0:0:0:
392,72,38845,5,4,0:0:0:0:
424,108,50771,6,0,P|437:205|389:290,1,200,4|8,0:0|0:0,0:0:0:0:
256,340,51330,1,0,0:0:0:0:
156,244,51516,2,0,P|62:224|0:296,1,200,2|8,0:0|0:0,0:0:0:0:
364,360,52261,6,0,L|476:348,1,100,2|0,0:0|0:0,0:0:0:0:
360,256,52634,2,0,L|260:266,1,100,8|0,0:0|0:0,0:0:0:0:
124,300,53007,2,0,P|57:229|63:132,1,200,2|8,0:0|0:0,0:0:0:0:
140,16,53566,1,0,0:0:0:0:
256,96,53752,6,0,L|460:80,1,200,2|8,0:0|0:0,0:0:0:0:
508,212,54311,1,0,0:0:0:0:
408,308,54497,2,0,P|355:316|310:297,1,100,2|0,0:0|0:0,0:0:0:0:
256,172,54870,1,8,0:0:0:0:
199,299,55056,2,0,P|152:316|104:308,1,100,0|2,0:0|0:0,0:0:0:0:
40,184,55429,2,0,L|59:85,2,100,0|8|0,0:0|0:0|0:0,0:0:0:0:
136,36,55988,5,2,0:0:0:0:
256,184,56174,1,0,0:0:0:0:
376,36,56361,1,8,0:0:0:0:
256,184,56547,1,0,0:0:0:0:
344,320,56733,6,0,P|439:327|501:253,1,200,2|8,0:0|0:0,0:0:0:0:
256,184,57292,1,0,0:0:0:0:
10,253,57479,2,0,P|72:327|168:320,1,200,2|8,0:0|0:0,0:0:0:0:
256,184,58038,1,0,0:0:0:0:
313,51,58224,6,0,L|512:28,1,200,2|8,0:0|0:0,0:0:0:0:
256,184,58783,1,0,0:0:0:0:
0,28,58969,2,0,L|198:51,1,200,2|8,0:0|0:0,0:0:0:0:
256,184,59528,1,0,0:0:0:0:
384,256,59715,6,0,P|383:305|363:351,1,100,4|0,0:0|0:0,0:0:0:0:
148,351,60087,2,0,P|128:305|127:256,1,100,8|0,0:0|0:0,0:0:0:0:
256,136,60460,1,0,0:0:0:0:
384,256,60647,1,0,0:0:0:0:
432,88,60833,1,0,0:0:0:0:
256,248,61019,5,4,0:0:0:0:
256,248,61392,1,2,0:0:0:0:
112,136,61578,1,0,0:0:0:0:
256,12,61765,1,0,0:0:0:0:
456,192,61951,1,2,0:0:0:0:
400,248,62137,1,2,0:0:0:0:
336,296,62324,1,2,0:0:0:0:
276,340,62510,1,2,0:0:0:0:
103,359,62696,6,0,P|39:287|49:191,1,200,4|8,0:0|0:0,0:0:0:0:
128,76,63255,1,0,0:0:0:0:
256,16,63442,2,0,L|355:23,1,100,2|0,0:0|0:0,0:0:0:0:
472,104,63814,1,8,0:0:0:0:
388,216,64001,1,0,0:0:0:0:
284,124,64187,6,0,P|191:91|104:148,1,200,2|8,0:0|0:0,0:0:0:0:
20,248,64746,2,0,L|37:346,1,100,0|2,0:0|0:0,0:0:0:0:
176,372,65119,1,0,0:0:0:0:
256,252,65305,1,8,0:0:0:0:
256,252,65678,6,0,L|464:236,1,200,4|8,0:0|0:0,0:0:0:0:
508,104,66237,1,0,0:0:0:0:
404,12,66423,2,0,P|354:6|305:14,1,100,2|0,0:0|0:0,0:0:0:0:
108,12,66796,2,0,P|157:6|206:14,1,100,8|0,0:0|0:0,0:0:0:0:
384,184,67168,6,0,L|401:282,1,100,4|0,0:0|0:0,0:0:0:0:
110,282,67541,2,0,L|128:184,1,100,8|0,0:0|0:0,0:0:0:0:
496,312,67914,2,0,P|464:349|417:365,1,100,2|0,0:0|0:0,0:0:0:0:
336,336,68193,2,0,P|261:327|188:342,1,150,2|2,0:0|0:0,0:0:0:0:
20,240,68659,6,0,L|37:142,1,100,4|0,0:0|0:0,0:0:0:0:
144,24,69032,1,8,0:0:0:0:
256,140,69218,1,0,0:0:0:0:
368,24,69404,2,0,L|472:40,1,100,2|0,0:0|0:0,0:0:0:0:
496,176,69777,1,8,0:0:0:0:
388,268,69963,1,0,0:0:0:0:
256,140,70150,5,4,0:0:0:0:
124,268,70336,1,0,0:0:0:0:
64,108,70522,1,8,0:0:0:0:
448,108,70709,1,0,0:0:0:0:
256,16,70895,1,2,0:0:0:0:
388,268,71081,1,0,0:0:0:0:
256,140,71268,1,8,0:0:0:0:
124,268,71454,1,0,0:0:0:0:
380,28,71640,5,4,0:0:0:0:
120,156,72572,6,0,L|136:268,1,100,0|2,0:0|0:0,0:0:0:0:
256,328,72945,1,0,0:0:0:0:
344,220,73131,2,0,P|438:218|476:305,1,200,2|2,0:0|0:0,0:0:0:0:
340,332,73690,2,0,P|245:333|207:246,1,200,2|2,0:0|0:0,0:0:0:0:
423,67,74435,6,0,P|334:31|247:76,1,200,2|2,0:0|0:0,0:0:0:0:
108,192,74994,1,2,0:0:0:0:
252,368,75181,1,0,0:0:0:0:
416,192,75367,5,4,0:0:0:0:
108,192,75553,1,4,0:0:0:0:
76,156,75740,5,0,0:0:0:0:
256,8,75927,1,0,0:0:0:0:
32,248,76113,6,0,P|100:316|197:312,1,200,4|8,0:0|0:0,0:0:0:0:
256,232,76672,1,0,0:0:0:0:
480,247,76858,2,0,P|411:315|314:312,1,200,2|8,0:0|0:0,0:0:0:0:
436,156,77417,1,0,0:0:0:0:
351,103,77604,6,0,P|328:60|331:10,1,100,2|0,0:0|0:0,0:0:0:0:
188,104,77976,2,0,P|140:89|107:53,1,100,8|0,0:0|0:0,0:0:0:0:
120,240,78349,2,0,P|76:263|26:260,1,100,2|0,0:0|0:0,0:0:0:0:
56,164,78722,1,8,0:0:0:0:
256,236,78908,1,0,0:0:0:0:
455,163,79094,6,0,P|409:78|315:56,1,200,2|8,0:0|0:0,0:0:0:0:
256,136,79653,1,0,0:0:0:0:
55,163,79840,2,0,P|101:78|196:56,1,200,2|8,0:0|0:0,0:0:0:0:
32,260,80399,1,0,0:0:0:0:
96,336,80585,6,0,P|143:351|192:346,1,100,2|0,0:0|0:0,0:0:0:0:
416,335,80958,2,0,P|368:351|319:346,1,100,8|0,0:0|0:0,0:0:0:0:
164,232,81330,1,2,0:0:0:0:
348,232,81517,1,0,0:0:0:0:
256,36,81703,1,8,0:0:0:0:
256,36,81889,1,0,0:0:0:0:
66,138,82076,6,0,L|96:336,1,200,4|8,0:0|0:0,0:0:0:0:
180,280,82635,1,0,0:0:0:0:
438,328,82821,2,0,P|350:372|256:348,1,200,2|8,0:0|0:0,0:0:0:0:
496,248,83380,1,0,0:0:0:0:
440,164,83566,6,0,L|460:66,1,100,2|0,0:0|0:0,0:0:0:0:
300,0,83939,2,0,L|307:99,1,100,8|0,0:0|0:0,0:0:0:0:
72,164,84312,2,0,L|51:66,1,100,2|0,0:0|0:0,0:0:0:0:
212,0,84685,2,0,L|204:99,1,100,8|0,0:0|0:0,0:0:0:0:
176,232,85057,5,4,0:0:0:0:
388,344,85243,1,0,0:0:0:0:
376,128,85430,1,8,0:0:0:0:
176,232,85616,2,0,P|129:247|83:229,1,100,0|2,0:0|0:0,0:0:0:0:
388,116,85989,2,0,P|435:100|481:118,1,100,0|8,0:0|0:0,0:0:0:0:
436,320,86361,2,0,L|524:272,1,100,0|2,0:0|0:0,0:0:0:0:
340,340,86734,5,0,0:0:0:0:
244,316,86920,1,8,0:0:0:0:
172,248,87107,2,0,L|158:148,1,100,0|2,0:0|0:0,0:0:0:0:
376,40,87479,2,0,L|389:139,1,100,0|8,0:0|0:0,0:0:0:0:
256,244,87852,1,0,0:0:0:0:
52,147,88038,6,0,P|98:62|192:37,1,200,4|8,0:0|0:0,0:0:0:0:
256,116,88597,1,0,0:0:0:0:
459,147,88784,2,0,P|413:62|319:37,1,200,2|8,0:0|0:0,0:0:0:0:
168,124,89343,1,0,0:0:0:0:
28,224,89529,6,0,P|37:272|68:312,1,100,2|0,0:0|0:0,0:0:0:0:
326,305,89902,2,0,P|277:299|236:272,1,100,8|0,0:0|0:0,0:0:0:0:
416,144,90274,2,0,P|464:134|504:103,1,100,2|0,0:0|0:0,0:0:0:0:
392,12,90647,1,8,0:0:0:0:
256,128,90833,1,0,0:0:0:0:
119,12,91020,6,0,L|75:206,1,200,4|8,0:0|0:0,0:0:0:0:
256,304,91579,1,0,0:0:0:0:
436,206,91765,2,0,L|392:12,1,200,2|8,0:0|0:0,0:0:0:0:
256,80,92324,1,0,0:0:0:0:
75,206,92510,6,0,P|94:251|134:280,1,100,2|0,0:0|0:0,0:0:0:0:
437,206,92883,2,0,P|417:251|377:280,1,100,8|0,0:0|0:0,0:0:0:0:
256,80,93256,1,2,0:0:0:0:
75,206,93442,1,0,0:0:0:0:
256,340,93629,1,8,0:0:0:0:
437,206,93815,1,0,0:0:0:0:
292,64,94001,5,4,0:0:0:0:
168,200,94188,1,0,0:0:0:0:
348,100,94374,1,8,0:0:0:0:
128,152,94560,1,0,0:0:0:0:
356,168,94747,5,2,0:0:0:0:
128,88,94933,1,0,0:0:0:0:
308,220,95119,1,8,0:0:0:0:
160,40,95306,1,0,0:0:0:0:
208,248,95492,5,4,0:0:0:0:
312,16,95678,1,0,0:0:0:0:
280,264,95865,1,8,0:0:0:0:
252,8,96051,1,0,0:0:0:0:
340,248,96237,5,2,0:0:0:0:
176,20,96424,1,0,0:0:0:0:
400,208,96610,2,0,L|499:194,1,100,8|0,0:0|0:0,0:0:0:0:
168,308,96983,6,0,L|69:322,1,100,4|0,0:0|0:0,0:0:0:0:
44,48,97355,2,0,P|26:94|23:144,1,100,8|0,0:0|0:0,0:0:0:0:
204,88,97728,2,0,L|253:96,1,50,2|0,0:0|0:0,0:0:0:0:
120,204,97914,2,0,L|169:212,1,50
405,291,98101,2,0,L|356:300,1,50,8|0,0:0|0:0,0:0:0:0:
448,136,98287,2,0,L|399:145,1,50
256,44,98473,5,4,0:0:0:0:
208,336,98846,2,0,P|256:348|304:337,1,100,8|0,0:0|0:0,0:0:0:0:
388,280,99219,1,2,0:0:0:0:
440,196,99405,1,0,0:0:0:0:
412,100,99591,1,8,0:0:0:0:
336,36,99778,1,0,0:0:0:0:
27,196,99964,6,0,P|48:291|126:351,1,200,4|8,0:0|0:0,0:0:0:0:
256,280,100523,1,0,0:0:0:0:
484,196,100709,2,0,P|463:291|385:351,1,200,2|8,0:0|0:0,0:0:0:0:
256,280,101268,1,0,0:0:0:0:
156,36,101455,6,0,L|356:36,1,200,2|8,0:0|0:0,0:0:0:0:
448,116,102014,1,0,0:0:0:0:
455,235,102200,2,0,P|449:285|419:323,1,100,2|0,0:0|0:0,0:0:0:0:
56,235,102573,2,0,P|62:285|92:323,1,100,8|0,0:0|0:0,0:0:0:0:
256,168,102945,5,4,0:0:0:0:
124,76,103132,1,0,0:0:0:0:
56,235,103318,1,8,0:0:0:0:
256,336,103504,2,0,L|355:325,1,100,0|2,0:0|0:0,0:0:0:0:
55,234,103877,2,0,L|155:245,1,100,0|8,0:0|0:0,0:0:0:0:
355,325,104250,1,0,0:0:0:0:
484,228,104436,6,0,L|495:28,1,200,2|8,0:0|0:0,0:0:0:0:
347,76,104995,2,0,P|253:104|159:74,1,200
64,88,105554,2,0,L|71:137,1,50,2|0,0:0|0:0,0:0:0:0:
16,296,105740,2,0,L|8:246,1,50
168,268,105927,6,0,P|216:276|262:258,1,100,4|0,0:0|0:0,0:0:0:0:
396,148,106299,1,8,0:0:0:0:
256,44,106486,2,0,L|156:53,1,100,2|0,0:0|0:0,0:0:0:0:
60,184,106858,1,0,0:0:0:0:
128,304,107045,1,8,0:0:0:0:
260,216,107231,5,2,0:0:0:0:
308,264,107604,1,2,0:0:0:0:
360,308,107976,1,2,0:0:0:0:
476,228,108163,1,0,0:0:0:0:
456,360,108349,1,2,0:0:0:0:
356,160,108535,1,0,0:0:0:0:
304,360,108722,1,0,0:0:0:0:
464,144,108908,5,0,0:0:0:0:
164,320,114498,6,0,L|362:296,1,200,2|4,0:0|0:0,0:0:0:0:
432,224,115057,1,0,0:0:0:0:
364,152,115243,2,0,P|341:107|336:57,1,100,8|0,0:0|0:0,0:0:0:0:
175,57,115616,2,0,P|170:107|148:152,1,100,2|0,0:0|0:0,0:0:0:0:
24,196,115989,1,8,0:0:0:0:
72,320,116175,1,0,0:0:0:0:
188,256,116361,6,0,L|288:268,1,100,2|0,0:0|0:0,0:0:0:0:
416,112,116734,2,0,L|316:124,1,100,8|0,0:0|0:0,0:0:0:0:
192,80,117107,1,2,0:0:0:0:
96,252,117293,1,0,0:0:0:0:
256,352,117479,1,8,0:0:0:0:
416,252,117666,1,0,0:0:0:0:
427,63,117852,6,0,P|332:40|243:82,1,200,4|8,0:0|0:0,0:0:0:0:
256,192,118411,1,0,0:0:0:0:
268,301,118597,2,0,P|179:343|84:320,1,200,2|8,0:0|0:0,0:0:0:0:
28,236,119156,1,0,0:0:0:0:
72,144,119343,6,0,L|84:44,1,100,2|0,0:0|0:0,0:0:0:0:
427,44,119715,2,0,L|440:144,1,100,8|0,0:0|0:0,0:0:0:0:
412,280,120088,1,2,0:0:0:0:
256,360,120274,1,0,0:0:0:0:
100,280,120461,1,8,0:0:0:0:
256,140,120647,1,0,0:0:0:0:
480,331,120833,6,0,P|514:239|496:142,1,200,4|8,0:0|0:0,0:0:0:0:
