osu file format v14

[General]
AudioFilename: audio.mp3
AudioLeadIn: 0
PreviewTime: 218001
Countdown: 0
SampleSet: Soft
StackLeniency: 0.7
Mode: 2
LetterboxInBreaks: 0
WidescreenStoryboard: 0

[Editor]
Bookmarks: 20722,32874,45026,57178,69330,81482,93634,105786,117938,130089,142241,154393,160469,166545,178697,190849,193887,206039,218191,230343,242494,254646,266798,280469
DistanceSpacing: 1.3
BeatDivisor: 4
GridSize: 32
TimelineZoom: 2.3

[Metadata]
Title:Yuuki Kairai, Arui wa Sono Ai to Saisei
TitleUnicode:幽鬼傀儡、あるいはその愛と再生
Artist:Akatsuki Records
ArtistUnicode:暁Records
Creator:Seija
Version:You're My Beloved Puppet
Source:東方神霊廟 ~ Ten Desires.
Tags:少女救世論 Maiden's Salvation Theory リジッドパラダイス Rigid Paradise Stage 3 Yoshika Miyako 古きユアンシェン Old Yuanxian Stage 4 Seiga Kaku Touhou Shinreibyou Stack Bros ZUN Reitaisai 14 -Vale Video game japanese rock j-rock pop j-pop female vocals vocalist
BeatmapID:2114177
BeatmapSetID:1009932

[Difficulty]
HPDrainRate:6
CircleSize:4.3
OverallDifficulty:9.4
ApproachRate:9.4
SliderMultiplier:2
SliderTickRate:2

[Events]
//Background and Video events
0,0,"seiga nyan nyan.jpg",0,0
//Break Periods
2,191057,193333
//Storyboard Layer 0 (Background)
//Storyboard Layer 1 (Fail)
//Storyboard Layer 2 (Pass)
//Storyboard Layer 3 (Foreground)
//Storyboard Layer 4 (Overlay)
//Storyboard Sound Samples

[TimingPoints]
984,379.746835443038,4,2,1,80,1,0
18073,-100,4,2,1,50,0,0
20730,-100,4,2,1,75,0,0
32882,-100,4,2,2,75,0,0
33262,-133.333333333333,4,2,1,60,0,0
33642,-100,4,2,1,60,0,0
36680,-133.333333333333,4,2,1,60,0,0
38009,-100,4,2,1,60,0,0
45034,-100,4,2,1,75,0,0
45414,-100,4,2,1,60,0,0
45794,-133.333333333333,4,2,1,60,0,0
47313,-100,4,2,1,60,0,0
57186,-100,4,2,1,75,0,0
57946,-100,4,2,1,60,0,0
69338,-100,4,2,1,75,0,0
69718,-100,4,2,1,60,0,0
81490,-100,4,2,1,75,0,0
81680,-100,4,2,1,60,0,0
84528,-100,4,2,1,75,0,0
85097,-100,4,2,1,60,0,0
90604,-100,4,2,1,75,0,0
90984,-100,4,2,1,60,0,0
93642,-100,4,2,1,75,0,0
93832,-100,4,2,1,60,0,0
105794,-100,4,2,1,75,0,0
105984,-100,4,2,1,60,0,0
111870,-100,4,2,1,75,0,0
112059,-100,4,2,1,60,0,0
117946,-100,4,2,1,75,0,0
118135,-100,4,2,1,60,0,0
124021,-100,4,2,1,75,0,0
124211,-100,4,2,1,60,0,0
130097,-100,4,2,1,75,0,0
135414,-66.6666666666667,4,2,1,75,0,0
135984,-100,4,2,1,75,0,0
138832,-66.6666666666667,4,2,1,75,0,0
139116,-100,4,2,1,75,0,0
141490,-66.6666666666667,4,2,1,75,0,0
142249,-66.6666666666667,4,2,1,75,0,0
143578,-100,4,2,1,75,0,0
144338,-66.6666666666667,4,2,1,75,0,0
146616,-66.6666666666667,4,2,1,75,0,0
147566,-66.6666666666667,4,2,1,75,0,0
148325,-66.6666666666667,4,2,1,75,0,0
154401,-66.6666666666667,4,2,1,40,0,0
160477,-66.6666666666667,4,2,1,60,0,0
165794,-66.6666666666667,4,2,1,65,0,0
165984,-66.6666666666667,4,2,1,70,0,0
166173,-66.6666666666667,4,2,1,75,0,0
166363,-66.6666666666667,4,2,1,80,0,0
166933,-100,4,2,1,75,0,0
167313,-66.6666666666667,4,2,1,75,0,0
168072,-100,4,2,1,75,0,0
168832,-66.6666666666667,4,2,1,75,0,0
169211,-100,4,2,1,75,0,0
170351,-66.6666666666667,4,2,1,75,0,0
170635,-100,4,2,1,75,0,0
171490,-66.6666666666667,4,2,1,75,0,0
171680,-100,4,2,1,75,0,0
171870,-66.6666666666667,4,2,1,75,0,0
172439,-100,4,2,1,75,0,0
173389,-66.6666666666667,4,2,1,75,0,0
173768,-100,4,2,1,75,0,0
174148,-66.6666666666667,4,2,1,75,0,0
175667,-100,4,2,1,75,0,0
176427,-66.6666666666667,4,2,1,75,0,0
176996,-100,4,2,1,75,0,0
177756,-66.6666666666667,4,2,1,75,0,0
189338,-50,4,2,1,75,0,0
190477,-80,4,2,1,75,0,0
193895,-100,4,2,1,75,0,0
218199,-66.6666666666667,4,2,2,85,0,1
220097,-100,4,2,2,85,0,1
220857,-66.6666666666667,4,2,2,85,0,1
242123,-100,4,2,2,85,0,0
242502,-66.6666666666667,4,2,2,85,0,1
266806,-100,4,2,1,65,0,0
272123,-66.6666666666667,4,2,1,65,0,0
272692,-100,4,2,1,65,0,0
275540,-66.6666666666667,4,2,1,65,0,0
276110,-100,4,2,1,65,0,0
278199,-66.6666666666667,4,2,1,65,0,0
280477,-100,4,2,1,60,0,0
281047,-100,4,2,1,50,0,0
282566,-100,4,2,1,40,0,0
283705,-100,4,2,1,30,0,0
284844,-100,4,2,1,20,0,0
285984,-100,4,2,1,10,0,0

[Colours]
Combo1 : 22,55,141
Combo2 : 37,209,218
Combo3 : 199,61,61
Combo4 : 230,200,96

[HitObjects]
256,192,18072,12,0,20351,0:0:0:0:
95,251,20730,5,6,0:3:0:0:
370,248,20920,1,0,0:0:0:0:
148,248,21300,2,0,L|150:129,1,100,2|0,0:3|0:0,0:0:0:0:
296,168,21680,2,0,L|152:166,1,100,0|0,0:0|0:0,0:0:0:0:
340,111,22059,1,0,0:0:0:0:
73,132,22249,6,0,L|73:261,1,100,2|0,0:3|0:0,0:0:0:0:
224,314,22629,2,0,L|84:312,1,100,0|2,0:0|0:3,0:0:0:0:
265,243,23009,2,0,L|386:242,1,100
184,168,23389,2,0,P|137:204|202:265,1,150
344,169,23768,5,6,0:1:0:0:
184,168,23958,1,0,0:0:0:0:
423,187,24338,2,0,L|421:309,1,100,2|0,0:3|0:0,0:0:0:0:
269,324,24718,2,0,L|415:324,1,100,0|0,0:0|0:0,0:0:0:0:
218,253,25097,1,0,0:0:0:0:
476,261,25287,6,0,L|330:258,1,100,2|0,0:3|0:0,0:0:0:0:
194,266,25667,2,0,L|193:148,1,100,0|2,0:0|0:3,0:0:0:0:
455,160,26047,1,0,0:0:0:0:
145,187,26806,5,6,0:1:0:0:
443,194,26996,1,0,0:0:0:0:
158,196,27376,2,0,P|130:257|177:276,1,100,2|0,0:3|0:0,0:0:0:0:
306,275,27756,2,0,L|163:275,1,100,0|0,0:0|0:0,0:0:0:0:
370,215,28135,1,0,0:0:0:0:
106,246,28325,6,0,L|106:99,1,100,2|0,0:3|0:0,0:0:0:0:
280,155,28705,2,0,L|281:13,1,100,0|2,0:0|0:3,0:0:0:0:
137,57,29085,2,0,L|10:55,1,100,0|0,0:0|0:0,0:0:0:0:
218,102,29465,2,0,P|269:141|191:179,1,150,0|0,0:0|0:0,0:0:0:0:
67,195,29844,5,6,0:1:0:0:
241,196,30034,1,0,0:0:0:0:
40,189,30414,2,0,L|179:189,1,100,2|0,0:3|0:0,0:0:0:0:
305,188,30794,2,0,P|329:118|296:73,1,100,0|0,0:0|0:0,0:0:0:0:
175,97,31173,1,0,0:0:0:0:
435,129,31363,6,0,L|306:128,1,100,2|0,0:3|0:0,0:0:0:0:
154,143,31743,2,0,L|148:260,1,100,4|2,0:0|0:3,0:0:0:0:
300,308,32123,2,0,L|379:236,1,100
194,227,32502,2,0,L|74:224,1,100
356,201,32882,6,0,P|396:261|302:306,1,200,6|0,0:2|0:0,0:0:0:0:
170,297,33452,1,2,0:3:0:0:
356,296,33642,2,0,P|383:148|91:281,1,700
276,293,35161,2,0,L|141:292,1,100
378,262,35540,2,0,L|399:371,1,100
179,356,35920,6,0,P|123:343|192:254,1,200,2|0,0:3|0:0,0:0:0:0:
338,238,36490,1,2,0:3:0:0:
188,95,36680,2,0,P|16:233|210:365,1,525.000020027161
369,290,38199,2,0,L|268:290,1,100
463,199,38578,2,0,L|339:199,1,100
103,56,38958,6,0,P|46:89|115:182,1,200,2|0,0:3|0:0,0:0:0:0:
252,189,39528,1,2,0:3:0:0:
85,142,39718,2,0,L|66:352,1,200,0|0,0:0|0:0,0:0:0:0:
300,346,40477,6,0,L|185:347,1,100,0|0,0:0|0:0,0:0:0:0:
382,286,40857,2,0,P|438:252|373:147,1,200,0|0,0:0|0:0,0:0:0:0:
121,161,41616,2,0,L|106:33,1,100,0|0,0:0|0:0,0:0:0:0:
361,146,41996,6,0,L|59:242,2,300,2|2|0,0:3|0:3|0:0,0:0:0:0:
200,351,43515,6,0,P|135:331|207:166,1,300
319,198,44275,2,0,P|369:143|302:115,1,150
251,106,44654,2,0,L|110:104,1,100
413,171,45034,6,0,P|462:194|372:280,1,200,6|0,0:1|0:3,0:0:0:0:
249,292,45604,1,2,0:3:0:0:
107,276,45794,2,0,P|314:262|481:9,1,525.000020027161
290,32,47313,2,0,L|277:146,1,100
450,216,47692,2,0,L|323:216,1,100
57,150,48072,6,0,P|122:136|59:59,1,200,2|0,0:3|0:0,0:0:0:0:
208,46,48642,1,2,0:3:0:0:
328,35,48832,2,0,P|393:37|233:323,1,700
372,294,50351,2,0,L|394:163,1,100
200,191,50730,2,0,L|115:124,1,100
392,76,51110,6,0,P|461:123|374:177,1,200,2|0,0:3|0:0,0:0:0:0:
228,182,51680,1,2,0:3:0:0:
79,126,51870,2,0,L|314:126,1,200,0|0,0:0|0:0,0:0:0:0:
410,129,52439,1,0,0:0:0:0:
140,121,52629,6,0,P|80:193|168:222,1,200,0|0,0:0|0:0,0:0:0:0:
297,224,53199,1,0,0:0:0:0:
115,171,53389,2,0,L|301:170,1,150,0|0,0:0|0:0,0:0:0:0:
178,178,53768,2,0,L|156:299,1,100,0|0,0:0|0:0,0:0:0:0:
441,334,54148,6,0,L|123:324,2,300,2|2|0,0:3|0:3|0:0,0:0:0:0:
109,282,55667,6,0,L|249:281,2,100,0|0|0,0:0|0:0|0:0,0:0:0:0:
356,307,56427,2,0,L|390:200,1,100,0|0,0:0|0:0,0:0:0:0:
199,198,56806,2,0,L|183:82,1,100,0|0,0:0|0:0,0:0:0:0:
461,114,57186,5,4,0:0:0:0:
174,193,57946,1,2,0:0:0:0:
329,208,58135,1,2,0:0:0:0:
113,204,58515,6,0,P|64:229|149:324,1,200,2|0,0:0|0:0,0:0:0:0:
270,335,59085,2,0,L|128:304,1,100,2|0,0:0|0:0,0:0:0:0:
315,255,59465,2,0,L|337:149,1,100,2|0,0:0|0:0,0:0:0:0:
189,145,59844,1,2,0:0:0:0:
461,131,60034,6,0,P|465:186|128:326,1,500,2|0,0:0|0:0,0:0:0:0:
368,231,61363,1,2,0:0:0:0:
74,161,62502,1,0,0:0:0:0:
344,184,63262,6,0,P|443:216|329:313,1,300,4|0,0:1|0:0,0:0:0:0:
212,321,64021,1,2,0:0:0:0:
349,320,64211,2,0,L|353:195,1,100,2|0,0:0|0:0,0:0:0:0:
201,215,64591,6,0,P|151:211|222:55,1,300,2|2,0:0|0:0,0:0:0:0:
405,72,65540,2,0,L|172:136,1,200,2|2,0:0|0:0,0:0:0:0:
398,198,66110,1,2,0:0:0:0:
108,235,66680,6,0,L|328:235,1,200,2|0,0:0|0:0,0:0:0:0:
117,182,67439,2,0,P|55:251|137:299,1,200,2|0,0:0|0:0,0:0:0:0:
424,290,68199,2,0,L|179:289,2,200,2|0|2,0:0|0:0|0:0,0:0:0:0:
148,212,69338,6,0,L|368:211,1,200,6|0,0:1|0:0,0:0:0:0:
227,162,69908,1,2,0:3:0:0:
376,165,70097,1,2,0:0:0:0:
196,142,70287,2,0,L|217:265,1,100,2|0,0:0|0:0,0:0:0:0:
414,266,70667,6,0,P|468:291|393:382,1,200,2|0,0:0|0:0,0:0:0:0:
236,360,71237,2,0,L|229:242,1,100,2|8,0:0|0:3,0:0:0:0:
388,220,71616,2,0,L|246:220,1,100,2|0,0:0|0:0,0:0:0:0:
443,149,71996,1,2,0:3:0:0:
117,145,72376,6,0,L|438:143,2,300,2|2|0,0:3|0:3|0:0,0:0:0:0:
299,292,73895,6,0,P|366:268|297:192,1,200,8|0,0:1|0:0,0:0:0:0:
162,180,74465,2,0,L|380:175,2,200,8|0|0,0:3|0:0|0:0,0:0:0:0:
437,273,75414,5,2,0:3:0:0:
215,326,75794,2,0,L|199:226,1,100,2|8,0:0|0:3,0:0:0:0:
341,230,76173,2,0,P|388:177|312:150,1,150,2|0,0:0|0:0,0:0:0:0:
257,138,76553,1,2,0:0:0:0:
439,110,76743,6,0,L|110:108,1,300,0|0,0:0|0:0,0:0:0:0:
271,159,77502,1,8,0:3:0:0:
134,160,77692,2,0,L|119:293,1,100,2|0,0:0|0:0,0:0:0:0:
268,260,78072,1,0,0:0:0:0:
101,270,78262,6,0,L|336:267,1,200,2|0,0:0|0:0,0:0:0:0:
124,192,78832,2,0,P|74:259|178:318,1,200,2|0,0:0|0:0,0:0:0:0:
396,326,79654,2,0,P|460:301|385:167,1,266.666666666667,2|0,0:3|0:0,0:0:0:0:
216,121,80351,2,0,L|452:122,2,200,6|0|0,0:0|0:0|0:0,0:0:0:0:
444,197,81490,5,6,0:3:0:0:
312,192,81680,2,0,L|305:308,1,100,2|0,0:3|0:0,0:0:0:0:
436,352,82059,2,0,L|302:352,1,100,8|0,0:3|0:0,0:0:0:0:
165,363,82439,2,0,L|144:233,1,100,0|0,0:0|0:0,0:0:0:0:
307,246,82819,1,2,0:0:0:0:
42,190,83009,6,0,L|264:190,2,200,2|0|0,0:0|0:0|0:0,0:0:0:0:
217,280,84148,2,0,L|83:281,1,100,0|0,0:0|0:0,0:0:0:0:
371,362,84528,6,0,P|443:342|368:194,1,300,6|8,0:1|0:3,0:0:0:0:
191,191,85287,1,0,0:0:0:0:
395,197,85667,1,2,0:0:0:0:
419,203,85715,1,0,0:0:0:0:
438,218,85762,1,0,0:0:0:0:
449,241,85809,1,0,0:0:0:0:
449,265,85857,1,0,0:0:0:0:
439,288,85904,1,0,0:0:0:0:
421,305,85952,1,0,0:0:0:0:
397,312,85999,1,0,0:0:0:0:
377,311,86047,1,2,0:0:0:0:
217,317,86237,5,0,0:0:0:0:
321,100,86616,2,0,L|195:100,2,100,2|0|0,0:0|0:0|0:0,0:0:0:0:
211,229,87186,2,0,L|90:226,1,100,2|0,0:0|0:0,0:0:0:0:
467,228,87566,5,2,0:3:0:0:
323,146,87756,2,0,L|462:148,1,100,0|0,0:0|0:0,0:0:0:0:
258,69,88135,2,0,L|145:69,1,100,2|0,0:3|0:0,0:0:0:0:
332,149,88515,2,0,L|195:150,1,100,0|0,0:0|0:0,0:0:0:0:
376,90,88895,1,0,0:0:0:0:
101,181,89085,6,0,L|324:182,2,200,2|0|0,0:0|0:0|0:0,0:0:0:0:
264,284,90224,2,0,L|404:279,1,100,0|0,0:0|0:0,0:0:0:0:
103,277,90604,6,0,P|44:257|126:182,1,200,6|0,0:1|0:0,0:0:0:0:
240,166,91173,2,0,P|309:160|236:98,1,200,2|0,0:0|0:0,0:0:0:0:
81,80,91743,1,0,0:0:0:0:
56,75,91790,1,0,0:0:0:0:
33,84,91838,1,0,0:0:0:0:
18,103,91885,1,0,0:0:0:0:
14,127,91933,1,0,0:0:0:0:
24,150,91980,1,0,0:0:0:0:
44,165,92028,1,0,0:0:0:0:
68,167,92075,1,0,0:0:0:0:
96,163,92123,1,2,0:0:0:0:
256,180,92313,5,0,0:0:0:0:
178,290,92692,1,2,0:0:0:0:
328,294,92882,1,0,0:0:0:0:
215,253,93262,2,0,L|326:256,1,100,2|0,0:0|0:0,0:0:0:0:
63,198,93642,5,6,0:1:0:0:
213,191,93832,2,0,L|220:313,1,100,0|2,0:0|0:3,0:0:0:0:
69,331,94211,2,0,L|186:326,1,100,8|0,0:0|0:0,0:0:0:0:
341,329,94591,2,0,L|352:212,1,100,2|8,0:3|0:0,0:0:0:0:
195,211,94971,1,0,0:0:0:0:
485,174,95161,6,0,L|350:175,1,100,2|0,0:3|0:0,0:0:0:0:
205,173,95540,2,0,L|196:70,1,100,2|8,0:3|0:0,0:0:0:0:
377,59,95920,2,0,L|235:60,1,100,0|2,0:0|0:3,0:0:0:0:
96,70,96300,2,0,L|89:187,1,100,8|0,0:0|0:0,0:0:0:0:
355,194,96680,6,0,P|421:217|337:276,1,200,6|2,0:0|0:3,0:0:0:0:
192,296,97249,1,8,0:0:0:0:
350,297,97629,1,2,0:3:0:0:
227,311,97819,2,0,L|218:196,1,100,8|0,0:0|0:0,0:0:0:0:
481,196,98199,5,2,0:3:0:0:
221,202,98578,1,2,0:3:0:0:
351,201,98768,2,0,L|365:348,1,100,8|0,0:0|0:0,0:0:0:0:
200,317,99148,1,2,0:3:0:0:
367,324,99338,2,0,L|354:204,1,100,8|0,0:0|0:0,0:0:0:0:
95,229,99718,5,6,0:0:0:0:
235,184,99908,2,0,L|115:182,1,100,0|2,0:0|0:3,0:0:0:0:
305,271,100287,2,0,L|521:273,2,200,8|2|0,0:0|0:3|0:0,0:0:0:0:
117,277,101237,6,0,P|66:254|144:157,1,200,2|2,0:3|0:3,0:0:0:0:
274,151,101806,1,8,0:0:0:0:
132,91,101996,2,0,L|276:91,1,100,0|2,0:0|0:3,0:0:0:0:
409,99,102376,2,0,P|468:120|403:151,1,150,8|0,0:0|0:0,0:0:0:0:
209,169,102756,6,0,P|155:188|236:274,1,200,6|2,0:0|0:3,0:0:0:0:
381,288,103325,1,8,0:0:0:0:
161,304,103705,1,2,0:3:0:0:
308,313,103895,2,0,L|328:182,1,100,8|8,0:0|0:0,0:0:0:0:
57,199,104275,5,4,0:0:0:0:
256,192,104465,12,0,105604,0:0:0:0:
343,238,105794,5,6,0:1:0:0:
184,235,105984,2,0,L|188:113,1,100,0|0,0:0|0:0,0:0:0:0:
375,131,106363,2,0,P|432:137|506:27,1,200,4|0,0:2|0:0,0:0:0:0:
181,39,107123,1,0,0:0:0:0:
341,37,107313,6,0,L|344:161,1,100,4|0,0:0|0:0,0:0:0:0:
190,157,107692,2,0,L|179:291,1,100,0|4,0:0|0:0,0:0:0:0:
346,273,108072,2,0,L|148:273,1,150,0|0,0:0|0:0,0:0:0:0:
277,269,108452,2,0,B|321:209|279:170,1,100,0|0,0:0|0:0,0:0:0:0:
27,179,108832,5,4,0:0:0:0:
172,195,109021,2,0,L|185:77,1,100,0|0,0:0|0:0,0:0:0:0:
16,74,109401,2,0,L|233:72,2,200,4|0|0,0:0|0:0|0:0,0:0:0:0:
308,107,110351,6,0,P|380:122|282:246,1,300,4|4,0:0|0:0,0:0:0:0:
72,210,111300,1,2,0:0:0:0:
190,209,111490,1,2,0:0:0:0:
72,210,111680,1,0,0:0:0:0:
424,286,111870,5,6,0:1:0:0:
265,296,112059,2,0,L|259:186,1,100,0|0,0:0|0:0,0:0:0:0:
406,164,112439,2,0,P|307:169|206:115,1,200,4|0,0:0|0:0,0:0:0:0:
436,102,113199,1,0,0:0:0:0:
183,144,113389,6,0,L|183:262,1,100,4|0,0:0|0:0,0:0:0:0:
345,244,113768,2,0,L|370:351,1,100,0|4,0:0|0:0,0:0:0:0:
177,155,114148,2,0,L|147:263,1,100,0|0,0:0|0:0,0:0:0:0:
359,52,114528,2,0,L|440:129,1,100,0|0,0:0|0:0,0:0:0:0:
150,108,114908,6,0,P|75:137|157:193,1,200,4|0,0:0|0:0,0:0:0:0:
301,225,115477,2,0,L|85:248,2,200,4|0|0,0:0|0:0|0:0,0:0:0:0:
103,151,116427,6,0,P|41:190|123:275,1,200,4|0,0:0|0:0,0:0:0:0:
307,295,117186,1,0,0:0:0:0:
441,293,117376,1,0,0:0:0:0:
307,295,117566,1,0,0:0:0:0:
177,293,117756,1,0,0:0:0:0:
452,178,117946,5,6,0:1:0:0:
310,175,118135,2,0,L|300:294,1,100,0|2,0:0|0:0,0:0:0:0:
473,280,118515,2,0,L|245:278,2,200,4|0|0,0:0|0:0|0:0,0:0:0:0:
211,110,119465,6,0,P|155:143|219:187,1,150,4|0,0:0|0:0,0:0:0:0:
284,200,119844,2,0,L|297:327,1,100,2|4,0:0|0:0,0:0:0:0:
134,301,120224,1,2,0:0:0:0:
315,349,120604,2,0,L|135:347,1,150,2|0,0:0|0:0,0:0:0:0:
327,256,120984,5,4,0:0:0:0:
202,201,121173,2,0,L|341:202,1,100,0|2,0:0|0:0,0:0:0:0:
481,143,121553,2,0,L|306:140,1,150,4|0,0:0|0:0,0:0:0:0:
240,142,121933,2,0,P|227:68|243:28,1,100,0|2,0:0|0:0,0:0:0:0:
381,43,122313,1,0,0:0:0:0:
106,98,122502,6,0,P|43:111|109:181,1,200,4|0,0:0|0:0,0:0:0:0:
353,225,123072,2,0,L|128:218,1,200,4|2,0:0|0:0,0:0:0:0:
362,177,123642,2,0,L|387:55,1,100,2|0,0:0|0:0,0:0:0:0:
77,105,124021,5,6,0:1:0:0:
224,95,124211,2,0,L|231:223,1,100,0|2,0:0|0:0,0:0:0:0:
66,223,124591,2,0,L|295:231,2,200,4|0|0,0:0|0:0|0:0,0:0:0:0:
317,316,125540,6,0,L|339:177,1,100,4|0,0:0|0:0,0:0:0:0:
173,201,125920,2,0,L|149:99,1,100,2|4,0:0|0:0,0:0:0:0:
341,97,126300,2,0,L|449:49,1,100,2|0,0:0|0:0,0:0:0:0:
137,60,126680,2,0,L|14:62,1,100,2|0,0:0|0:0,0:0:0:0:
288,84,127059,6,0,P|350:118|270:195,1,200,4|2,0:0|0:0,0:0:0:0:
163,206,127629,1,4,0:0:0:0:
330,135,127819,1,0,0:0:0:0:
427,199,128009,1,0,0:0:0:0:
317,244,128199,1,2,0:0:0:0:
157,175,128389,1,0,0:0:0:0:
235,176,128484,1,0,0:0:0:0:
425,172,128578,6,0,P|427:228|84:158,1,600,4|0,0:0|0:0,0:0:0:0:
210,194,129908,1,0,0:0:0:0:
469,191,130097,5,6,0:1:0:0:
324,200,130287,2,0,P|255:239|351:294,1,200,0|2,0:0|0:3,0:0:0:0:
464,309,130857,1,8,0:0:0:0:
203,317,131237,1,2,0:0:0:0:
359,310,131427,6,0,P|468:218|361:181,1,300
206,188,132186,2,0,L|199:113,1,50,8|8,0:1|0:1,0:0:0:0:
298,137,132376,1,8,0:1:0:0:
177,64,132566,2,0,L|90:64,2,50,8|8|8,0:1|0:1|0:1,0:0:0:0:
368,66,132946,1,8,0:1:0:0:
109,204,133135,5,6,0:1:0:0:
249,210,133325,2,0,P|308:234|224:314,1,200,0|2,0:0|0:3,0:0:0:0:
84,325,133895,1,8,0:0:0:0:
327,334,134275,1,2,0:0:0:0:
157,338,134465,6,0,P|99:319|179:161,1,300
359,154,135224,2,0,L|362:80,1,50,2|2,0:3|0:3,0:0:0:0:
171,73,135414,2,0,L|448:77,2,225.000008583069,8|8|8,0:0|0:0|0:0,0:0:0:0:
429,159,136173,5,6,0:1:0:0:
263,157,136363,2,0,P|200:205|289:291,1,200,0|2,0:0|0:3,0:0:0:0:
424,296,136933,1,8,0:0:0:0:
144,350,137313,1,2,0:0:0:0:
283,354,137502,6,0,P|351:353|293:210,1,300
137,208,138262,1,8,0:1:0:0:
72,210,138357,1,8,0:1:0:0:
137,208,138452,1,8,0:1:0:0:
306,211,138642,1,8,0:1:0:0:
373,211,138737,1,8,0:1:0:0:
306,211,138832,1,8,0:1:0:0:
137,208,139021,1,8,0:1:0:0:
397,289,139211,5,6,0:1:0:0:
257,289,139401,2,0,P|204:282|280:209,1,200,0|2,0:0|0:3,0:0:0:0:
419,188,139971,1,8,0:0:0:0:
137,208,140351,1,2,0:0:0:0:
294,309,140540,2,0,P|307:239|101:178,1,300
316,296,141300,1,2,0:3:0:0:
245,298,141395,1,2,0:3:0:0:
169,299,141490,2,0,L|455:299,2,225.000008583069,8|8|8,0:0|0:0|0:0,0:0:0:0:
441,342,142249,6,0,L|461:172,1,150.000005722046,6|0,0:1|0:0,0:0:0:0:
372,192,142534,1,0,0:0:0:0:
284,189,142629,1,0,0:0:0:0:
464,133,142819,1,2,0:3:0:0:
299,120,143009,2,0,P|257:190|315:222,1,150.000005722046,8|0,0:0|0:0,0:0:0:0:
465,225,143389,1,2,0:0:0:0:
216,267,143578,6,0,P|148:272|46:78,1,300,2|0,0:0|0:0,0:0:0:0:
318,281,144338,2,0,L|404:282,1,75.0000028610231
329,354,144528,2,0,L|221:350,1,75.0000028610231,10|0,0:0|0:0,0:0:0:0:
172,345,144718,2,0,L|167:244,1,75.0000028610231
255,269,144908,2,0,L|153:267,1,75.0000028610231,10|0,0:0|0:0,0:0:0:0:
98,261,145097,2,0,L|94:172,1,75.0000028610231,10|0,0:0|0:0,0:0:0:0:
330,288,145287,6,0,L|490:237,1,150.000005722046,6|0,0:1|0:0,0:0:0:0:
394,261,145572,1,0,0:0:0:0:
325,252,145667,1,0,0:0:0:0:
475,208,145857,1,2,0:3:0:0:
310,188,146047,2,0,P|264:133|330:75,1,150.000005722046,8|0,0:0|0:0,0:0:0:0:
454,74,146427,1,2,0:0:0:0:
196,94,146616,6,0,L|500:280,1,300.000011444092,0|0,0:0|0:0,0:0:0:0:
250,283,147186,1,0,0:0:0:0:
370,189,147376,1,2,0:3:0:0:
287,191,147471,1,0,0:0:0:0:
205,192,147566,2,0,L|464:187,2,225.000008583069,10|10|10,0:0|0:0|0:0,0:0:0:0:
391,294,148325,6,0,L|192:297,1,150.000005722046,6|0,0:1|0:0,0:0:0:0:
312,286,148610,1,0,0:0:0:0:
386,280,148705,1,0,0:0:0:0:
218,226,148895,1,2,0:3:0:0:
376,236,149085,2,0,P|424:179|363:147,1,150.000005722046,8|0,0:0|0:0,0:0:0:0:
191,139,149465,1,2,0:0:0:0:
448,92,149654,6,0,L|61:363,1,450.000017166138
333,350,150414,1,2,0:0:0:0:
256,349,150509,1,2,0:0:0:0:
181,348,150604,2,0,L|174:269,1,75.0000028610231,10|0,0:0|0:0,0:0:0:0:
275,267,150794,2,0,L|282:177,1,75.0000028610231
383,193,150984,2,0,L|413:109,1,75.0000028610231,8|0,0:0|0:0,0:0:0:0:
303,98,151173,2,0,L|210:96,1,75.0000028610231,8|0,0:0|0:0,0:0:0:0:
456,208,151363,6,0,L|472:369,1,150.000005722046,6|0,0:1|0:0,0:0:0:0:
393,361,151648,1,0,0:0:0:0:
199,352,151743,1,0,0:0:0:0:
349,288,151933,1,2,0:3:0:0:
199,262,152123,2,0,L|187:89,1,150.000005722046,8|0,0:0|0:0,0:0:0:0:
353,113,152502,1,2,0:0:0:0:
98,102,152692,6,0,P|30:139|196:345,1,450.000017166138
374,276,153452,2,0,L|261:276,1,75.0000028610231,2|2,0:3|0:3,0:0:0:0:
83,266,153642,2,0,L|368:270,2,225.000008583069,10|10|10,0:0|0:0|0:0,0:0:0:0:
256,192,154591,12,0,160097,0:0:0:0:
215,189,160477,5,6,0:1:0:0:
174,246,160572,1,0,0:0:0:0:
212,295,160667,1,0,0:0:0:0:
279,295,160762,1,0,0:0:0:0:
194,272,160857,2,0,L|179:178,1,75.0000028610231,8|0,0:0|0:0,0:0:0:0:
349,178,161047,1,0,0:0:0:0:
202,133,161237,1,2,0:3:0:0:
267,127,161332,1,0,0:0:0:0:
332,120,161427,1,0,0:0:0:0:
172,77,161616,2,0,L|75:78,2,75.0000028610231,8|0|0,0:0|0:0|0:0,0:0:0:0:
428,88,161996,5,2,0:3:0:0:
486,123,162091,1,0,0:0:0:0:
463,181,162186,1,0,0:0:0:0:
390,184,162281,1,0,0:0:0:0:
470,218,162376,2,0,L|490:313,1,75.0000028610231,8|0,0:0|0:0,0:0:0:0:
195,315,162566,1,0,0:0:0:0:
348,231,162756,1,2,0:3:0:0:
270,226,162851,1,0,0:0:0:0:
192,219,162946,1,0,0:0:0:0:
380,162,163135,2,0,L|490:159,2,75.0000028610231,8|0|0,0:0|0:0|0:0,0:0:0:0:
102,195,163515,6,0,L|67:270,1,75.0000028610231,6|0,0:1|0:0,0:0:0:0:
156,286,163705,2,0,L|214:345,1,75.0000028610231,0|0,0:0|0:0,0:0:0:0:
113,358,163895,2,0,L|21:360,1,75.0000028610231,8|0,0:0|0:0,0:0:0:0:
304,356,164085,1,0,0:0:0:0:
140,350,164275,2,0,L|141:262,1,75.0000028610231,2|0,0:3|0:0,0:0:0:0:
303,270,164465,1,0,0:0:0:0:
154,153,164654,1,8,0:0:0:0:
230,154,164749,1,0,0:0:0:0:
305,155,164844,1,0,0:0:0:0:
56,129,165034,6,0,L|52:231,1,75.0000028610231,2|0,0:3|0:0,0:0:0:0:
144,205,165224,2,0,L|147:299,1,75.0000028610231
237,260,165414,2,0,L|241:140,1,75.0000028610231,8|0,0:0|0:0,0:0:0:0:
73,138,165604,1,8,0:0:0:0:
238,147,165794,2,0,L|246:229,1,75.0000028610231,8|8,0:1|0:1,0:1:0:0:
157,232,165984,2,0,L|139:347,1,75.0000028610231,8|8,0:1|0:1,0:1:0:0:
315,142,166173,2,0,L|329:229,1,75.0000028610231,8|8,0:1|0:1,0:1:0:0:
220,243,166363,2,0,L|207:347,1,75.0000028610231,8|8,0:1|0:1,0:1:0:0:
472,323,166553,6,0,L|215:324,1,225.000008583069,6|0,0:1|0:0,0:0:0:0:
343,315,166933,2,0,P|365:262|340:218,1,100,8|0,0:0|0:0,0:0:0:0:
60,202,167313,2,0,L|375:203,1,300.000011444092,2|8,0:3|0:0,0:0:0:0:
189,155,167882,1,0,0:0:0:0:
446,200,168072,6,0,L|455:75,1,100,2|0,0:3|0:0,0:0:0:0:
363,94,168357,1,0,0:0:0:0:
175,85,168452,2,0,L|167:218,1,100,8|0,0:0|0:0,0:0:0:0:
337,190,168832,2,0,P|389:183|481:29,1,225.000008583069,2|0,0:3|0:0,0:0:0:0:
308,102,169211,2,0,L|258:202,1,100,8|0,0:0|0:0,0:0:0:0:
441,142,169591,5,6,0:1:0:0:
485,180,169686,1,0,0:0:0:0:
466,233,169781,1,0,0:0:0:0:
406,240,169876,1,0,0:0:0:0:
337,236,169971,2,0,L|324:364,1,100,8|0,0:0|0:0,0:0:0:0:
414,348,170256,1,0,0:0:0:0:
223,337,170351,2,0,P|141:341|86:206,1,225.000008583069,2|0,0:3|0:0,0:0:0:0:
339,256,170730,2,0,L|363:117,1,100,8|0,0:0|0:0,0:0:0:0:
273,153,171015,1,0,0:0:0:0:
80,188,171110,6,0,L|65:109,1,50,2|0,0:3|0:0,0:0:0:0:
157,118,171300,2,0,L|172:62,1,50,0|0,0:0|0:0,0:0:0:0:
63,55,171490,2,0,L|167:54,1,75.0000028610231,8|0,0:0|0:0,0:0:0:0:
339,57,171680,2,0,L|437:58,1,50,0|0,0:0|0:0,0:0:0:0:
154,144,171870,2,0,P|87:208|210:241,1,225.000008583069,2|0,0:3|0:0,0:0:0:0:
249,273,172249,1,8,0:0:0:0:
110,334,172439,1,0,0:0:0:0:
187,337,172534,1,0,0:0:0:0:
403,342,172629,6,0,L|412:202,1,100,6|0,0:1|0:0,0:0:0:0:
311,242,172914,1,0,0:0:0:0:
219,242,173009,2,0,L|219:113,1,100,8|0,0:0|0:0,0:0:0:0:
405,131,173389,2,0,L|108:280,1,300.000011444092,2|8,0:3|0:0,0:0:0:0:
337,287,173958,1,0,0:0:0:0:
190,313,174148,6,0,P|108:261|199:200,1,225.000008583069,2|0,0:3|0:0,0:0:0:0:
271,194,174528,1,8,0:0:0:0:
106,135,174718,1,0,0:0:0:0:
190,135,174813,1,0,0:0:0:0:
363,153,174908,2,0,P|439:108|363:26,1,225.000008583069,2|0,0:3|0:0,0:0:0:0:
149,153,175287,2,0,P|73:108|149:26,1,225.000008583069,8|0,0:0|0:0,0:0:0:0:
356,31,175667,5,6,0:1:0:0:
191,33,175857,2,0,L|191:111,2,50,0|0|8,0:0|0:0|0:0,0:0:0:0:
367,37,176237,1,0,0:0:0:0:
214,102,176427,2,0,P|140:120|117:197,1,150.000005722046,2|0,0:3|0:0,0:0:0:0:
194,191,176711,1,0,0:0:0:0:
266,189,176806,2,0,P|330:146|272:82,1,150.000005722046,8|0,0:0|0:0,0:0:0:0:
125,85,177186,5,2,0:3:0:0:
71,107,177281,1,0,0:0:0:0:
75,157,177376,1,0,0:0:0:0:
135,170,177471,1,0,0:0:0:0:
206,163,177566,2,0,L|209:235,1,50,8|0,0:0|0:0,0:0:0:0:
41,258,177756,1,0,0:0:0:0:
188,186,177946,1,2,0:3:0:0:
70,136,178135,1,0,0:3:0:0:
316,92,178325,2,0,L|122:97,1,150.000005722046,8|8,0:0|0:0,0:0:0:0:
438,311,178705,6,0,P|487:266|427:208,1,150.000005722046,6|0,0:1|0:0,0:0:0:0:
357,208,178990,1,0,0:0:0:0:
266,212,179085,2,0,L|444:215,1,150.000005722046,8|0,0:0|0:0,0:0:0:0:
266,212,179465,2,0,P|216:156|302:126,1,150.000005722046,2|0,0:3|0:0,0:0:0:0:
408,149,179844,2,0,L|416:56,1,75.0000028610231,8|0,0:0|0:0,0:0:0:0:
225,93,180034,2,0,L|314:93,1,75.0000028610231
470,109,180224,6,0,P|500:177|437:229,1,150.000005722046,2|0,0:3|0:0,0:0:0:0:
379,220,180509,1,0,0:0:0:0:
207,224,180604,1,8,0:0:0:0:
341,255,180794,1,0,0:0:0:0:
171,279,180984,2,0,P|101:248|191:154,1,225.000008583069,2|0,0:3|0:0,0:0:0:0:
402,281,181363,2,0,P|472:250|382:156,1,225.000008583069,8|0,0:0|0:0,0:0:0:0:
171,195,181743,5,6,0:1:0:0:
346,207,181933,1,0,0:0:0:0:
366,147,182028,1,0,0:0:0:0:
386,88,182123,1,8,0:0:0:0:
218,84,182313,1,0,0:0:0:0:
391,60,182502,1,2,0:3:0:0:
316,57,182597,1,0,0:0:0:0:
239,55,182692,1,0,0:0:0:0:
165,53,182787,1,0,0:0:0:0:
367,135,182882,2,0,L|377:217,1,75.0000028610231,8|0,0:0|0:0,0:0:0:0:
196,211,183072,1,0,0:0:0:0:
470,269,183262,5,2,0:3:0:0:
314,268,183452,2,0,L|311:163,2,75.0000028610231,0|0|8,0:0|0:0|0:0,0:0:0:0:
486,265,183832,1,0,0:0:0:0:
287,333,184021,2,0,L|482:336,1,150.000005722046,2|0,0:3|0:0,0:0:0:0:
506,366,184306,1,0,0:0:0:0:
423,375,184401,2,0,L|269:370,1,150.000005722046,8|0,0:0|0:0,0:0:0:0:
6,259,184781,6,0,L|193:253,1,150.000005722046,6|0,0:1|0:0,0:0:0:0:
250,272,185066,1,0,0:0:0:0:
84,181,185161,2,0,L|65:17,1,150.000005722046,8|0,0:0|0:0,0:0:0:0:
434,188,185540,2,0,L|454:29,1,150.000005722046,2|0,0:3|0:0,0:0:0:0:
71,170,185920,2,0,L|56:4,1,150.000005722046,8|0,0:0|0:0,0:0:0:0:
336,165,186300,6,0,L|38:337,2,300.000011444092,2|8|2,0:3|0:0|0:3,0:0:0:0:
138,155,187249,2,0,L|237:157,1,75.0000028610231
295,161,187439,2,0,L|345:12,1,150.000005722046,8|0,0:0|0:0,0:0:0:0:
93,108,187819,6,0,P|15:152|125:208,1,225.000008583069,6|0,0:1|0:0,0:0:0:0:
169,223,188199,2,0,L|-29:225,1,150.000005722046,8|0,0:0|0:0,0:0:0:0:
341,178,188578,2,0,L|84:175,1,225.000008583069,2|0,0:3|0:0,0:0:0:0:
372,146,188958,2,0,P|411:225|341:253,1,150.000005722046,8|0,0:0|0:0,0:0:0:0:
116,193,189338,6,0,L|449:383,1,300,2|0,0:3|0:0,0:0:0:0:
165,128,189718,2,0,P|89:182|208:185,1,200,8|8,0:0|0:0,0:0:0:0:
222,245,190002,1,0,0:0:0:0:
309,246,190097,1,8,0:1:0:0:
253,182,190192,1,8,0:1:0:0:
174,169,190287,1,8,0:1:0:0:
101,177,190382,1,8,0:1:0:0:
299,124,190477,2,0,L|401:126,1,62.5,8|8,0:1|0:1,0:1:0:0:
165,264,190667,2,0,L|72:266,1,62.5,8|8,0:1|0:1,0:1:0:0:
399,337,190857,5,4,0:3:0:0:
183,234,193895,6,0,L|401:233,1,200,6|0,0:1|0:0,0:0:0:0:
214,179,194465,1,2,0:3:0:0:
346,188,194654,2,0,L|149:187,2,150
155,82,195414,6,0,P|96:117|177:208,1,200,2|0,0:0|0:0,0:0:0:0:
289,210,195984,1,2,0:0:0:0:
100,147,196173,1,0,0:0:0:0:
29,217,196363,1,0,0:0:0:0:
69,309,196553,1,2,0:0:0:0:
170,318,196743,1,8,0:3:0:0:
421,300,196933,6,0,P|481:281|408:108,1,300,2|2,0:3|0:3,0:0:0:0:
259,108,197692,2,0,L|72:108,2,150,0|0|0,0:0|0:0|0:0,0:0:0:0:
333,111,198357,1,0,0:0:0:0:
103,181,198452,2,0,P|39:213|118:292,1,200,2|0,0:0|0:0,0:0:0:0:
236,304,199021,1,2,0:0:0:0:
66,321,199211,2,0,L|55:195,1,100
209,205,199591,2,0,L|330:205,1,100,2|0,0:0|0:0,0:0:0:0:
245,192,199876,1,0,0:0:0:0:
92,172,199971,6,0,P|46:197|122:300,1,200,2|0,0:3|0:3,0:0:0:0:
226,298,200540,1,2,0:3:0:0:
339,226,200730,2,0,L|166:226,2,150,0|0|0,0:0|0:0|0:0,0:0:0:0:
259,219,201395,1,0,0:0:0:0:
175,217,201490,6,0,P|130:251|201:340,1,200,2|0,0:0|0:0,0:0:0:0:
320,340,202059,1,0,0:0:0:0:
154,338,202249,1,0,0:0:0:0:
34,339,202439,1,2,0:0:0:0:
193,340,202629,1,2,0:0:0:0:
357,349,202819,2,0,L|289:349,1,50
117,300,203009,6,0,P|43:250|134:212,1,200,2|0,0:3|0:0,0:0:0:0:
246,195,203578,1,2,0:3:0:0:
106,90,203768,2,0,L|268:90,2,150,0|0|0,0:0|0:0|0:0,0:0:0:0:
375,102,204528,6,0,P|472:126|357:213,1,300,2|0,0:0|0:0,0:0:0:0:
177,253,205287,2,0,L|163:128,1,100,2|0,0:0|0:0,0:0:0:0:
362,146,205667,2,0,L|379:13,1,100,2|0,0:0|0:0,0:0:0:0:
112,134,206047,6,0,P|55:164|140:251,1,200,6|0,0:1|0:0,0:0:0:0:
257,259,206616,1,8,0:0:0:0:
126,175,206806,2,0,L|303:173,2,150,0|0|0,0:0|0:0|0:0,0:0:0:0:
388,291,207566,6,0,P|462:255|370:195,1,200,2|2,0:3|0:3,0:0:0:0:
237,181,208135,1,8,0:0:0:0:
427,125,208325,1,0,0:0:0:0:
287,126,208515,1,2,0:3:0:0:
147,116,208705,1,8,0:0:0:0:
7,118,208895,1,8,0:3:0:0:
331,85,209085,6,0,L|130:200,1,200,6|2,0:3|0:3,0:0:0:0:
319,204,209654,1,8,0:0:0:0:
189,264,209844,2,0,L|28:239,2,150
451,116,210604,6,0,L|216:118,1,200,2|2,0:3|0:3,0:0:0:0:
408,157,211173,1,8,0:0:0:0:
238,236,211363,2,0,P|193:175|237:123,1,150,0|0,0:0|0:0,0:0:0:0:
329,131,211743,2,0,L|363:9,1,100,8|0,0:0|0:0,0:0:0:0:
94,118,212123,6,0,P|23:161|110:215,1,200,6|2,0:1|0:3,0:0:0:0:
233,220,212692,1,8,0:0:0:0:
95,159,212882,2,0,L|269:157,2,150
175,149,213547,1,0,0:0:0:0:
365,150,213642,6,0,L|386:269,1,100,2|0,0:3|0:0,0:0:0:0:
243,274,214021,1,2,0:3:0:0:
400,326,214211,2,0,L|256:325,2,100,8|0|2,0:0|0:0|0:3,0:0:0:0:
237,237,214781,2,0,L|350:237,1,100,8|8,0:0|0:3,0:0:0:0:
269,230,215066,1,8,0:3:0:0:
107,158,215161,6,0,L|339:160,1,200,10|2,0:1|0:3,0:0:0:0:
139,109,215730,1,8,0:0:0:0:
288,112,215920,2,0,L|461:109,2,150,0|0|8,0:0|0:0|0:0,0:0:0:0:
101,129,216680,6,0,P|50:152|138:235,1,200,6|4,0:0|0:0,0:0:0:0:
406,261,217439,2,0,P|461:241|388:148,1,200,0|0,0:0|0:0,0:0:0:0:
157,255,218199,6,0,L|-16:257,1,150.000005722046,6|2,0:0|0:0,0:0:0:0:
88,240,218484,1,2,0:0:0:0:
167,241,218578,2,0,L|180:156,1,75.0000028610231,10|0,0:2|0:0,0:0:0:0:
14,130,218768,2,0,L|221:132,1,150.000005722046,2|0,0:3|0:0,0:0:0:0:
255,169,219053,1,0,0:0:0:0:
168,204,219148,2,0,L|351:204,1,150.000005722046,2|8,0:0|0:0,0:0:0:0:
250,188,219433,1,0,0:0:0:0:
75,188,219528,2,0,L|64:78,1,75.0000028610231
343,231,219718,5,2,0:0:0:0:
272,202,219813,1,0,0:0:0:0:
196,189,219908,1,2,0:0:0:0:
119,202,220002,1,0,0:0:0:0:
285,153,220097,2,0,L|297:74,1,50,10|0,0:0|0:0,0:0:0:0:
193,93,220287,2,0,L|176:21,1,50,2|0,0:3|0:3,0:0:0:0:
356,169,220477,6,0,L|370:95,1,50,2|0,0:3|0:0,0:0:0:0:
256,87,220667,2,0,L|239:14,1,50
428,77,220857,2,0,L|252:71,1,150,10|2,0:0|0:0,0:0:0:0:
188,133,221142,1,0,0:0:0:0:
353,220,221237,5,6,0:3:0:0:
233,237,221427,2,0,L|222:70,1,150.000005722046,2|8,0:0|0:0,0:0:0:0:
310,87,221711,1,0,0:0:0:0:
112,228,221806,2,0,L|103:41,1,150.000005722046,2|2,0:3|0:3,0:0:0:0:
192,84,222091,1,0,0:0:0:0:
19,71,222186,2,0,L|25:268,1,150.000005722046,2|8,0:0|0:0,0:0:0:0:
365,102,222566,2,0,L|373:12,1,75.0000028610231,2|0,0:0|0:0,0:0:0:0:
211,152,222756,6,0,L|201:230,1,75.0000028610231,6|0,0:3|0:0,0:0:0:0:
308,154,222946,2,0,L|317:68,1,75.0000028610231,2|2,0:0|0:0,0:0:0:0:
211,152,223135,2,0,L|139:195,1,75.0000028610231,8|0,0:0|0:0,0:0:0:0:
308,154,223325,2,0,L|390:118,1,75.0000028610231,2|0,0:3|0:0,0:0:0:0:
132,120,223515,5,2,0:3:0:0:
79,163,223610,1,0,0:0:0:0:
74,224,223705,1,0,0:0:0:0:
113,272,223800,1,0,0:0:0:0:
178,287,223895,1,10,0:0:0:0:
243,281,223990,1,0,0:0:0:0:
70,333,224085,2,0,L|-33:337,1,75.0000028610231,10|0,0:0|0:0,0:0:0:0:
288,331,224275,6,0,L|288:233,1,75.0000028610231,6|0,0:0|0:0,0:0:0:0:
214,242,224465,2,0,P|135:225|105:129,1,150.000005722046,2|8,0:0|0:0,0:0:0:0:
181,164,224749,1,0,0:0:0:0:
267,158,224844,2,0,L|56:158,1,150.000005722046,2|2,0:3|0:3,0:0:0:0:
380,106,225224,2,0,P|432:168|355:182,1,150.000005722046,2|8,0:0|0:0,0:0:0:0:
317,200,225509,1,0,0:0:0:0:
231,196,225604,2,0,L|225:297,1,75.0000028610231,0|0,0:0|0:0,0:0:0:0:
410,284,225794,5,6,0:3:0:0:
466,239,225889,1,0,0:0:0:0:
421,178,225984,1,2,0:0:0:0:
339,171,226078,1,0,0:0:0:0:
413,130,226173,1,10,0:0:0:0:
332,125,226268,1,0,0:0:0:0:
255,124,226363,1,2,0:3:0:0:
177,125,226458,1,0,0:0:0:0:
331,60,226553,6,0,L|428:59,1,75.0000028610231,2|0,0:3|0:0,0:0:0:0:
206,211,226743,2,0,L|66:208,1,75.0000028610231,2|2,0:0|0:0,0:0:0:0:
322,255,226933,2,0,L|483:257,1,150.000005722046,8|0,0:0|0:0,0:0:0:0:
382,233,227218,1,0,0:0:0:0:
221,195,227313,5,6,0:3:0:0:
179,253,227408,1,0,0:0:0:0:
212,316,227502,1,2,0:0:0:0:
283,317,227597,1,2,0:0:0:0:
352,305,227692,2,0,L|203:303,1,150.000005722046,8|2,0:0|0:3,0:0:0:0:
118,310,227977,1,0,0:0:0:0:
332,219,228072,5,2,0:3:0:0:
416,217,228167,1,0,0:0:0:0:
332,219,228262,1,2,0:0:0:0:
253,218,228357,1,2,0:0:0:0:
339,222,228452,2,0,P|422:219|484:150,1,150.000005722046,8|2,0:0|0:0,0:0:0:0:
393,176,228737,1,2,0:0:0:0:
210,119,228832,6,0,L|203:211,1,75.0000028610231,6|0,0:3|0:0,0:0:0:0:
299,204,229021,2,0,L|312:295,1,75.0000028610231,2|0,0:0|0:0,0:0:0:0:
208,288,229211,2,0,L|357:287,1,150.000005722046,8|8,0:0|0:0,0:0:0:0:
285,268,229496,1,8,0:0:0:0:
114,221,229591,5,8,0:0:0:0:
262,241,229781,2,0,L|370:240,1,75.0000028610231,8|8,0:0|0:0,0:0:0:0:
148,187,229971,2,0,L|262:189,1,75.0000028610231,8|0,0:0|0:0,0:0:0:0:
424,192,230161,2,0,L|430:85,1,75.0000028610231,8|0,0:0|0:0,0:0:0:0:
213,102,230351,6,0,L|93:100,1,75.0000028610231,6|0,0:0|0:0,0:0:0:0:
315,178,230540,2,0,L|326:20,1,150.000005722046,2|8,0:0|0:0,0:0:0:0:
130,37,230920,2,0,L|222:39,1,75.0000028610231,2|0,0:3|0:0,0:0:0:0:
286,37,231110,2,0,L|294:133,1,75.0000028610231,2|0,0:3|0:0,0:0:0:0:
116,140,231300,2,0,P|64:191|145:213,1,150.000005722046,2|8,0:0|0:0,0:0:0:0:
290,246,231585,1,0,0:0:0:0:
202,252,231680,2,0,L|201:144,1,75.0000028610231,2|2,0:0|0:0,0:0:0:0:
363,142,231870,5,6,0:3:0:0:
285,137,231965,1,0,0:0:0:0:
214,142,232059,1,2,0:0:0:0:
143,170,232154,1,0,0:0:0:0:
349,98,232249,2,0,L|245:94,1,75.0000028610231,8|0,0:0|0:0,0:0:0:0:
192,100,232439,2,0,L|184:19,1,75.0000028610231,2|2,0:3|0:0,0:0:0:0:
394,33,232629,1,2,0:3:0:0:
470,39,232724,1,0,0:3:0:0:
470,39,232819,1,2,0:3:0:0:
394,33,232914,1,2,0:3:0:0:
220,127,233009,2,0,L|40:125,1,150.000005722046,8|0,0:0|0:0,0:0:0:0:
404,95,233389,6,0,L|408:180,1,75.0000028610231,6|0,0:3|0:0,0:0:0:0:
320,181,233578,2,0,L|119:180,1,150.000005722046,2|8,0:0|0:0,0:0:0:0:
257,178,233863,1,0,0:0:0:0:
50,95,233958,2,0,L|32:285,1,150.000005722046,2|2,0:3|0:3,0:0:0:0:
121,248,234243,1,0,0:0:0:0:
337,236,234338,1,2,0:0:0:0:
275,196,234433,1,2,0:0:0:0:
200,183,234528,1,8,0:0:0:0:
128,191,234623,1,0,0:0:0:0:
317,106,234718,2,0,L|431:106,1,75.0000028610231,2|0,0:0|0:0,0:0:0:0:
95,106,234908,6,0,P|41:158|109:189,1,150.000005722046,6|2,0:3|0:0,0:0:0:0:
354,208,235287,2,0,P|403:139|349:94,1,150.000005722046,8|2,0:0|0:3,0:0:0:0:
279,98,235572,1,0,0:0:0:0:
188,109,235667,6,0,L|178:31,1,75.0000028610231,2|2,0:3|0:0,0:0:0:0:
287,98,235857,2,0,L|306:210,1,75.0000028610231,2|0,0:3|0:0,0:0:0:0:
194,183,236047,2,0,L|163:318,1,75.0000028610231,10|0,0:0|0:0,0:0:0:0:
351,237,236237,2,0,L|390:347,1,75.0000028610231,10|0,0:0|0:0,0:0:0:0:
143,340,236427,6,0,L|48:339,1,75.0000028610231,6|0,0:0|0:0,0:0:0:0:
294,284,236616,2,0,L|188:282,1,75.0000028610231
125,282,236806,2,0,L|123:192,1,75.0000028610231,10|0,0:0|0:0,0:0:0:0:
326,221,236996,2,0,P|381:213|431:112,1,150.000005722046,2|2,0:3|0:3,0:0:0:0:
351,139,237281,1,0,0:0:0:0:
165,124,237376,2,0,L|70:122,1,75.0000028610231
297,58,237566,2,0,L|208:55,1,75.0000028610231,8|0,0:0|0:0,0:0:0:0:
67,39,237756,2,0,L|55:164,1,75.0000028610231,2|0,0:0|0:0,0:0:0:0:
245,277,237946,5,6,0:3:0:0:
297,245,238040,1,0,0:0:0:0:
275,189,238135,1,2,0:0:0:0:
213,175,238230,1,2,0:0:0:0:
312,146,238325,1,8,0:0:0:0:
384,126,238420,1,0,0:0:0:0:
309,110,238515,1,2,0:3:0:0:
238,100,238610,1,0,0:0:0:0:
445,72,238705,5,2,0:3:0:0:
369,74,238800,1,0,0:0:0:0:
295,76,238895,1,2,0:0:0:0:
218,78,238990,1,2,0:0:0:0:
397,38,239085,2,0,L|503:41,1,75.0000028610231,8|0,0:0|0:0,0:0:0:0:
142,110,239275,2,0,L|126:212,1,75.0000028610231,2|2,0:0|0:0,0:0:0:0:
324,186,239465,6,0,L|513:187,1,150.000005722046,6|0,0:3|0:0,0:0:0:0:
111,115,239844,1,8,0:0:0:0:
286,103,240034,1,2,0:3:0:0:
331,148,240129,1,0,0:0:0:0:
292,195,240224,1,2,0:3:0:0:
224,185,240319,1,0,0:0:0:0:
305,235,240414,2,0,L|323:331,1,75.0000028610231,2|2,0:0|0:0,0:0:0:0:
152,304,240604,2,0,L|-4:304,1,150.000005722046,8|0,0:0|0:0,0:0:0:0:
311,291,240984,6,0,L|326:186,1,75.0000028610231,2|0,0:3|0:0,0:0:0:0:
232,213,241173,2,0,L|224:133,1,75.0000028610231,2|0,0:0|0:0,0:0:0:0:
333,137,241363,1,2,0:0:0:0:
183,291,241553,2,0,L|168:186,1,75.0000028610231,8|0,0:0|0:0,0:0:0:0:
263,202,241743,1,2,0:0:0:0:
167,179,241838,2,0,L|343:177,1,150.000005722046,0|0,0:0|0:0,0:0:0:0:
113,244,242123,2,0,L|105:160,1,50,8|0,0:0|0:0,0:0:0:0:
194,156,242313,2,0,L|197:73,1,50,8|0,0:0|0:0,0:0:0:0:
391,169,242502,6,0,L|482:168,1,75.0000028610231,6|0,0:0|0:0,0:0:0:0:
245,180,242692,2,0,L|245:271,1,75.0000028610231,2|2,0:0|0:0,0:0:0:0:
325,305,242882,2,0,L|219:307,1,75.0000028610231,8|0,0:0|0:0,0:0:0:0:
94,327,243072,2,0,P|31:276|89:251,1,150.000005722046,2|2,0:3|0:3,0:0:0:0:
145,244,243357,1,0,0:0:0:0:
345,232,243452,2,0,L|351:123,1,75.0000028610231,2|2,0:0|0:0,0:0:0:0:
273,148,243642,2,0,L|167:148,1,75.0000028610231,8|0,0:0|0:0,0:0:0:0:
122,125,243832,2,0,L|116:30,1,75.0000028610231,2|0,0:0|0:0,0:0:0:0:
323,136,244021,6,0,P|417:136|450:87,1,150.000005722046,6|2,0:3|0:0,0:0:0:0:
283,59,244401,2,0,L|475:60,1,150.000005722046,8|2,0:0|0:3,0:0:0:0:
348,49,244686,1,0,0:0:0:0:
269,22,244781,2,0,L|385:27,1,75.0000028610231,2|0,0:3|0:0,0:0:0:0:
155,142,244971,2,0,L|288:144,1,75.0000028610231,2|2,0:0|0:0,0:0:0:0:
442,151,245161,2,0,P|490:71|443:31,1,150.000005722046,8|2,0:0|0:0,0:0:0:0:
374,33,245446,1,2,0:0:0:0:
175,79,245540,6,0,L|163:193,1,75.0000028610231,6|0,0:3|0:0,0:0:0:0:
248,181,245730,2,0,L|261:299,1,75.0000028610231,2|2,0:0|0:0,0:0:0:0:
349,254,245920,2,0,L|390:332,1,75.0000028610231,8|0,0:0|0:0,0:0:0:0:
211,323,246110,2,0,L|49:313,1,150.000005722046,2|2,0:3|0:3,0:0:0:0:
309,321,246490,2,0,L|503:333,1,150.000005722046,0|8,0:0|0:0,0:0:0:0:
386,313,246775,1,0,0:0:0:0:
106,275,246870,2,0,L|92:184,1,75.0000028610231,2|0,0:0|0:0,0:0:0:0:
299,177,247059,6,0,L|401:179,1,75.0000028610231,6|0,0:3|0:0,0:0:0:0:
218,238,247249,2,0,L|124:236,1,75.0000028610231,2|0,0:0|0:0,0:0:0:0:
351,160,247439,1,8,0:0:0:0:
406,209,247534,1,0,0:0:0:0:
383,273,247629,1,2,0:3:0:0:
316,284,247724,1,0,0:0:0:0:
232,271,247819,6,0,L|218:365,1,75.0000028610231,2|0,0:3|0:0,0:0:0:0:
323,285,248009,2,0,L|343:185,1,75.0000028610231,2|2,0:0|0:0,0:0:0:0:
186,262,248199,2,0,L|176:173,1,75.0000028610231,8|0,0:0|0:0,0:0:0:0:
375,183,248389,2,0,L|396:85,1,75.0000028610231,8|0,0:0|0:0,0:0:0:0:
192,111,248578,6,0,L|57:111,1,75.0000028610231,6|0,0:0|0:0,0:0:0:0:
317,186,248768,2,0,P|346:277|301:308,1,150.000005722046,0|8,0:0|0:0,0:0:0:0:
229,303,249053,1,0,0:0:0:0:
317,186,249148,2,0,P|346:277|301:308,1,150.000005722046,2|2,0:3|0:3,0:0:0:0:
20,300,249528,2,0,L|224:298,1,150.000005722046,2|8,0:0|0:0,0:0:0:0:
264,333,249813,1,0,0:0:0:0:
174,350,249908,2,0,L|170:233,1,75.0000028610231,0|0,0:0|0:0,0:0:0:0:
360,224,250097,5,6,0:3:0:0:
285,196,250192,1,0,0:0:0:0:
210,191,250287,1,2,0:0:0:0:
135,208,250382,1,2,0:0:0:0:
389,138,250477,2,0,L|494:138,3,75.0000028610231,8|0|2|0,0:0|0:0|0:3|0:0,0:0:0:0:
235,222,250857,1,2,0:3:0:0:
150,222,250952,1,0,0:0:0:0:
235,222,251047,1,2,0:0:0:0:
321,222,251142,1,2,0:0:0:0:
115,163,251237,2,0,P|17:164|-10:117,1,150.000005722046,8|2,0:0|0:0,0:0:0:0:
73,124,251521,1,0,0:0:0:0:
276,209,251616,6,0,L|388:211,1,75.0000028610231,6|0,0:3|0:0,0:0:0:0:
125,275,251806,2,0,L|123:162,1,75.0000028610231,2|2,0:0|0:0,0:0:0:0:
281,177,251996,2,0,P|345:116|289:66,1,150.000005722046,8|2,0:0|0:3,0:0:0:0:
234,73,252281,1,0,0:0:0:0:
412,59,252376,2,0,L|311:57,1,75.0000028610231,2|0,0:3|0:0,0:0:0:0:
157,60,252566,2,0,L|154:155,1,75.0000028610231,0|0,0:0|0:0,0:0:0:0:
325,162,252756,2,0,P|401:158|446:97,1,150.000005722046,8|2,0:0|0:0,0:0:0:0:
359,98,253040,1,2,0:0:0:0:
179,108,253135,6,0,L|177:231,1,75.0000028610231,6|0,0:3|0:0,0:0:0:0:
292,234,253325,2,0,L|205:234,1,75.0000028610231,2|0,0:0|0:0,0:0:0:0:
55,240,253515,2,0,P|23:154|58:117,1,150.000005722046,8|8,0:0|0:0,0:0:0:0:
142,118,253800,1,8,0:0:0:0:
322,138,253895,6,0,L|328:53,1,75.0000028610231,8|0,0:0|0:0,0:0:0:0:
224,157,254085,2,0,L|212:251,1,75.0000028610231,8|8,0:0|0:0,0:0:0:0:
377,263,254275,2,0,L|478:262,1,75.0000028610231,8|0,0:0|0:0,0:0:0:0:
162,308,254465,2,0,L|47:309,1,75.0000028610231,8|0,0:0|0:0,0:0:0:0:
299,324,254654,6,0,L|388:321,1,75.0000028610231,6|0,0:0|0:0,0:0:0:0:
160,280,254844,2,0,P|91:243|171:181,1,150.000005722046,0|8,0:0|0:0,0:0:0:0:
201,179,255129,1,0,0:0:0:0:
425,169,255224,2,0,P|477:89|422:38,1,150.000005722046,2|2,0:3|0:3,0:0:0:0:
196,76,255604,2,0,L|19:75,1,150.000005722046,2|8,0:0|0:0,0:0:0:0:
125,78,255889,1,0,0:0:0:0:
452,154,255984,2,0,L|333:151,1,75.0000028610231,2|2,0:0|0:0,0:0:0:0:
178,132,256173,6,0,L|179:283,1,150.000005722046,6|0,0:3|0:0,0:0:0:0:
270,283,256458,1,0,0:0:0:0:
100,134,256553,2,0,L|101:285,1,150.000005722046,8|2,0:0|0:3,0:0:0:0:
192,286,256838,1,2,0:0:0:0:
404,278,256933,5,2,0:3:0:0:
325,278,257028,1,0,0:0:0:0:
250,280,257123,1,2,0:0:0:0:
174,282,257218,1,2,0:0:0:0:
341,202,257313,2,0,L|434:204,1,75.0000028610231,8|0,0:0|0:0,0:0:0:0:
216,187,257502,2,0,L|100:187,1,75.0000028610231,2|2,0:0|0:0,0:0:0:0:
410,119,257692,6,0,L|283:117,1,75.0000028610231,6|0,0:3|0:0,0:0:0:0:
143,131,257882,2,0,L|312:130,1,150.000005722046,0|10,0:0|0:0,0:0:0:0:
367,175,258167,1,0,0:0:0:0:
114,162,258262,2,0,L|305:158,1,150.000005722046,2|2,0:3|0:3,0:0:0:0:
358,201,258547,1,0,0:0:0:0:
161,231,258642,2,0,L|0:233,1,150.000005722046,2|8,0:0|0:0,0:0:0:0:
94,218,258927,1,0,0:0:0:0:
319,228,259021,2,0,L|333:136,1,75.0000028610231,2|2,0:0|0:0,0:0:0:0:
132,257,259211,6,0,P|94:244|148:160,1,150.000005722046,6|2,0:3|0:0,0:0:0:0:
198,161,259496,1,2,0:0:0:0:
388,171,259591,1,8,0:0:0:0:
212,253,259781,2,0,L|319:252,1,75.0000028610231,2|0,0:3|0:0,0:0:0:0:
369,259,259971,6,0,L|375:152,1,75.0000028610231,2|0,0:3|0:0,0:0:0:0:
301,159,260161,2,0,L|175:155,1,75.0000028610231,8|0,0:0|0:0,0:0:0:0:
451,106,260351,2,0,L|336:103,1,75.0000028610231,8|0,0:0|0:0,0:0:0:0:
153,88,260540,2,0,L|46:85,1,75.0000028610231
293,209,260730,6,0,L|414:211,1,75.0000028610231,6|0,0:0|0:0,0:0:0:0:
293,209,260920,2,0,L|114:206,1,150.000005722046,0|8,0:0|0:0,0:0:0:0:
224,191,261205,1,0,0:0:0:0:
384,186,261300,2,0,P|457:169|466:66,1,150.000005722046,2|2,0:3|0:3,0:0:0:0:
160,110,261680,2,0,L|329:112,1,150.000005722046,2|8,0:0|0:0,0:0:0:0:
391,166,261965,1,0,0:0:0:0:
205,202,262059,2,0,L|207:93,1,75.0000028610231,2|2,0:0|0:0,0:0:0:0:
432,117,262249,6,0,L|337:113,1,75.0000028610231,6|0,0:3|0:0,0:0:0:0:
267,121,262439,2,0,L|248:46,1,75.0000028610231,0|0,0:0|0:0,0:0:0:0:
501,168,262629,2,0,L|406:164,1,75.0000028610231,8|0,0:0|0:0,0:0:0:0:
336,172,262819,2,0,L|317:97,1,75.0000028610231,2|2,0:3|0:0,0:0:0:0:
400,95,263009,2,0,L|492:95,1,75.0000028610231,2|0,0:3|0:0,0:0:0:0:
195,224,263199,2,0,L|316:222,1,75.0000028610231,2|2,0:0|0:0,0:0:0:0:
472,228,263389,2,0,L|495:68,1,150.000005722046,8|2,0:0|0:0,0:0:0:0:
412,72,263673,1,2,0:0:0:0:
163,200,263768,6,0,L|66:198,1,75.0000028610231,6|0,0:3|0:0,0:0:0:0:
292,137,263958,2,0,L|296:39,1,75.0000028610231,0|0,0:0|0:0,0:0:0:0:
200,71,264148,2,0,L|200:-5,1,75.0000028610231,8|0,0:0|0:0,0:0:0:0:
386,51,264338,2,0,L|472:49,1,75.0000028610231,2|2,0:3|0:0,0:0:0:0:
206,177,264528,2,0,L|85:176,1,75.0000028610231,2|0,0:3|0:0,0:0:0:0:
320,289,264718,2,0,L|195:288,1,75.0000028610231,2|2,0:0|0:0,0:0:0:0:
87,295,264908,2,0,L|90:178,1,75.0000028610231,8|0,0:0|0:0,0:0:0:0:
245,219,265097,2,0,L|334:221,1,75.0000028610231,2|2,0:0|0:0,0:0:0:0:
168,69,265287,6,0,L|-1:68,1,150.000005722046,2|2,0:3|0:0,0:0:0:0:
93,98,265572,1,0,0:0:0:0:
338,185,265667,2,0,L|142:183,1,150.000005722046,8|2,0:0|0:3,0:0:0:0:
369,270,266047,2,0,L|131:268,1,225.000008583069,2|8,0:3|0:0,0:0:0:0:
378,209,266427,1,8,0:0:0:0:
222,209,266616,1,8,0:0:0:0:
469,191,266806,5,6,0:1:0:0:
324,200,266996,2,0,P|255:239|351:294,1,200,0|2,0:0|0:3,0:0:0:0:
464,309,267566,1,8,0:0:0:0:
208,309,267946,1,2,0:0:0:0:
359,310,268135,6,0,P|468:218|361:181,1,300
206,188,268895,2,0,L|199:113,1,50,8|8,0:1|0:3,0:3:0:0:
379,126,269085,1,8,0:3:0:0:
199,67,269275,1,8,0:3:0:0:
276,56,269370,1,8,0:3:0:0:
352,49,269465,1,8,0:3:0:0:
166,27,269654,1,8,0:3:0:0:
458,215,269844,5,6,0:1:0:0:
300,214,270034,2,0,P|241:238|325:318,1,200,0|2,0:0|0:3,0:0:0:0:
468,324,270604,1,8,0:0:0:0:
202,335,270984,1,2,0:0:0:0:
355,338,271173,6,0,P|413:319|333:161,1,300
125,151,271933,2,0,L|191:150,1,50,2|2,0:3|0:3,0:0:0:0:
341,73,272123,2,0,L|64:77,2,225.000008583069,8|8|8,0:0|0:0|0:0,0:0:0:0:
83,159,272882,5,6,0:1:0:0:
249,157,273072,2,0,P|312:205|223:291,1,200,0|2,0:0|0:3,0:0:0:0:
88,296,273642,1,8,0:0:0:0:
415,351,274021,1,2,0:0:0:0:
236,355,274211,6,0,P|168:354|226:211,1,300
399,196,274971,1,8,0:1:0:0:
317,198,275066,1,8,0:3:0:0:
231,200,275161,1,8,0:3:0:0:
404,135,275351,2,0,L|406:222,2,50,8|8|8,0:3|0:3|0:3,0:3:0:0:
218,132,275730,1,8,0:3:0:0:
469,292,275920,5,6,0:1:0:0:
313,296,276110,2,0,P|260:289|336:216,1,200,0|2,0:0|0:3,0:0:0:0:
466,193,276680,1,8,0:0:0:0:
167,134,277059,1,2,0:0:0:0:
330,184,277249,6,0,P|397:208|289:344,1,300
131,296,278009,1,2,0:3:0:0:
202,298,278104,1,2,0:3:0:0:
278,299,278199,2,0,L|-8:299,2,225.000008583069,8|8|8,0:0|0:0|0:0,0:0:0:0:
256,192,280382,12,0,286553,0:0:0:0:
