osu file format v14

[General]
AudioFilename: audio.mp3
AudioLeadIn: 0
PreviewTime: -1
Countdown: 1
SampleSet: Soft
StackLeniency: 0.6
Mode: 0
LetterboxInBreaks: 0
WidescreenStoryboard: 0

[Editor]
Bookmarks: 44697,61392
DistanceSpacing: 1.6
BeatDivisor: 8
GridSize: 4
TimelineZoom: 1

[Metadata]
Title:Yukai na Hakaba de Gokigenyou
TitleUnicode:愉快な墓場でごきげんよう
Artist:Akatsuki Records
ArtistUnicode:暁Records
Creator:Doomsdaddy
Version:Welcome to this Lively Graveyard!
Source:東方神靈廟 ~ Ten Desires
Tags:Touhou 東方Project Steampunk 東方スチームパンク Melonbooks Records メロンブックス リジッドパラダイス Rigid Paradise Yoshika Miyako's Theme Stack Bros. ZUN
BeatmapID:1992578
BeatmapSetID:954431

[Difficulty]
HPDrainRate:5
CircleSize:3.5
OverallDifficulty:8.2
ApproachRate:9
SliderMultiplier:1.4
SliderTickRate:1

[Events]
//Background and Video events
0,0,"558851.jpg",0,0
//Break Periods
//Storyboard Layer 0 (Background)
//Storyboard Layer 1 (Fail)
//Storyboard Layer 2 (Pass)
//Storyboard Layer 3 (Foreground)
//Storyboard Sound Samples

[TimingPoints]
885,521.739130434783,4,2,0,10,1,0
2967,-100,4,2,0,65,0,0
3359,-100,4,2,0,5,0,0
3489,-100,4,2,0,65,0,0
4663,-100,4,2,0,5,0,0
4794,-100,4,2,0,65,0,0
5185,-100,4,2,0,5,0,0
5315,-100,4,2,0,65,0,0
5446,-100,4,2,0,5,0,0
5576,-100,4,2,0,65,0,0
5707,-100,4,2,0,5,0,0
5837,-100,4,2,0,65,0,0
7533,-100,4,2,0,5,0,0
7663,-100,4,2,0,65,0,0
7924,-100,4,2,0,5,0,0
8054,-100,4,2,0,65,0,0
10794,-62.5,4,2,0,65,0,0
11325,-100,4,2,0,65,0,0
15098,-100,4,2,0,5,0,0
15228,-62.5,4,2,0,65,0,0
17641,-62.5,4,2,0,5,0,0
17837,-62.5,4,2,0,65,0,0
17902,-62.5,4,2,0,5,0,0
18098,-62.5,4,2,0,65,0,0
18163,-62.5,4,2,0,5,0,0
18359,-62.5,4,2,0,65,0,0
18424,-62.5,4,2,0,5,0,0
18489,-62.5,4,2,0,65,0,0
18554,-62.5,4,2,0,5,0,0
18620,-62.5,4,2,0,65,0,0
18685,-62.5,4,2,0,5,0,0
18881,-62.5,4,2,0,65,0,0
18946,-62.5,4,2,0,5,0,0
19141,-333.333333333333,4,2,0,65,0,0
19663,-62.5,4,2,0,65,0,0
21359,-62.5,4,2,0,5,0,0
21489,-62.5,4,2,0,65,0,0
21620,-62.5,4,2,0,5,0,0
21750,-62.5,4,2,0,65,0,0
21881,-62.5,4,2,0,5,0,0
22011,-62.5,4,2,0,65,0,0
22141,-62.5,4,2,0,5,0,0
22272,-62.5,4,2,0,65,0,0
22924,-62.5,4,2,0,5,0,0
23054,-62.5,4,2,0,65,0,0
23185,-62.5,4,2,0,5,0,0
23315,-62.5,4,2,0,65,0,0
23446,-62.5,4,2,0,5,0,0
23576,-62.5,4,2,0,65,0,0
23707,-62.5,4,2,0,5,0,0
23837,-62.5,4,2,0,65,0,0
25533,-62.5,4,2,0,5,0,0
25663,-62.5,4,2,0,65,0,0
25794,-62.5,4,2,0,5,0,0
25924,-62.5,4,2,0,65,0,0
29707,-62.5,4,2,0,5,0,0
29837,-62.5,4,2,0,65,0,0
29967,-62.5,4,2,0,5,0,0
30098,-62.5,4,2,0,65,0,0
33881,-62.5,4,2,0,5,0,0
34011,-62.5,4,2,0,65,0,0
34141,-62.5,4,2,0,5,0,0
34272,-62.5,4,2,0,65,0,0
37533,-62.5,4,2,0,5,0,0
37663,-62.5,4,2,0,65,0,0
37794,-62.5,4,2,0,5,0,0
37924,-62.5,4,2,0,65,0,0
38054,-62.5,4,2,0,5,0,0
38185,-62.5,4,2,0,65,0,0
38315,-62.5,4,2,0,5,0,0
38446,-62.5,4,2,0,65,0,0
42228,-62.5,4,2,0,5,0,0
42359,-62.5,4,2,0,65,0,0
42489,-62.5,4,2,0,5,0,0
42620,-62.5,4,2,0,65,0,0
44707,-50,4,2,0,65,0,1
50967,-150.15015015015,4,2,0,65,0,0
52532,-50,4,2,0,65,0,1
60891,-100,4,2,0,65,0,0
61412,-62.5,4,2,0,65,0,0
61673,-62.5,4,2,0,5,0,0
61934,-62.5,4,2,0,65,0,0
62195,-62.5,4,2,0,5,0,0
62456,-62.5,4,2,0,65,0,0
62717,-62.5,4,2,0,5,0,0
62977,-62.5,4,2,0,65,0,0
63238,-62.5,4,2,0,5,0,0
63499,-62.5,4,2,0,65,0,0
63760,-62.5,4,2,0,5,0,0
64021,-62.5,4,2,0,65,0,0
64282,-62.5,4,2,0,5,0,0
64543,-62.5,4,2,0,65,0,0
75630,-62.5,4,2,0,5,0,0
75760,-62.5,4,2,0,65,0,0
75891,-62.5,4,2,0,5,0,0
76021,-62.5,4,2,0,65,0,0
81369,-62.5,4,2,0,5,0,0
81499,-62.5,4,2,0,65,0,0
81630,-62.5,4,2,0,5,0,0
81760,-187.511719482468,4,2,0,65,0,0
82282,-62.5,4,2,0,65,0,0
90630,-50,4,2,0,65,0,1
91804,-50,4,2,0,5,0,1
91934,-50,4,2,0,65,0,1
92064,-50,4,2,0,5,0,1
92195,-50,4,2,0,65,0,1
92325,-50,4,2,0,5,0,1
92456,-50,4,2,0,65,0,1
92586,-50,4,2,0,5,0,1
92717,-50,4,2,0,65,0,1
93891,-50,4,2,0,5,0,1
94021,-50,4,2,0,65,0,1
94151,-50,4,2,0,5,0,1
94282,-50,4,2,0,65,0,1
95977,-50,4,2,0,5,0,1
96108,-50,4,2,0,65,0,1
96238,-50,4,2,0,5,0,1
96369,-50,4,2,0,65,0,1
96499,-50,4,2,0,5,0,1
96630,-50,4,2,0,65,0,1
96760,-50,4,2,0,5,0,1
96891,-150.15015015015,4,2,0,65,0,0
97282,-150.15015015015,4,2,0,5,0,0
97412,-150.15015015015,4,2,0,65,0,0
97804,-150.15015015015,4,2,0,5,0,0
97934,-150.15015015015,4,2,0,65,0,0
98325,-150.15015015015,4,2,0,65,0,0
98456,-50,4,2,0,65,0,0
102238,-50,4,2,0,5,0,0
102369,-50,4,2,0,65,0,0
102499,-50,4,2,0,5,0,0
102630,-50,4,2,0,65,0,0
102760,-50,4,2,0,5,0,0
102891,-50,4,2,0,65,0,0
103021,-50,4,2,0,5,0,0
103151,-50,4,2,0,65,0,0
105108,-50,4,2,0,5,0,0
105238,-50,4,2,0,65,0,0
107325,-100,4,2,0,65,0,0
109021,-100,4,2,0,5,0,0
109151,-100,4,2,0,65,0,0
109282,-100,4,2,0,5,0,0
109412,-100,4,2,0,65,0,0
110586,-100,4,2,0,5,0,0
110717,-100,4,2,0,65,0,0
110847,-100,4,2,0,5,0,0
110977,-100,4,2,0,65,0,0
111108,-100,4,2,0,5,0,0
111238,-100,4,2,0,65,0,0
111369,-100,4,2,0,5,0,0
111499,-100,4,2,0,65,0,0
118934,-100,4,2,0,5,0,0
119064,-100,4,2,0,65,0,0
119195,-100,4,2,0,5,0,0
119325,-100,4,2,0,65,0,0
119456,-100,4,2,0,5,0,0
119586,-100,4,2,0,65,0,0
119717,-100,4,2,0,5,0,0
119847,-100,4,2,0,65,0,0
124021,-62.5,4,2,0,65,0,0
141891,-62.5,4,2,0,5,0,0
142021,-62.5,4,2,0,65,0,0
142151,-62.5,4,2,0,5,0,0
142282,-62.5,4,2,0,65,0,0
142412,-62.5,4,2,0,5,0,0
142543,-62.5,4,2,0,65,0,0
142673,-62.5,4,2,0,5,0,0
142804,-62.5,4,2,0,65,0,0
143977,-62.5,4,2,0,5,0,0
144108,-62.5,4,2,0,65,0,0
144238,-62.5,4,2,0,5,0,0
144369,-62.5,4,2,0,65,0,0
144499,-62.5,4,2,0,5,0,0
144630,-62.5,4,2,0,65,0,0
144760,-62.5,4,2,0,5,0,0
144891,-62.5,4,2,0,65,0,0
146064,-62.5,4,2,0,5,0,0
146195,-62.5,4,2,0,65,0,0
146325,-62.5,4,2,0,5,0,0
146456,-62.5,4,2,0,65,0,0
146586,-62.5,4,2,0,5,0,0
146717,-62.5,4,2,0,65,0,0
146847,-62.5,4,2,0,5,0,0
146977,-62.5,4,2,0,65,0,0
148543,-187.511719482468,4,2,0,65,0,0
149586,-62.5,4,2,0,65,0,0
154412,-62.5,4,2,0,5,0,0
154543,-62.5,4,2,0,65,0,0
154673,-62.5,4,2,0,5,0,0
154804,-62.5,4,2,0,65,0,0
154934,-62.5,4,2,0,5,0,0
155064,-62.5,4,2,0,65,0,0
155195,-62.5,4,2,0,5,0,0
155325,-62.5,4,2,0,65,0,0
157804,-62.5,4,2,0,5,0,0
157934,-62.5,4,2,0,65,0,0
158325,-62.5,4,2,0,5,0,0
158456,-62.5,4,2,0,65,0,0
158847,-62.5,4,2,0,5,0,0
158977,-62.5,4,2,0,65,0,0
159369,-62.5,4,2,0,5,0,0
159499,-62.5,4,2,0,65,0,0
159891,-62.5,4,2,0,5,0,0
160021,-62.5,4,2,0,65,0,0
160412,-62.5,4,2,0,5,0,0
160543,-62.5,4,2,0,65,0,0
160934,-62.5,4,2,0,5,0,0
161064,-62.5,4,2,0,65,0,0
161195,-62.5,4,2,0,5,0,0
161325,-62.5,4,2,0,65,0,0
161456,-62.5,4,2,0,5,0,0
161586,-62.5,4,2,0,65,0,0
161977,-62.5,4,2,0,5,0,0
162108,-62.5,4,2,0,65,0,0
162499,-62.5,4,2,0,5,0,0
162630,-62.5,4,2,0,65,0,0
163021,-62.5,4,2,0,5,0,0
163151,-62.5,4,2,0,65,0,0
163543,-62.5,4,2,0,5,0,0
163673,-62.5,4,2,0,65,0,0
164064,-62.5,4,2,0,5,0,0
164195,-62.5,4,2,0,65,0,0
164586,-62.5,4,2,0,5,0,0
164717,-62.5,4,2,0,65,0,0
164847,-62.5,4,2,0,5,0,0
164977,-62.5,4,2,0,65,0,0
165108,-62.5,4,2,0,5,0,0
165238,-187.511719482468,4,2,0,65,0,0
165630,-62.5,4,2,0,5,0,0
165760,-50,4,2,0,65,0,0
166934,-50,4,2,0,5,0,0
167064,-50,4,2,0,65,0,0
167195,-50,4,2,0,5,0,0
167325,-50,4,2,0,65,0,0
167456,-50,4,2,0,5,0,0
167586,-50,4,2,0,65,0,0
167717,-50,4,2,0,5,0,0
167847,-50,4,2,0,65,0,0
171108,-50,4,2,0,5,0,0
171238,-50,4,2,0,65,0,0
171369,-50,4,2,0,5,0,0
171499,-50,4,2,0,65,0,0
171630,-50,4,2,0,5,0,0
171760,-50,4,2,0,65,0,0
171891,-50,4,2,0,5,0,0
172021,-157.903047528817,4,2,0,65,0,0
172412,-157.903047528817,4,2,0,5,0,0
172543,-157.903047528817,4,2,0,65,0,0
172934,-157.903047528817,4,2,0,5,0,0
173064,-157.903047528817,4,2,0,65,0,0
173456,-157.903047528817,4,2,0,5,0,0
173586,-50,4,2,0,65,0,0
177369,-50,4,2,0,5,0,0
177499,-50,4,2,0,65,0,0
177630,-50,4,2,0,5,0,0
177760,-50,4,2,0,65,0,0
177891,-50,4,2,0,5,0,0
178021,-50,4,2,0,65,0,0
178151,-50,4,2,0,5,0,0
178282,-50,4,2,0,65,0,0
181543,-50,4,2,0,5,0,0
181673,-50,4,2,0,65,0,0
181804,-50,4,2,0,5,0,0
181934,-50,4,2,0,65,0,0
182456,-62.5,4,2,0,5,0,0

[HitObjects]
256,195,885,5,0,0:0:0:0:
256,195,1406,1,0,0:0:0:0:
256,195,1928,1,0,0:0:0:0:
256,195,2450,1,0,0:0:0:0:
105,116,2971,6,0,P|133:100|146:165,1,105
92,262,3493,2,0,P|143:240|173:251,1,70
319,307,3885,1,0,0:0:0:0:
304,229,4015,1,0,0:0:0:0:
232,263,4145,1,0,0:0:0:0:
180,202,4276,1,0,0:0:0:0:
243,143,4406,1,0,0:0:0:0:
330,154,4537,2,0,P|364:146|378:108,1,70
378,116,5058,6,0,L|373:55,1,35
260,169,5319,2,0,L|265:108,1,35
391,236,5580,2,0,L|386:175,1,35
273,289,5841,1,0,0:0:0:0:
273,289,5971,1,0,0:0:0:0:
273,289,6102,6,0,P|247:283|228:293,1,46.6666666666667
200,293,6363,1,0,0:0:0:0:
178,288,6428,1,0,0:0:0:0:
157,281,6493,1,0,0:0:0:0:
107,180,6624,1,0,0:0:0:0:
186,357,6885,1,0,0:0:0:0:
226,78,7145,6,0,P|186:55|187:112,1,105
229,180,7667,2,0,L|329:154,1,70
393,130,8058,1,0,0:0:0:0:
320,74,8189,1,0,0:0:0:0:
296,162,8319,1,0,0:0:0:0:
367,219,8450,1,0,0:0:0:0:
343,307,8580,1,0,0:0:0:0:
270,251,8711,1,0,0:0:0:0:
436,287,8971,1,0,0:0:0:0:
185,332,9232,6,0,P|175:297|136:258,1,70
41,200,9754,2,0,P|51:165|90:126,1,70
245,163,10145,1,0,0:0:0:0:
237,81,10276,2,0,P|208:91|183:113,1,35
123,201,10537,2,0,P|140:204|155:212,1,35
221,322,10798,6,0,B|249:290|299:307|299:307|353:325|387:275,1,168
452,196,11319,5,0,0:0:0:0:
442,334,11580,1,0,0:0:0:0:
360,100,11841,2,0,P|291:103|260:124,1,105
258,259,12363,1,0,0:0:0:0:
328,182,12493,1,0,0:0:0:0:
174,266,12624,1,0,0:0:0:0:
244,343,12754,1,0,0:0:0:0:
221,175,12885,1,0,0:0:0:0:
221,175,13145,1,0,0:0:0:0:
221,175,13406,6,0,P|198:170|155:179,1,35
100,95,13667,2,0,P|120:88|150:93,1,35
307,159,13928,2,0,L|290:260,1,70
333,345,14319,1,0,0:0:0:0:
424,262,14450,2,0,L|438:172,1,70
439,169,14776,1,0,0:0:0:0:
441,145,14841,1,0,0:0:0:0:
361,47,14971,6,0,B|339:31|318:41,1,35
204,77,15232,1,0,0:0:0:0:
345,236,15493,6,0,P|356:270|254:285,1,168
198,201,16015,2,0,L|74:215,1,112
151,290,16406,1,0,0:0:0:0:
158,121,16537,2,0,L|78:131,1,56
151,290,16798,2,0,L|206:283,1,56
273,170,17058,5,0,0:0:0:0:
86,213,17319,1,0,0:0:0:0:
343,210,17580,6,0,P|352:184|350:162,1,28
199,203,17841,2,0,P|190:177|192:155,1,28
361,211,18102,6,0,P|370:185|368:163,1,28
175,205,18363,2,0,P|166:179|168:157,1,28
102,129,18493,2,0,P|111:103|109:81,1,28
77,28,18624,6,0,L|121:23,1,28
237,126,18885,2,0,L|193:121,1,28
99,247,19145,6,0,L|131:242,1,31.4999990386963
218,319,19667,6,0,P|257:286|340:303,1,112
416,343,20058,1,0,0:0:0:0:
372,196,20189,1,0,0:0:0:0:
372,196,20319,1,0,0:0:0:0:
372,196,20450,2,0,L|377:119,1,56
454,73,20711,5,0,0:0:0:0:
371,276,20971,1,0,0:0:0:0:
211,52,21232,2,0,P|236:69|246:103,1,56
139,162,21493,2,0,P|150:136|173:121,1,56
244,228,21754,2,0,P|232:202|209:187,1,56
140,295,22015,2,0,P|151:269|174:254,1,56
316,306,22276,6,0,P|380:311|401:237,1,112
336,211,22667,1,0,0:0:0:0:
392,81,22798,2,0,P|366:102|305:101,1,56
207,145,23058,2,0,P|233:153|254:172,1,56
111,160,23319,2,0,L|126:89,1,56
192,231,23580,2,0,L|203:285,1,56
74,344,23841,6,0,B|56:322|56:322|116:224,1,112
207,145,24232,1,0,0:0:0:0:
295,166,24363,1,0,0:0:0:0:
382,146,24493,1,0,0:0:0:0:
470,167,24624,2,0,P|450:200|449:230,1,56
466,308,24885,6,0,L|326:300,1,112
238,197,25276,1,0,0:0:0:0:
305,239,25406,2,0,P|293:255|255:274,1,56
195,163,25667,2,0,P|207:179|245:198,1,56
231,70,25928,6,0,P|174:59|112:113,1,112
52,210,26319,1,0,0:0:0:0:
123,265,26450,1,0,0:0:0:0:
237,196,26580,1,0,0:0:0:0:
166,141,26711,2,0,P|160:174|168:214,1,56
212,299,26971,5,0,0:0:0:0:
396,193,27232,5,0,0:0:0:0:
76,112,27493,5,0,0:0:0:0:
76,112,28015,6,0,B|119:77|119:77|208:99,1,112
296,136,28406,1,0,0:0:0:0:
253,55,28537,1,0,0:0:0:0:
206,190,28667,1,0,0:0:0:0:
249,271,28798,2,0,P|268:262|336:299,1,56
425,338,29058,6,0,B|396:312|396:312|420:214,1,112
468,67,29580,6,0,L|448:143,1,56
413,241,29841,2,0,P|379:214|350:206,1,56
229,187,30102,6,0,P|234:152|266:214,1,168
259,339,30624,1,0,0:0:0:0:
160,287,30754,1,0,0:0:0:0:
251,224,30885,2,0,P|227:187|214:196,1,56
138,129,31145,6,0,P|192:87|285:95,1,112
144,233,31667,2,0,P|89:221|48:184,1,112
232,173,32189,2,0,P|248:225|237:280,1,112
144,233,32580,1,0,0:0:0:0:
232,173,32711,1,0,0:0:0:0:
321,230,32841,1,0,0:0:0:0:
409,170,32971,2,0,P|391:149|352:150,1,56
232,173,33232,6,0,P|158:174|99:128,1,112
193,89,33624,1,0,0:0:0:0:
166,252,33754,2,0,P|166:279|139:305,1,56
52,158,34015,2,0,P|52:185|79:211,1,56
193,89,34276,6,0,P|244:60|312:71,1,112
387,124,34667,1,0,0:0:0:0:
336,216,34798,1,0,0:0:0:0:
234,190,34928,1,0,0:0:0:0:
159,264,35058,1,0,0:0:0:0:
235,338,35189,1,0,0:0:0:0:
337,310,35319,5,0,0:0:0:0:
75,246,35580,5,0,0:0:0:0:
387,124,35841,5,0,0:0:0:0:
387,124,36363,6,0,B|344:89|344:89|255:111,1,112
167,148,36754,1,0,0:0:0:0:
210,67,36885,1,0,0:0:0:0:
260,202,37015,1,0,0:0:0:0:
217,283,37145,2,0,P|198:274|130:311,1,56
62,309,37406,6,0,L|52:233,1,56
179,90,37667,2,0,L|172:146,1,56
298,307,37928,2,0,L|290:251,1,56
417,91,38189,2,0,L|410:147,1,56
469,206,38450,6,0,P|423:229|341:193,1,112
283,118,38841,1,0,0:0:0:0:
283,118,38971,2,0,L|127:144,1,112
86,240,39363,1,0,0:0:0:0:
86,240,39493,2,0,L|242:266,1,112
304,339,39885,1,0,0:0:0:0:
304,339,40015,2,0,P|336:322|386:328,1,56
464,241,40276,2,0,P|432:224|382:230,1,56
278,222,40537,6,0,P|238:182|291:169,1,112
381,83,40928,1,0,0:0:0:0:
381,83,41058,2,0,P|350:93|294:75,1,56
176,45,41319,5,0,0:0:0:0:
266,25,41450,1,0,0:0:0:0:
236,112,41580,2,0,P|224:151|151:193,1,112
68,169,41971,1,0,0:0:0:0:
151,111,42102,2,0,P|180:133|192:162,1,56
138,237,42363,2,0,P|133:273|114:298,1,56
39,338,42624,6,0,B|76:311|122:329|122:329|178:358|218:296,1,168
247,242,43145,1,0,0:0:0:0:
41,124,43406,1,0,0:0:0:0:
86,213,43537,1,0,0:0:0:0:
166,149,43667,2,0,P|198:136|249:143,1,56
356,169,43928,2,0,P|362:145|353:96,1,56
276,230,44189,2,0,B|389:267|389:267|302:306,1,168
229,343,44711,5,0,0:0:0:0:
87,280,44841,2,0,B|117:266|101:232|101:232|159:208|141:121,1,140
145,27,45232,2,0,B|96:43|96:43|219:91,1,140
373,142,45624,1,0,0:0:0:0:
260,67,45754,2,0,L|236:146,1,70
393,208,46015,2,0,L|369:129,1,70
273,274,46276,2,0,B|230:278|191:261|191:261|231:229|221:191,1,140
183,52,46798,5,0,0:0:0:0:
72,133,46928,2,0,B|56:185|56:185|145:157,1,140
288,277,47319,2,0,L|142:325,1,140
248,201,47711,1,0,0:0:0:0:
361,332,47841,2,0,L|380:243,1,70
478,121,48102,1,0,0:0:0:0:
464,241,48232,1,0,0:0:0:0:
371,58,48363,1,0,0:0:0:0:
288,277,48624,1,0,0:0:0:0:
288,277,48885,6,0,P|219:241|147:279,1,140
216,336,49276,1,0,0:0:0:0:
304,186,49406,2,0,P|319:162|298:88,1,70
205,92,49667,2,0,P|191:67|117:48,1,70
103,152,49928,2,0,P|74:151|80:243,1,140
164,260,50319,1,0,0:0:0:0:
286,153,50450,2,0,L|194:147,1,70
291,257,50711,2,0,L|383:251,1,70
294,75,50971,6,0,L|204:69,1,69.9300017072754
296,334,51493,2,0,L|365:329,1,69.9300017072754
469,185,52015,2,0,L|399:180,1,69.9300017072754
325,230,52537,5,0,0:0:0:0:
180,162,52667,1,0,0:0:0:0:
326,125,52798,1,0,0:0:0:0:
226,256,52928,1,0,0:0:0:0:
239,88,53058,6,0,P|161:69|87:190,1,210
41,282,53580,2,0,B|73:264|73:264|203:308,1,140
334,248,53971,1,0,0:0:0:0:
167,217,54102,2,0,L|254:250,1,70
400,142,54363,2,0,L|313:175,1,70
184,43,54624,2,0,L|271:76,1,70
63,147,54885,2,0,P|47:104|75:69,1,70
185,186,55145,5,0,0:0:0:0:
185,186,55276,2,0,P|223:217|216:308,1,140
37,311,55667,2,0,P|77:272|195:269,1,140
297,331,56058,1,0,0:0:0:0:
123,343,56189,2,0,P|100:310|114:226,1,70
149,158,56450,1,0,0:0:0:0:
60,60,56580,1,0,0:0:0:0:
19,187,56711,1,0,0:0:0:0:
19,187,56971,1,0,0:0:0:0:
113,74,57232,6,0,P|176:42|274:79,1,140
379,102,57624,1,0,0:0:0:0:
241,152,57754,2,0,P|212:189|271:255,1,140
407,225,58145,1,0,0:0:0:0:
261,198,58276,2,0,B|181:213|181:213|110:260,1,140
51,333,58667,1,0,0:0:0:0:
177,265,58798,2,0,L|125:185,1,70
63,90,59058,1,0,0:0:0:0:
63,90,59319,6,0,P|110:60|119:179,1,210
60,280,59841,2,0,B|108:247|162:273|162:273|222:305|285:265,1,210
376,214,60363,5,0,0:0:0:0:
200,156,60624,5,0,0:0:0:0:
471,42,60885,6,0,B|439:40|439:40|387:68,1,70
288,182,61406,6,0,P|315:119|346:133,1,112
339,127,61928,2,0,P|288:130|288:182,1,112
359,276,62450,6,0,P|332:339|301:325,1,112
307,330,62971,2,0,P|358:327|359:276,1,112
210,223,63493,6,0,L|65:242,1,112
98,237,64015,2,0,L|210:223,1,112
358,275,64537,5,0,0:0:0:0:
196,332,64798,5,0,0:0:0:0:
300,95,65058,6,0,B|281:118|281:118|288:137|288:137|269:158|269:158|278:193|278:193|262:213|262:213|307:210,1,168
362,275,65580,6,0,L|206:299,1,112
122,248,65971,1,0,0:0:0:0:
218,149,66102,2,0,P|232:108|127:91,1,168
210,233,66624,2,0,P|267:207|302:152,1,112
372,72,67015,1,0,0:0:0:0:
445,168,67145,2,0,L|423:228,1,56
362,325,67406,2,0,L|340:265,1,56
295,168,67667,6,0,B|273:163|273:163|146:206,1,112
44,347,68189,1,0,0:0:0:0:
148,308,68319,1,0,0:0:0:0:
60,239,68450,2,0,P|43:207|66:165,1,56
100,62,68711,6,0,L|238:90,1,112
426,130,69232,2,0,L|363:118,1,56
221,200,69493,2,0,L|276:210,1,56
418,302,69754,2,0,B|330:319|330:319|385:350,1,112
468,367,70145,5,0,0:0:0:0:
445,218,70276,2,0,L|373:234,1,56
269,272,70537,1,0,0:0:0:0:
197,168,70667,1,0,0:0:0:0:
260,55,70798,6,0,P|184:28|146:48,1,112
101,135,71189,1,0,0:0:0:0:
178,218,71319,2,0,P|192:197|192:148,1,56
162,305,71580,2,0,P|189:306|215:295,1,56
301,200,71841,6,0,P|349:178|428:257,1,168
327,339,72363,1,0,0:0:0:0:
327,339,72493,1,0,0:0:0:0:
327,339,72624,2,0,L|345:271,1,56
392,103,72885,5,0,0:0:0:0:
255,264,73145,5,0,0:0:0:0:
88,42,73406,5,0,0:0:0:0:
88,42,73928,6,0,P|128:76|114:159,1,112
52,289,74450,2,0,P|76:249|153:226,1,112
302,344,74971,1,0,0:0:0:0:
135,308,75232,1,0,0:0:0:0:
339,236,75493,2,0,P|355:205|337:174,1,56
254,125,75754,2,0,P|235:95|199:95,1,56
79,189,76015,6,0,L|198:205,1,112
357,319,76537,1,0,0:0:0:0:
245,333,76667,1,0,0:0:0:0:
287,229,76798,2,0,P|294:199|286:162,1,56
250,51,77058,2,0,L|396:82,1,112
480,212,77580,2,0,L|334:243,1,112
207,335,78102,6,0,P|246:285|215:201,1,112
162,185,78493,1,0,0:0:0:0:
68,215,78624,1,0,0:0:0:0:
83,119,78754,1,0,0:0:0:0:
162,61,78885,2,0,L|230:73,1,56
388,102,79145,6,0,P|327:123|280:182,1,112
390,315,79667,2,0,P|402:251|374:181,1,112
200,208,80189,2,0,P|248:250|323:261,1,112
163,136,80711,5,0,0:0:0:0:
217,328,80971,1,0,0:0:0:0:
212,62,81232,2,0,P|174:46|139:54,1,56
111,151,81493,2,0,P|149:135|184:143,1,56
209,241,81754,6,0,P|171:225|143:232,1,55.9965002187363
217,328,82276,6,0,L|349:314,1,112
452,219,82667,1,0,0:0:0:0:
419,311,82798,2,0,L|334:195,1,112
370,69,83189,1,0,0:0:0:0:
406,149,83319,2,0,L|284:140,1,112
142,204,83711,1,0,0:0:0:0:
253,215,83841,1,0,0:0:0:0:
96,104,84102,1,0,0:0:0:0:
188,294,84363,6,0,L|313:307,1,112
440,226,84754,1,0,0:0:0:0:
396,316,84885,1,0,0:0:0:0:
351,233,85015,1,0,0:0:0:0:
387,145,85145,1,0,0:0:0:0:
342,62,85276,1,0,0:0:0:0:
275,164,85406,6,0,P|247:176|208:163,1,56
92,74,85667,2,0,P|116:92|124:132,1,56
106,278,85928,2,0,P|109:247|140:220,1,56
206,84,86189,1,0,0:0:0:0:
206,84,86450,6,0,P|246:120|343:107,1,112
451,57,86841,1,0,0:0:0:0:
360,37,86971,2,0,L|397:173,1,112
434,301,87363,1,0,0:0:0:0:
492,229,87493,2,0,P|429:209|353:255,1,112
193,331,88015,2,0,P|245:348|299:335,1,112
98,227,88537,6,0,L|112:163,3,56
72,71,89058,1,0,0:0:0:0:
269,236,89319,1,0,0:0:0:0:
185,217,89450,1,0,0:0:0:0:
241,152,89580,5,0,0:0:0:0:
301,322,89841,5,0,0:0:0:0:
396,61,90102,6,0,L|396:130,1,56
478,200,90363,2,0,L|478:144,1,56
395,263,90624,5,0,0:0:0:0:
395,263,90754,2,0,P|332:230|256:256,1,140
102,323,91145,2,0,B|135:300|135:300|89:253|139:202,1,140
236,57,91537,1,0,0:0:0:0:
145,125,91667,2,0,L|223:175,1,70
338,251,91928,2,0,L|342:158,1,70
346,21,92189,2,0,L|263:63,1,70
145,125,92450,2,0,L|223:175,1,70
205,307,92711,5,0,0:0:0:0:
133,255,92841,2,0,P|174:227|282:256,1,140
406,322,93232,2,0,B|386:286|386:286|406:224|406:224|384:169,1,140
437,37,93624,1,0,0:0:0:0:
448,133,93754,2,0,B|416:114|416:114|325:122,1,70
279,196,94015,2,0,B|247:215|247:215|156:207,1,70
70,136,94276,1,0,0:0:0:0:
297,104,94537,1,0,0:0:0:0:
70,136,94798,5,0,0:0:0:0:
70,136,94928,2,0,P|44:209|111:249,1,140
216,336,95319,2,0,B|249:316|284:327|284:327|339:345|382:297,1,140
439,190,95711,1,0,0:0:0:0:
357,57,95841,2,0,L|268:62,1,70
134,144,96102,2,0,L|223:149,1,70
358,229,96363,2,0,L|269:234,1,70
135,316,96624,2,0,L|224:321,1,70
358,229,96885,6,0,P|366:187|356:150,1,69.9300017072754
161,38,97406,2,0,P|153:80|163:117,1,69.9300017072754
267,293,97928,2,0,P|275:259|269:224,1,69.9300017072754
215,95,98450,5,0,0:0:0:0:
102,208,98580,1,0,0:0:0:0:
259,184,98711,1,0,0:0:0:0:
118,112,98841,1,0,0:0:0:0:
190,253,98971,6,0,P|243:279|359:176,1,210
372,41,99493,2,0,P|368:103|469:129,1,140
463,53,99885,1,0,0:0:0:0:
293,128,100015,2,0,P|264:137|164:111,1,70
105,234,100276,2,0,P|139:233|173:243,1,70
290,343,100537,1,0,0:0:0:0:
133,143,100798,1,0,0:0:0:0:
202,321,101058,5,0,0:0:0:0:
202,321,101189,2,0,P|221:282|348:277,1,140
454,327,101580,2,0,B|427:298|445:262|445:262|470:216|413:164,1,140
328,52,101971,1,0,0:0:0:0:
320,150,102102,2,0,L|402:125,1,70
250,210,102363,2,0,L|325:250,1,70
162,206,102624,2,0,L|182:272,1,70
102,136,102885,2,0,L|69:197,1,70
61,51,103145,6,0,P|103:42|191:164,1,210
121,308,103667,2,0,B|92:269|92:269|228:284,1,140
359,302,104058,1,0,0:0:0:0:
252,334,104189,2,0,L|270:188,1,140
345,77,104580,1,0,0:0:0:0:
320,183,104711,1,0,0:0:0:0:
232,107,104841,1,0,0:0:0:0:
345,77,104971,2,0,L|439:135,1,70
402,239,105232,6,0,P|334:276|218:187,1,210
175,108,105754,2,0,B|116:111|87:72|87:72|76:98|41:106|41:106|96:119|72:163,1,210
86,255,106276,5,0,0:0:0:0:
260,343,106537,5,0,0:0:0:0:
138,67,106798,6,0,B|145:102|199:111|234:91|234:91|265:63|326:62|373:124,1,210
444,117,107319,5,0,0:0:0:0:
374,319,107580,1,0,0:0:0:0:
331,223,107711,1,0,0:0:0:0:
347,216,107776,1,0,0:0:0:0:
366,213,107841,6,0,P|367:177|334:156,1,70
248,116,108232,1,0,0:0:0:0:
173,187,108363,2,0,P|132:201|86:170,1,70
38,124,108754,1,0,0:0:0:0:
130,86,108885,2,0,L|135:133,1,35
213,258,109145,2,0,L|209:292,1,35
173,187,109406,6,0,P|214:173|260:204,1,70
342,224,109798,1,0,0:0:0:0:
435,164,109928,1,0,0:0:0:0:
205,75,110319,1,0,0:0:0:0:
205,75,110450,2,0,L|200:129,1,35
111,181,110711,2,0,L|116:235,1,35
123,335,110971,2,0,P|135:323|170:327,1,35
235,239,111232,2,0,P|251:239|273:266,1,35
379,318,111493,6,0,P|408:289|398:225,1,105
380,114,112015,2,0,B|387:94|387:94|305:108,1,105
283,223,112537,2,0,B|267:227|267:227|226:213,1,35
127,192,112798,1,0,0:0:0:0:
127,192,112928,1,0,0:0:0:0:
127,192,113058,2,0,P|166:177|180:140,1,70
154,46,113450,5,0,0:0:0:0:
200,53,113580,1,0,0:0:0:0:
246,61,113711,1,0,0:0:0:0:
292,68,113841,1,0,0:0:0:0:
340,160,113971,1,0,0:0:0:0:
286,242,114102,6,0,P|258:230|235:241,1,35
154,287,114363,1,0,0:0:0:0:
227,300,114493,1,0,0:0:0:0:
254,230,114624,2,0,P|257:209|234:155,1,70
188,67,115015,1,0,0:0:0:0:
135,164,115145,5,0,0:0:0:0:
132,175,115232,1,0,0:0:0:0:
130,186,115319,1,0,0:0:0:0:
128,198,115406,1,0,0:0:0:0:
125,209,115493,1,0,0:0:0:0:
123,221,115580,1,0,0:0:0:0:
120,233,115667,6,0,P|164:239|197:243,1,70
297,284,116058,1,0,0:0:0:0:
402,241,116189,2,0,P|411:209|381:166,1,70
328,90,116580,1,0,0:0:0:0:
258,202,116711,6,0,P|221:210|161:192,1,70
104,136,117102,1,0,0:0:0:0:
188,35,117232,5,0,0:0:0:0:
341,177,117493,5,0,0:0:0:0:
73,307,117754,6,0,P|91:299|127:305,1,35
225,281,118015,1,0,0:0:0:0:
124,219,118145,1,0,0:0:0:0:
278,163,118276,6,0,P|308:157|350:199,1,70
294,238,118667,1,0,0:0:0:0:
230,95,118798,2,0,L|277:77,1,35
153,64,119058,2,0,L|148:99,1,35
105,171,119319,2,0,L|65:139,1,35
116,252,119580,2,0,L|149:240,1,35
253,315,119841,6,0,P|296:282|367:292,1,105
323,363,120363,2,0,L|293:273,1,70
280,190,120754,1,0,0:0:0:0:
318,89,120885,1,0,0:0:0:0:
406,207,121145,1,0,0:0:0:0:
205,100,121406,6,0,P|178:100|163:108,3,35
84,185,121928,1,0,0:0:0:0:
117,179,122058,1,0,0:0:0:0:
148,195,122189,1,0,0:0:0:0:
163,226,122319,1,0,0:0:0:0:
157,259,122450,6,0,P|166:268|216:278,3,35
296,216,122971,1,0,0:0:0:0:
323,194,123102,1,0,0:0:0:0:
357,186,123232,1,0,0:0:0:0:
391,194,123363,1,0,0:0:0:0:
347,234,123493,6,0,B|331:210|331:210|340:162|340:162|313:111,1,105
292,35,124015,6,0,P|245:61|171:57,1,112
86,113,124406,1,0,0:0:0:0:
180,168,124537,2,0,P|186:204|160:259,1,56
107,312,124798,2,0,L|187:328,1,56
258,260,125058,2,0,P|287:236|385:272,1,112
416,323,125450,1,0,0:0:0:0:
319,305,125580,1,0,0:0:0:0:
470,176,125841,1,0,0:0:0:0:
316,51,126102,6,0,B|294:45|294:45|207:94|207:94|142:81|91:125,1,224
109,270,126754,1,0,0:0:0:0:
146,182,126885,2,0,P|178:168|220:206,1,56
270,248,127145,2,0,P|342:256|373:199,1,112
451,106,127537,1,0,0:0:0:0:
450,121,127602,1,0,0:0:0:0:
449,137,127667,2,0,L|329:114,1,112
171,56,128189,6,0,P|204:132|141:192,1,168
79,123,128711,1,0,0:0:0:0:
40,213,128841,1,0,0:0:0:0:
85,300,128971,1,0,0:0:0:0:
182,306,129102,1,0,0:0:0:0:
248,234,129232,6,0,P|301:207|381:228,1,112
413,272,129624,1,0,0:0:0:0:
355,334,129754,2,0,L|282:330,1,56
119,307,130015,5,0,0:0:0:0:
262,260,130145,1,0,0:0:0:0:
193,325,130276,2,0,P|191:285|175:263,1,56
109,207,130537,2,0,P|104:167|121:145,1,56
145,59,130798,1,0,0:0:0:0:
365,158,131058,1,0,0:0:0:0:
155,175,131319,2,0,P|162:166|217:159,1,56
277,223,131580,2,0,P|288:221|332:255,1,56
403,308,131841,6,0,L|416:252,5,37.3333333333333
424,229,132363,6,0,P|381:168|398:89,1,112
470,149,132754,1,0,0:0:0:0:
358,208,132885,2,0,L|269:199,1,56
246,120,133145,2,0,L|157:129,1,56
91,141,133406,6,0,P|67:190|132:279,1,168
209,230,133928,1,0,0:0:0:0:
412,322,134189,1,0,0:0:0:0:
269,307,134450,6,0,P|298:261|282:179,1,112
222,147,134841,1,0,0:0:0:0:
152,205,134971,1,0,0:0:0:0:
392,232,135232,1,0,0:0:0:0:
279,84,135493,2,0,P|215:62|136:152,1,168
93,214,136015,2,0,P|107:228|116:272,1,56
196,334,136276,2,0,P|202:306|220:285,1,56
315,239,136537,6,0,P|380:267|418:192,1,168
336,128,137058,2,0,P|298:129|266:95,1,56
209,43,137319,2,0,P|171:42|139:76,1,56
76,122,137580,6,0,B|69:165|69:165|92:194|92:194|77:228|77:228|122:299,1,168
188,339,138102,2,0,P|228:299|320:307,1,112
450,338,138624,6,0,B|424:285|424:285|444:192|444:192|344:187|342:113|342:113|285:161|237:114|237:114|231:64|231:64|285:62|285:62|322:27|370:26|406:50|420:89|417:115,1,672
341,249,140711,6,0,P|291:228|193:260,1,112
87,316,141102,1,0,0:0:0:0:
176,323,141232,2,0,L|147:202,1,112
182,57,141624,1,0,0:0:0:0:
122,118,141754,6,0,P|151:136|216:130,1,56
314,58,142015,2,0,P|286:64|263:80,1,56
112,132,142276,2,0,P|141:150|206:144,1,56
310,46,142537,2,0,P|282:52|259:68,1,56
278,193,142798,6,0,P|304:231|288:314,1,112
202,354,143189,1,0,0:0:0:0:
228,256,143319,2,0,L|334:233,1,56
367,157,143580,2,0,L|261:134,1,56
203,91,143841,6,0,P|190:59|203:21,1,56
181,165,144102,2,0,P|149:151|131:115,1,56
302,197,144363,2,0,P|315:165|302:127,1,56
324,271,144624,2,0,P|355:257|373:221,1,56
203,262,144885,6,0,P|146:275|97:322,1,112
189,350,145276,1,0,0:0:0:0:
128,233,145406,2,0,P|123:201|141:169,1,56
200,68,145667,1,0,0:0:0:0:
200,68,145798,1,0,0:0:0:0:
200,68,145928,2,0,L|267:75,1,56
343,174,146189,2,0,L|287:168,1,56
173,240,146450,2,0,L|240:247,1,56
316,346,146711,2,0,L|260:340,1,56
112,297,146971,6,0,P|88:245|161:158,1,168
253,136,147493,1,0,0:0:0:0:
420,303,147754,1,0,0:0:0:0:
313,279,147885,1,0,0:0:0:0:
385,197,148015,2,0,P|397:166|386:116,1,56
253,136,148276,2,0,P|232:110|183:94,1,56
131,218,148537,6,0,P|98:223|74:247,1,55.9965002187363
58,322,149058,5,0,0:0:0:0:
297,236,149580,2,0,P|271:169|324:122,1,112
365,110,149971,1,0,0:0:0:0:
447,132,150102,2,0,P|421:175|346:190,1,112
224,71,150624,2,0,P|173:72|123:129,1,112
59,253,151145,6,0,B|99:235|137:255|137:255|181:285|233:251,1,168
342,165,151667,2,0,P|303:137|257:178,1,112
376,243,152058,1,0,0:0:0:0:
391,97,152189,2,0,P|342:65|252:66,1,112
126,131,152711,2,0,P|102:92|142:129,1,168
84,207,153232,6,0,B|94:239|94:239|239:264,1,168
319,199,153754,2,0,L|188:176,1,112
226,261,154145,1,0,0:0:0:0:
253,108,154276,2,0,L|145:91,1,56
362,156,154537,2,0,L|379:48,1,56
234,205,154798,2,0,L|217:313,1,56
343,253,155058,2,0,L|451:270,1,56
472,172,155319,6,0,L|342:153,1,112
254,332,155841,2,0,P|300:279|275:204,1,112
228,69,156363,1,0,0:0:0:0:
225,260,156624,1,0,0:0:0:0:
305,112,156885,2,0,P|256:154|153:112,1,168
81,75,157406,6,0,L|99:267,1,168
178,313,157928,2,0,L|196:121,1,168
262,62,158450,2,0,L|435:84,1,168
480,181,158971,2,0,L|307:203,1,168
258,305,159493,6,0,P|228:271|90:295,1,168
171,357,160015,2,0,L|213:164,1,168
156,101,160537,2,0,P|199:50|301:88,1,168
347,157,161058,2,0,P|368:183|421:186,1,56
469,256,161319,2,0,P|443:267|427:289,1,56
338,347,161580,6,0,B|304:323|258:334|258:334|196:339|155:283,1,168
87,262,162102,2,0,P|153:192|100:124,1,168
90,40,162624,2,0,B|124:64|170:53|170:53|232:48|273:104,1,168
341,125,163145,2,0,P|275:195|328:263,1,168
400,219,163667,6,0,L|231:163,1,168
146,122,164189,2,0,P|140:64|231:109,1,168
240,166,164711,2,0,L|214:257,1,56
130,263,164971,2,0,L|145:209,1,56
332,122,165232,6,0,L|314:190,1,55.9965002187363
272,302,165754,6,0,P|337:260|423:288,1,140
351,346,166145,1,0,0:0:0:0:
244,214,166276,2,0,B|213:205|213:205|81:252,1,140
192,309,166667,1,0,0:0:0:0:
177,139,166798,2,0,L|99:167,1,70
244,214,167058,2,0,L|309:190,1,70
172,125,167319,2,0,L|94:153,1,70
251,230,167580,2,0,L|316:206,1,70
450,140,167841,6,0,P|409:89|411:177,1,210
438,314,168363,2,0,P|456:264|444:235,1,70
316,206,168624,2,0,P|281:165|250:161,1,70
144,233,168885,1,0,0:0:0:0:
346,295,169145,1,0,0:0:0:0:
316,206,169276,1,0,0:0:0:0:
344,117,169406,2,0,P|281:75|192:115,1,140
81,164,169928,5,0,0:0:0:0:
81,164,170058,2,0,B|105:145|119:177|119:177|68:195|71:266,1,140
161,333,170450,2,0,P|194:294|327:315,1,140
380,335,170841,1,0,0:0:0:0:
234,340,170971,2,0,P|208:308|212:255,1,70
156,127,171232,2,0,P|115:134|84:177,1,70
309,232,171493,2,0,P|349:224|380:181,1,70
260,78,171754,2,0,P|253:44|230:18,1,70
233,155,172015,6,0,P|288:155|308:144,1,66.4965007894024
147,130,172537,2,0,P|147:185|158:205,1,66.4965007894024
171,51,173058,2,0,P|116:51|96:62,1,66.4965007894024
44,148,173580,5,0,0:0:0:0:
189,216,173711,1,0,0:0:0:0:
43,253,173841,1,0,0:0:0:0:
143,122,173971,1,0,0:0:0:0:
126,281,174102,6,0,P|145:312|294:261,1,210
261,153,174624,2,0,P|296:95|365:164,1,140
346,227,175015,1,0,0:0:0:0:
187,172,175145,2,0,P|184:145|201:84,1,70
346,227,175406,2,0,P|370:237|415:283,1,70
208,322,175667,1,0,0:0:0:0:
208,322,175798,1,0,0:0:0:0:
208,322,175928,2,0,P|174:349|121:351,1,70
47,284,176189,5,0,0:0:0:0:
98,179,176319,1,0,0:0:0:0:
212,199,176450,1,0,0:0:0:0:
171,92,176580,1,0,0:0:0:0:
145,255,176711,2,0,P|166:273|285:244,1,140
359,175,177102,1,0,0:0:0:0:
359,175,177232,2,0,P|378:213|353:222,1,70
274,136,177493,2,0,P|282:123|372:77,1,70
283,220,177754,2,0,P|267:219|182:164,1,70
132,312,178015,2,0,P|163:297|198:293,1,70
52,356,178276,6,0,P|41:306|111:164,1,210
221,89,178798,2,0,B|246:109|246:109|404:74,1,140
263,22,179189,1,0,0:0:0:0:
243,186,179319,2,0,L|391:152,1,140
466,225,179711,1,0,0:0:0:0:
354,263,179841,1,0,0:0:0:0:
379,154,179971,1,0,0:0:0:0:
426,294,180102,2,0,P|376:340|337:340,1,70
264,279,180363,6,0,B|223:247|180:268|180:268|91:296|42:238,1,210
150,101,180885,2,0,P|164:188|79:165,1,210
58,75,181406,2,0,P|91:34|140:32,1,70
250,99,181667,2,0,P|283:140|332:142,1,70
443,79,181928,2,0,B|411:67|410:104|410:104|483:181|411:243|411:243|356:202|391:167,1,280
