osu file format v14

[General]
AudioFilename: audio.mp3
AudioLeadIn: 0
PreviewTime: -1
Countdown: 0
SampleSet: Soft
StackLeniency: 0.7
Mode: 2
LetterboxInBreaks: 0
WidescreenStoryboard: 0

[Editor]
Bookmarks: 206652
DistanceSpacing: 3
BeatDivisor: 4
GridSize: 32
TimelineZoom: 2.2

[Metadata]
Title:WARNING x WARNING x WARNING
TitleUnicode:WARNING×WARNING×WARNING
Artist:Akatsuki Records
ArtistUnicode:暁Records
Creator:Aryssiel
Version:Asylum
Source:東方紺珠伝 ~ Legacy of Lunatic Kingdom.
Tags:星条旗のピエロ 遥か38万キロのボヤージュ 様 原之様 Stack Faraway 380,000-Kilometer Voyage The Pierrot of the Star-Spangled Banner Zun C89 ACTRock Touhou Silve 東方Project
BeatmapID:1846119
BeatmapSetID:883069

[Difficulty]
HPDrainRate:6
CircleSize:4
OverallDifficulty:9
ApproachRate:9
SliderMultiplier:2.2
SliderTickRate:1

[Events]
//Background and Video events
0,0,"warningx.jpg",0,0
Video,0,"VID.avi"
//Break Periods
//Storyboard Layer 0 (Background)
//Storyboard Layer 1 (Fail)
//Storyboard Layer 2 (Pass)
//Storyboard Layer 3 (Foreground)
//Storyboard Sound Samples

[TimingPoints]
4327,348.837209302326,4,2,0,60,1,0
15489,-86.9565217391304,4,2,0,50,0,0
18105,-200,4,2,0,50,0,0
20372,-86.9565217391304,4,2,0,50,0,0
20721,-200,4,2,0,50,0,0
20895,-86.9565217391304,4,2,0,50,0,0
22116,-200,4,2,0,50,0,0
22465,-76.9230769230769,4,2,0,50,0,0
22814,-86.9565217391304,4,2,0,50,0,0
23163,-200,4,2,0,50,0,0
23512,-100,4,2,0,50,0,0
28047,-200,4,2,0,60,0,0
28744,-133.333333333333,4,2,0,60,0,0
33628,-200,4,2,0,60,0,0
34326,-133.333333333333,4,2,0,60,0,0
38512,-66.6666666666667,4,2,0,70,0,0
39209,-100,4,2,0,60,0,0
49675,-200,4,2,0,60,0,0
50372,-200,4,2,0,50,0,0
55954,-133.333333333333,4,2,0,65,0,0
60837,-200,4,2,0,65,0,0
61186,-100,4,2,0,65,0,0
67117,-74.0740740740741,4,2,0,80,0,1
67466,-74.0740740740741,4,2,0,80,0,0
69733,-200,4,2,0,80,0,0
69900,-74.0740740740741,4,2,0,80,0,0
71302,-62.5,4,2,0,80,0,0
71651,-200,4,2,0,80,0,0
72000,-74.074074074074,4,2,0,80,0,0
74093,-62.5,4,2,0,80,0,0
74442,-74.0740740740741,4,2,0,80,0,0
74791,-200,4,2,0,80,0,0
75140,-74.074074074074,4,2,0,80,0,0
76884,-68.9655172413793,4,2,0,80,0,0
79675,-400,4,2,0,80,0,0
79980,-400,4,2,0,5,0,0
80023,-57.1428571428571,4,2,0,80,0,0
80329,-57.1428571428571,4,2,0,5,0,0
80372,-400,4,2,0,80,0,0
80677,-400,4,2,0,5,0,0
80720,-57.1428571428571,4,2,0,80,0,0
81026,-57.1428571428571,4,2,0,5,0,0
81070,-400,4,2,0,80,0,0
81375,-400,4,2,0,5,0,0
81418,-57.1428571428571,4,2,0,80,0,0
81724,-57.1428571428571,4,2,0,5,0,0
81768,-400,4,2,0,80,0,0
82073,-400,4,2,0,5,0,0
82116,-57.1428571428571,4,2,0,80,0,0
82422,-57.1428571428571,4,2,0,5,0,0
82465,-400,4,2,0,80,0,0
82770,-400,4,2,0,5,0,0
82813,-57.1428571428571,4,2,0,80,0,0
83119,-57.1428571428571,4,2,0,5,0,0
83163,-400,4,2,0,80,0,0
83468,-400,4,2,0,5,0,0
83511,-57.1428571428571,4,2,0,80,0,0
83817,-57.1428571428571,4,2,0,5,0,0
83861,-400,4,2,0,80,0,0
84166,-400,4,2,0,5,0,0
84209,-66.6666666666667,4,2,0,80,0,0
85256,-74.0740740740741,4,2,0,80,0,0
88047,-133.333333333333,4,2,0,80,0,0
90837,-133.333333333333,4,2,0,70,0,0
103395,-133.333333333333,4,2,0,60,0,0
113861,-200,4,2,0,70,0,0
114209,-66.6666666666667,4,2,0,70,0,0
114558,-100,4,2,0,70,0,0
115256,-100,4,2,0,60,0,0
125023,-200,4,2,0,60,0,0
125372,-100,4,2,0,60,0,0
125721,-200,4,2,0,50,0,0
136884,-100,4,2,0,65,0,0
142466,-74.0740740740741,4,2,0,80,0,1
142815,-74.0740740740741,4,2,0,80,0,0
144907,-200,4,2,0,80,0,0
145256,-74.0740740740741,4,2,0,80,0,0
145431,-44.4444444444445,4,2,0,80,0,0
145780,-74.0740740740741,4,2,0,80,0,0
145954,-44.4444444444445,4,2,0,80,0,0
146129,-74.0740740740741,4,2,0,80,0,0
146651,-133.333333333333,4,2,0,80,0,0
146826,-100,4,2,0,80,0,0
147000,-80,4,2,0,80,0,0
147175,-66.6666666666667,4,2,0,80,0,0
148047,-74.0740740740741,4,2,0,80,0,0
149442,-62.5,4,2,0,80,0,0
149791,-74.0740740740741,4,2,0,80,0,0
150489,-62.5,4,2,0,80,0,0
150837,-74.0740740740741,4,2,0,80,0,0
152233,-68.9655172413793,4,2,0,80,0,0
153628,-133.333333333333,4,2,0,80,0,0
155023,-200,4,2,0,80,0,0
155329,-200,4,2,0,5,0,0
155372,-62.5,4,2,0,80,0,0
155677,-62.5,4,2,0,5,0,0
155721,-200,4,2,0,80,0,0
156026,-200,4,2,0,5,0,0
156070,-62.5,4,2,0,80,0,0
156375,-62.5,4,2,0,5,0,0
156419,-200,4,2,0,80,0,0
156724,-200,4,2,0,5,0,0
156768,-62.5,4,2,0,80,0,0
157073,-62.5,4,2,0,5,0,0
157116,-200,4,2,0,80,0,0
157422,-200,4,2,0,5,0,0
157465,-62.5,4,2,0,80,0,0
157770,-62.5,4,2,0,5,0,0
157814,-200,4,2,0,80,0,0
158119,-200,4,2,0,5,0,0
158163,-62.5,4,2,0,80,0,0
158468,-62.5,4,2,0,5,0,0
158512,-200,4,2,0,80,0,0
158817,-200,4,2,0,5,0,0
158861,-62.5,4,2,0,80,0,0
159166,-62.5,4,2,0,5,0,0
159209,-200,4,2,0,80,0,0
159515,-200,4,2,0,5,0,0
159558,-62.5,4,2,0,80,0,0
159864,-62.5,4,2,0,5,0,0
159907,-62.5,4,2,0,80,0,0
160605,-74.0740740740741,4,2,0,80,0,0
165837,-117.647058823529,4,2,0,80,0,0
166186,-200,4,2,0,70,0,0
171768,-133.333333333333,4,2,0,75,0,0
172291,-133.333333333333,4,2,0,80,0,0
173163,-133.333333333333,4,2,0,85,0,0
174558,-133.333333333333,4,2,0,90,0,0
177349,-100,4,2,0,70,0,0
181535,-200,4,2,0,70,0,0
182930,-100,4,2,0,70,0,0
183977,-83.3333333333333,4,2,0,70,0,0
184326,-66.6666666666667,4,2,0,70,0,0
184675,-100,4,2,0,70,0,0
185023,-200,4,2,0,70,0,0
185721,-100,4,2,0,70,0,0
187116,-200,4,2,0,70,0,0
189907,-400,4,2,0,60,0,0
190954,-133.333333333333,4,2,0,60,0,0
191302,-400,4,2,0,60,0,0
192698,-100,4,2,0,60,0,0
193395,-400,4,2,0,60,0,0
194791,-100,4,2,0,60,0,0
195140,-133.333333333333,4,2,0,60,0,0
195489,-100,4,2,0,60,0,0
196535,-133.333333333333,4,2,0,60,0,0
196884,-400,4,2,0,60,0,0
198279,-100,4,2,0,60,0,0
203861,-133.333333333333,4,2,0,60,0,0
204558,-74.0740740740741,4,2,0,60,0,0
206652,-74.0740740740741,4,2,0,80,0,1
207001,-74.0740740740741,4,2,0,80,0,0
209268,-200,4,2,0,80,0,0
209442,-74.074074074074,4,2,0,80,0,0
210837,-62.5,4,2,0,80,0,0
211535,-74.074074074074,4,2,0,80,0,0
213628,-62.5,4,2,0,80,0,0
213977,-74.074074074074,4,2,0,80,0,0
214326,-200,4,2,0,80,0,0
214675,-74.074074074074,4,2,0,80,0,0
216419,-62.5,4,2,0,80,0,0
217814,-200,4,2,0,80,0,0
219210,-66.6666666666667,4,2,0,90,0,1
221651,-200,4,2,0,90,0,1
222000,-66.6666666666667,4,2,0,90,0,1
223395,-50,4,2,0,90,0,1
223744,-57.1428571428571,4,2,0,90,0,1
224093,-66.6666666666667,4,2,0,90,0,1
224442,-50,4,2,0,90,0,1
224791,-66.6666666666667,4,2,0,90,0,1
226535,-100,4,2,0,90,0,1
226884,-50,4,2,0,90,0,1
227582,-66.6666666666667,4,2,0,90,0,1
228977,-57.1428571428571,4,2,0,90,0,1
230373,-133.333333333333,4,2,0,90,0,0
231768,-200,4,2,0,90,0,1
232073,-200,4,2,0,5,0,1
232116,-66.6666666666667,4,2,0,90,0,1
232422,-66.6666666666667,4,2,0,5,0,1
232465,-200,4,2,0,90,0,1
232770,-200,4,2,0,5,0,1
232814,-66.6666666666667,4,2,0,90,0,1
233119,-66.6666666666667,4,2,0,5,0,1
233163,-200,4,2,0,90,0,1
233468,-200,4,2,0,5,0,1
233512,-66.6666666666667,4,2,0,90,0,1
233817,-66.6666666666667,4,2,0,5,0,1
233861,-200,4,2,0,90,0,1
234166,-200,4,2,0,5,0,1
234209,-66.6666666666667,4,2,0,90,0,1
234515,-66.6666666666667,4,2,0,5,0,1
234558,-200,4,2,0,90,0,1
234864,-200,4,2,0,5,0,1
234907,-66.6666666666667,4,2,0,90,0,1
235212,-66.6666666666667,4,2,0,90,0,1
235256,-200,4,2,0,90,0,1
235561,-200,4,2,0,90,0,1
235605,-66.6666666666667,4,2,0,90,0,1
235910,-66.6666666666667,4,2,0,90,0,1
235954,-200,4,2,0,90,0,1
236259,-200,4,2,0,90,0,1
236302,-66.6666666666667,4,2,0,90,0,1
236608,-66.6666666666667,4,2,0,90,0,1
236652,-66.6666666666667,4,2,0,90,0,0
237350,-74.074074074074,4,2,0,90,0,1
240140,-74.074074074074,4,2,0,90,0,0
242931,-64.5161290322581,4,2,0,90,0,1
247117,-33.3333333333333,4,2,0,90,0,1
247814,-200,4,2,0,90,0,1
248164,-33.3333333333333,4,2,0,90,0,1
248513,-100,4,2,0,75,0,0
251652,-66.6666666666667,4,2,0,75,0,0
251827,-50,4,2,0,75,0,0
252175,-100,4,2,0,75,0,0
253047,-66.6666666666667,4,2,0,75,0,0
253222,-50,4,2,0,75,0,0
253571,-100,4,2,0,75,0,0
263861,-133.333333333333,4,2,0,75,0,0
265256,-100,4,2,0,75,0,0
267698,-100,4,2,0,85,0,0

[Colours]
Combo1 : 159,12,4
Combo2 : 140,30,103
Combo3 : 1,82,148

[HitObjects]
64,128,15489,6,0,L|224:128,1,126.500002412796,4|0,0:1|0:0,0:0:0:0:
64,224,15838,2,0,L|224:224,1,126.500002412796,4|2,1:3|0:0,0:0:0:0:
448,224,16187,2,0,B|320:224|320:224|448:224,1,253.000004825592,4|4,0:3|1:3,0:0:0:0:
0,224,16885,6,0,B|256:224|256:224|0:224,1,506.000009651184,4|4,0:3|0:3,0:0:0:0:
256,224,17931,6,0,L|384:224,1,126.500002412796,4|2,1:3|0:0,0:0:0:0:
128,224,18280,2,0,L|160:192,1,27.5,4|0,3:3|0:0,0:0:0:0:
320,192,18454,2,0,L|384:192,1,55,2|4,0:0|3:3,0:0:0:0:
96,192,18803,6,0,L|128:160,1,27.5,2|0,0:0|0:0,0:0:0:0:
352,160,18978,2,0,L|416:160,1,55,4|2,3:3|0:0,0:0:0:0:
64,160,19327,2,0,L|0:160,1,55,4|2,1:3|0:0,0:0:0:0:
320,160,19675,6,0,L|448:160,1,110,4|4,3:3|1:3,0:0:0:0:
192,160,20373,5,4,0:3:0:0:
128,192,20460,1,0,0:0:0:0:
160,224,20547,1,0,0:0:0:0:
96,256,20634,1,0,0:0:0:0:
320,320,20721,1,4,1:3:0:0:
384,320,20809,1,0,0:0:0:0:
352,288,20896,6,0,L|416:288,1,63.250001206398,0|0,0:0|0:0,0:0:0:0:
128,224,21071,6,0,L|0:224,1,126.500002412796,4|0,3:3|0:0,0:0:0:0:
256,192,21420,2,0,L|384:192,1,126.500002412796,4|0,1:3|0:0,0:0:0:0:
64,160,21768,2,0,B|192:160|192:160|64:160,1,253.000004825592,4|4,0:3|1:3,0:0:0:0:
512,160,22466,6,0,B|224:160|224:160|512:160,1,571.999973815919,4|4,0:3|0:3,0:0:0:0:
256,160,23513,6,0,L|128:320,1,165,4|0,1:3|0:0,0:0:0:0:
416,288,23861,6,0,L|288:288,2,110,4|0|4,0:3|0:0|1:3,0:0:0:0:
96,256,24559,6,0,L|224:256,2,110,4|4|0,3:0|3:0|1:0,0:0:0:0:
512,192,25257,2,0,B|160:192|160:192|352:192|352:192|0:192|0:192,1,880,2|2,1:0|1:0,0:0:0:0:
416,192,26827,5,2,0:0:0:0:
96,192,27175,1,0,1:0:0:0:
320,192,27524,1,2,0:0:0:0:
416,192,27699,1,2,0:0:0:0:
512,192,27873,1,2,0:0:0:0:
128,192,28047,6,0,L|128:64,1,110,2|0,1:0|1:0,0:0:0:0:
480,192,28745,5,4,3:0:0:0:
288,192,28919,1,0,0:0:0:0:
384,192,29094,1,0,1:0:0:0:
288,192,29268,1,0,0:0:0:0:
480,128,29443,1,4,0:3:0:0:
384,128,29617,1,0,0:0:0:0:
288,128,29792,1,0,1:0:0:0:
480,128,29966,1,0,0:0:0:0:
224,128,30140,1,4,0:3:0:0:
480,128,30489,1,0,1:0:0:0:
32,128,30838,5,4,1:3:0:0:
288,128,31187,1,0,1:0:0:0:
160,128,31361,1,2,0:0:0:0:
416,128,31536,1,4,0:3:0:0:
512,128,31710,1,0,0:0:0:0:
448,160,31885,1,0,1:0:0:0:
352,160,32059,1,0,0:0:0:0:
192,160,32233,5,4,3:0:0:0:
96,160,32407,1,0,0:0:0:0:
416,224,32582,1,0,1:0:0:0:
320,224,32756,1,0,0:0:0:0:
32,224,32931,1,4,1:3:0:0:
320,224,33280,1,0,1:0:0:0:
0,224,33629,6,0,L|0:96,1,110,6|0,1:0|1:0,0:0:0:0:
256,128,34327,6,0,B|256:320,1,165.000006294251,4|0,3:0|1:0,0:0:0:0:
352,128,34850,1,0,0:0:0:0:
480,128,35024,1,4,3:0:0:0:
384,128,35199,1,0,0:0:0:0:
256,128,35373,1,0,1:0:0:0:
160,128,35547,1,0,0:0:0:0:
416,128,35722,1,4,3:0:0:0:
320,128,35896,1,0,0:0:0:0:
64,128,36071,1,0,1:0:0:0:
480,128,36420,5,4,3:0:0:0:
160,128,36768,1,0,1:0:0:0:
384,128,37117,1,4,3:0:0:0:
480,128,37292,1,0,0:0:0:0:
320,128,37466,1,0,1:0:0:0:
224,128,37640,1,0,0:0:0:0:
448,128,37815,5,4,0:3:0:0:
416,96,37989,1,0,0:0:0:0:
128,128,38164,1,0,1:0:0:0:
96,96,38338,1,0,0:0:0:0:
416,96,38513,6,0,L|64:96,2,330.000012588501,12|4|6,1:3|1:0|1:0,0:0:0:0:
96,96,39559,1,0,1:0:0:0:
416,96,39908,5,4,3:0:0:0:
512,96,40082,1,0,0:0:0:0:
352,128,40257,1,0,1:0:0:0:
448,128,40431,1,0,0:0:0:0:
192,128,40606,5,4,3:0:0:0:
96,128,40780,1,0,0:0:0:0:
256,128,40954,1,0,1:0:0:0:
352,128,41129,1,0,0:0:0:0:
448,128,41303,5,4,3:3:0:0:
32,128,41652,1,0,1:0:0:0:
64,128,42001,5,4,3:0:0:0:
480,128,42350,1,0,1:0:0:0:
256,128,42699,5,4,3:0:0:0:
352,128,42873,1,0,0:0:0:0:
256,192,43047,1,0,1:0:0:0:
160,192,43222,1,0,0:0:0:0:
416,192,43396,5,4,3:3:0:0:
416,128,43571,1,0,0:0:0:0:
96,192,43745,1,0,1:0:0:0:
192,192,43920,1,0,0:0:0:0:
512,192,44094,5,4,3:3:0:0:
96,192,44443,1,0,1:0:0:0:
64,192,44792,1,4,3:0:0:0:
480,192,45141,1,0,1:0:0:0:
256,192,45489,5,4,3:0:0:0:
256,128,45664,1,0,0:0:0:0:
96,128,45838,1,0,1:0:0:0:
192,128,46013,1,0,0:0:0:0:
96,128,46187,5,4,3:3:0:0:
416,128,46361,1,0,0:0:0:0:
320,128,46536,1,0,1:0:0:0:
224,128,46710,1,0,0:0:0:0:
480,128,46885,1,4,3:3:0:0:
32,128,47233,1,0,1:0:0:0:
256,128,47582,6,0,L|480:128,1,220,4|0,3:0|1:0,0:0:0:0:
128,224,48106,2,0,L|348:224,2,220,0|0|0,0:0|0:0|0:0,0:0:0:0:
224,224,48978,1,4,3:3:0:0:
320,224,49152,1,0,0:0:0:0:
128,224,49327,1,0,1:0:0:0:
416,224,49501,1,0,0:0:0:0:
224,224,49675,6,0,L|334:224,1,110,4|0,3:3|1:0,0:0:0:0:
32,288,50373,6,0,P|192:192|64:32,1,440,2|2,1:0|1:0,0:0:0:0:
64,32,51768,2,0,B|160:32|224:32|224:32|256:96|256:96|288:32|288:32|352:32|448:32,1,440,2|6,1:0|1:0,0:0:0:0:
424,32,53164,6,0,P|297:180|459:287,1,440,6|2,1:0|1:0,0:0:0:0:
459,287,54559,2,0,B|352:288|320:288|320:288|256:224|256:224|192:288|192:288|160:288|64:288,1,440,2|4,1:0|1:0,0:0:0:0:
160,288,56129,1,2,0:0:0:0:
448,224,56303,1,2,0:0:0:0:
352,224,56478,1,2,0:0:0:0:
224,160,56652,5,2,0:0:0:0:
288,160,56827,1,4,0:3:0:0:
224,160,57001,1,2,0:0:0:0:
288,160,57175,1,4,0:3:0:0:
32,128,57350,5,4,1:0:0:0:
128,128,57525,1,2,0:0:0:0:
480,128,57699,1,2,0:0:0:0:
384,128,57874,1,2,0:0:0:0:
192,128,58047,5,2,0:0:0:0:
320,128,58222,1,4,0:3:0:0:
192,128,58396,1,2,0:0:0:0:
320,128,58570,1,4,0:3:0:0:
0,128,58745,5,4,1:0:0:0:
96,128,58920,1,2,0:0:0:0:
512,128,59094,1,2,0:0:0:0:
416,128,59269,1,2,0:0:0:0:
192,128,59443,5,2,0:0:0:0:
256,128,59618,1,4,0:3:0:0:
320,128,59792,1,2,0:0:0:0:
256,128,59966,1,4,0:3:0:0:
416,128,60140,5,4,1:0:0:0:
480,128,60315,1,2,0:0:0:0:
96,128,60489,1,2,0:0:0:0:
32,128,60664,1,2,0:0:0:0:
416,128,60838,6,0,L|352:128,1,55,4|0,0:3|0:0,0:0:0:0:
96,128,61187,2,0,L|224:128,1,110,4|0,1:3|3:0,0:0:0:0:
480,128,61536,5,4,0:3:0:0:
416,128,61710,1,0,0:0:0:0:
480,128,61885,1,0,1:0:0:0:
352,128,62059,1,0,0:0:0:0:
480,128,62233,5,4,3:0:0:0:
416,128,62407,1,0,0:0:0:0:
480,128,62582,1,0,1:0:0:0:
352,128,62756,1,0,3:0:0:0:
192,128,62931,6,0,L|64:128,1,110,4|0,0:3|3:0,0:0:0:0:
320,192,63280,2,0,L|448:192,1,110,2|0,1:2|3:0,0:0:0:0:
32,256,63629,2,0,L|160:256,1,110,4|0,0:3|3:0,0:0:0:0:
462,256,63978,2,0,L|352:256,1,110,2|0,1:2|0:0,0:0:0:0:
64,256,64327,6,0,P|224:256|128:256,1,220,4|2,1:0|1:2,0:0:0:0:
64,256,64850,1,0,0:0:0:0:
320,256,65024,2,0,P|480:256|384:256,1,220,4|2,0:3|1:2,0:0:0:0:
320,256,65547,1,0,0:0:0:0:
64,256,65722,6,0,L|0:256,1,55,4|0,0:3|3:0,0:0:0:0:
192,256,65896,2,0,L|256:256,1,55,0|0,3:0|3:0,0:0:0:0:
64,256,66071,2,0,L|0:224,1,55,4|0,3:0|3:0,0:0:0:0:
192,256,66245,2,0,L|256:288,1,55,0|0,3:0|3:0,0:0:0:0:
64,256,66420,2,0,L|64:192,1,55,4|0,3:0|0:0,0:0:0:0:
192,192,66594,2,0,L|192:128,1,55,4|0,3:0|0:0,0:0:0:0:
320,96,66768,2,0,L|448:96,1,110,2|2,0:0|0:0,0:0:0:0:
96,96,67117,6,0,L|256:96,1,148.500000566483,4|0,1:0|0:0,0:0:0:0:
64,160,67466,1,4,1:0:0:0:
256,160,67640,1,0,0:0:0:0:
480,160,67815,2,0,P|320:160|480:160,1,297.000001132965,4|0,3:3|1:3,0:0:0:0:
160,160,68513,2,0,B|448:160|448:160|128:160,1,594.00000226593,4|4,0:3|3:3,0:0:0:0:
448,160,69559,1,12,1:3:0:0:
384,160,69733,1,0,0:0:0:0:
223,160,69908,6,0,L|383:160,1,148.500000566483,12|2,0:3|0:0,0:0:0:0:
128,160,70257,1,0,1:0:0:0:
372,160,70431,2,0,L|224:160,1,148.500000566483,4|4,0:3|0:3,0:0:0:0:
64,160,70780,1,2,0:0:0:0:
448,160,70954,2,0,L|288:160,1,148.500000566483,0|2,1:0|0:0,0:0:0:0:
64,160,71303,6,0,L|416:160,1,352,2|12,1:0|1:3,0:0:0:0:
352,160,71827,1,0,0:0:0:0:
64,160,72001,2,0,L|224:160,1,148.500000566483,4|2,0:3|0:0,0:0:0:0:
480,224,72350,2,0,L|320:224,1,148.500000566483,4|2,0:3|0:0,0:0:0:0:
64,288,72699,6,0,L|64:128,1,148.500000566483,4|0,3:3|0:0,0:0:0:0:
448,96,73047,2,0,L|448:256,1,148.500000566483,4|0,1:3|0:0,0:0:0:0:
64,192,73396,1,4,3:3:0:0:
448,192,73745,1,8,1:3:0:0:
96,192,74094,2,0,B|352:192|352:192|160:192|160:192|448:192,1,704,2|12,1:0|3:3,0:0:0:0:
96,192,75140,5,12,1:3:0:0:
416,192,75315,1,0,0:0:0:0:
32,192,75489,5,4,0:3:0:0:
96,192,75664,1,0,0:0:0:0:
32,192,75838,1,4,1:3:0:0:
480,192,76187,5,4,3:3:0:0:
416,192,76362,1,0,0:0:0:0:
480,192,76536,1,4,1:3:0:0:
256,192,76885,12,4,78106,1:3:0:0:
64,192,78280,5,4,3:3:0:0:
448,192,78454,1,0,3:0:0:0:
112,192,78803,1,0,1:0:0:0:
448,192,79152,1,0,0:0:0:0:
256,192,79326,1,0,1:0:0:0:
64,192,79501,1,2,3:2:0:0:
352,192,79675,6,0,B|384:192|352:160|384:160,1,48.125,2|0,1:0|0:0,0:0:0:0:
208,192,80024,6,0,B|128:192|128:192|192:112|256:256|320:192|384:192,1,336.87500321269,0|0,1:0|0:0,0:0:0:0:
160,192,80373,6,0,B|128:192|160:160|128:160,1,48.125,2|0,1:0|0:0,0:0:0:0:
304,192,80722,6,0,B|384:192|384:192|320:112|256:256|192:192|128:192,1,336.87500321269,0|0,1:0|0:0,0:0:0:0:
368,192,81071,6,0,B|388:189|395:207|416:208,1,48.125,2|0,1:0|0:0,0:0:0:0:
144,192,81420,6,0,B|128:96|128:96|256:160|256:160|144:192,1,336.87500321269,0|0,1:0|0:0,0:0:0:0:
412,207,81768,6,0,B|395:207|388:189|368:192,1,48.125,2|0,1:0|0:0,0:0:0:0:
144,192,82117,6,0,B|256:112|256:112|128:112|128:112|144:192,1,336.87500321269,0|0,1:0|0:0,0:0:0:0:
368,192,82466,6,0,B|384:208|352:224|368:240,1,48.125,2|0,1:0|0:0,0:0:0:0:
176,192,82815,6,0,B|224:144|224:144|160:96|160:96|368:96,1,336.87500321269,0|0,1:0|0:0,0:0:0:0:
144,192,83164,6,0,B|128:208|160:224|144:240,1,48.125,2|0,1:0|0:0,0:0:0:0:
336,192,83513,6,0,B|288:144|288:144|352:96|352:96|144:96,1,336.87500321269,0|0,1:0|0:0,0:0:0:0:
416,192,83861,6,0,B|432:208|400:224|416:240,1,48.125,2|0,1:0|0:0,0:0:0:0:
96,192,84210,2,0,L|432:192,1,330.000012588501,0|2,1:0|1:0,0:0:0:0:
416,192,84733,1,2,0:0:0:0:
96,192,84908,1,0,1:0:0:0:
416,192,85082,1,2,0:0:0:0:
180,144,85257,6,0,L|32:144,1,148.500000566483,4|0,1:0|0:0,0:0:0:0:
480,240,85606,2,0,L|320:240,1,148.500000566483,0|0,1:0|0:0,0:0:0:0:
176,240,85954,1,4,0:3:0:0:
256,240,86129,1,0,0:0:0:0:
176,240,86303,1,0,1:1:0:0:
352,240,86478,1,0,0:0:0:0:
48,192,86652,6,0,L|208:192,1,148.500000566483,4|0,0:3|0:0,0:0:0:0:
464,192,87001,2,0,L|304:192,1,148.500000566483,0|0,1:1|0:0,0:0:0:0:
464,192,87350,1,4,0:3:0:0:
48,192,87699,1,0,1:1:0:0:
256,256,87873,2,0,L|256:176,1,74.2500002832413,0|0,3:0|3:0,0:0:0:0:
48,192,88047,2,0,L|240:192,1,165.000006294251,4|0,1:0|0:0,0:0:0:0:
48,192,88745,1,4,0:3:0:0:
464,192,89094,1,0,0:0:0:0:
144,192,89443,6,0,L|144:160,1,20.6250007867813,4|0,1:3|0:0,0:0:0:0:
368,192,89617,2,0,L|368:160,1,20.6250007867813,4|0,1:3|0:0,0:0:0:0:
48,192,89792,2,0,L|48:160,1,20.6250007867813,4|0,1:3|0:0,0:0:0:0:
464,192,90140,2,0,L|464:160,1,20.6250007867813,4|0,1:0|0:0,0:0:0:0:
176,192,90489,6,0,L|352:192,1,165.000006294251,12|4,1:3|1:1,0:0:0:0:
32,192,91013,5,0,0:0:0:0:
128,192,91187,1,0,0:0:0:0:
32,192,91361,1,0,0:0:0:0:
480,192,91536,2,0,P|384:192|480:192,1,165.000006294251,0|0,0:0|0:0,0:0:0:0:
256,192,92233,2,0,B|128:192|128:192|384:192|384:192|256:192,1,495.000018882752,0|0,0:0|0:0,0:0:0:0:
352,192,93454,1,0,0:0:0:0:
96,192,93629,6,0,L|32:192,1,41.2500015735627,0|0,0:0|0:0,0:0:0:0:
352,192,93803,2,0,L|256:192,1,82.5000031471254,0|0,0:0|0:0,0:0:0:0:
96,192,94152,2,0,L|160:192,1,41.2500015735627,0|0,0:0|0:0,0:0:0:0:
352,192,94327,2,0,L|448:192,1,82.5000031471254,0|0,0:0|0:0,0:0:0:0:
96,192,94675,2,0,L|96:128,1,41.2500015735627,0|0,0:0|0:0,0:0:0:0:
256,160,94850,2,0,L|256:96,1,41.2500015735627,0|0,0:0|0:0,0:0:0:0:
416,128,95024,6,0,B|256:64|256:64|416:0,1,330.000012588501,0|0,0:0|0:0,0:0:0:0:
96,64,95809,6,0,L|32:64,2,41.2500015735627,0|0|0,0:0|0:0|0:0,0:0:0:0:
256,96,96071,2,0,L|256:160,1,41.2500015735627,0|0,0:0|0:0,0:0:0:0:
416,128,96245,2,0,L|480:128,1,41.2500015735627,0|0,0:0|0:0,0:0:0:0:
96,160,96420,6,0,B|128:192|128:192|96:256,1,82.5000031471254,0|0,0:0|0:0,0:0:0:0:
416,160,96768,2,0,B|384:192|384:192|416:256,1,82.5000031471254,0|0,0:0|0:0,0:0:0:0:
96,224,97117,1,0,0:0:0:0:
416,224,97466,1,0,0:0:0:0:
96,224,97815,2,0,B|288:160|288:160|256:192|256:192|224:160|224:160|416:224|416:224,1,495.000018882752,0|0,0:0|0:0,0:0:0:0:
96,224,99036,1,0,0:0:0:0:
416,224,99210,5,0,0:0:0:0:
288,224,99385,1,0,0:0:0:0:
416,224,99559,1,0,0:0:0:0:
96,224,99908,5,0,0:0:0:0:
224,224,100083,1,0,0:0:0:0:
96,224,100257,1,0,0:0:0:0:
416,224,100606,6,0,B|192:288|192:288|320:160|320:160|64:224,1,660.000025177003,0|0,0:0|0:0,0:0:0:0:
416,224,102175,1,0,0:0:0:0:
96,224,102524,1,0,0:0:0:0:
416,224,102873,1,0,0:0:0:0:
256,224,103047,1,0,0:0:0:0:
96,224,103222,1,0,0:0:0:0:
512,304,103396,6,0,L|512:128,1,165.000006294251,2|0,1:0|1:0,0:0:0:0:
96,160,104094,5,4,3:0:0:0:
192,160,104268,1,0,0:0:0:0:
32,160,104443,1,0,1:0:0:0:
224,160,104617,1,0,0:0:0:0:
128,160,104792,5,4,0:3:0:0:
32,160,104966,1,0,0:0:0:0:
224,160,105140,1,0,1:0:0:0:
32,160,105315,1,0,0:0:0:0:
320,160,105489,5,4,0:3:0:0:
32,160,105838,1,0,1:0:0:0:
416,160,106187,5,4,1:3:0:0:
32,160,106536,1,0,1:0:0:0:
416,160,106885,5,4,0:3:0:0:
320,160,107059,1,0,0:0:0:0:
128,160,107233,1,0,1:0:0:0:
224,160,107408,1,0,0:0:0:0:
480,160,107582,5,4,3:0:0:0:
384,160,107757,1,0,0:0:0:0:
480,160,107931,1,0,1:0:0:0:
384,160,108106,1,0,0:0:0:0:
192,160,108280,5,4,1:3:0:0:
480,160,108629,1,0,1:0:0:0:
64,160,108978,5,6,1:0:0:0:
480,160,109327,1,0,1:0:0:0:
256,128,109675,2,0,L|256:320,1,165.000006294251,4|0,3:0|1:0,0:0:0:0:
384,288,110199,1,0,0:0:0:0:
128,288,110373,5,4,3:0:0:0:
32,288,110547,1,0,0:0:0:0:
192,224,110722,1,0,1:0:0:0:
96,224,110896,1,0,0:0:0:0:
416,224,111071,1,4,3:0:0:0:
320,224,111245,1,0,0:0:0:0:
416,160,111420,1,0,1:0:0:0:
512,160,111594,1,0,0:0:0:0:
256,160,111768,6,0,L|256:352,1,165.000006294251,4|0,3:0|1:0,0:0:0:0:
256,325,112292,1,0,0:0:0:0:
77,288,112466,2,0,L|160:288,1,82.5000031471254,4|0,3:0|0:0,0:0:0:0:
434,288,112815,2,0,L|352:288,1,82.5000031471254,0|0,1:0|0:0,0:0:0:0:
64,256,113164,6,0,B|32:192|32:192|32:128,1,123.750004720688,4|0,0:3|0:0,0:0:0:0:
128,128,113513,6,0,L|256:128,1,123.750004720688,0|0,1:0|0:0,0:0:0:0:
416,128,113861,6,0,L|334:128,1,82.5,12|0,1:3|0:0,0:0:0:0:
96,128,114210,6,0,L|352:128,1,247.500009441376,4|0,1:0|0:0,0:0:0:0:
96,128,114559,6,0,L|96:256,1,110,6|4,1:0|0:3,0:0:0:0:
416,128,114908,1,0,1:0:0:0:
96,128,115257,6,0,L|320:128,1,220,4|0,3:0|1:0,0:0:0:0:
192,128,115780,1,0,0:0:0:0:
480,128,115954,2,0,L|352:128,1,110,4|0,3:0|0:0,0:0:0:0:
96,128,116303,2,0,L|32:224,1,110,0|0,1:0|0:0,0:0:0:0:
352,224,116652,1,4,3:3:0:0:
32,224,117001,1,0,1:0:0:0:
64,224,117350,5,4,3:0:0:0:
480,224,117699,1,0,1:0:0:0:
256,224,118047,2,0,L|146:224,1,110,4|0,3:0|0:0,0:0:0:0:
256,128,118396,2,0,L|366:128,1,110,0|0,1:0|0:0,0:0:0:0:
61,177,118745,2,0,L|160:128,1,110,4|0,3:3|0:0,0:0:0:0:
450,206,119094,2,0,L|352:256,1,110,0|0,1:0|0:0,0:0:0:0:
96,192,119443,6,0,B|96:128|224:96|288:96,1,220,4|0,3:3|1:0,0:0:0:0:
384,96,119966,1,0,3:0:0:0:
96,96,120140,1,4,3:0:0:0:
384,96,120489,1,0,1:0:0:0:
96,96,120838,6,0,L|224:96,1,110,4|0,3:0|0:0,0:0:0:0:
96,192,121187,2,0,L|32:288,1,110,0|0,1:0|0:0,0:0:0:0:
384,288,121536,1,4,3:3:0:0:
288,288,121710,1,0,0:0:0:0:
480,288,121885,1,0,1:0:0:0:
128,288,122059,1,0,0:0:0:0:
32,288,122233,1,4,3:3:0:0:
384,288,122582,1,0,1:0:0:0:
64,192,122931,6,0,B|192:192|192:192|96:192,1,220,4|0,3:0|1:0,0:0:0:0:
448,192,123454,2,0,B|320:192|320:192|416:192,1,220,0|0,0:0|0:0,0:0:0:0:
256,192,124152,1,0,0:0:0:0:
128,128,124327,2,0,L|32:192,1,110,4|0,3:3|0:0,0:0:0:0:
384,256,124675,2,0,L|480:192,1,110,0|0,1:0|0:0,0:0:0:0:
32,192,125024,1,4,3:3:0:0:
475,194,125373,1,0,1:0:0:0:
64,224,125722,6,0,B|192:160|192:160|128:64|64:160|64:160|192:224,1,440,2|2,1:0|1:0,0:0:0:0:
180,218,127117,2,0,B|320:288|320:288|192:288|192:288|332:218,1,440,2|6,1:0|1:0,0:0:0:0:
331,218,128513,6,0,B|448:160|448:160|384:64|320:160|320:160|160:160,1,440,6|2,1:0|1:0,0:0:0:0:
176,160,129908,2,0,B|316:90|316:90|188:90|188:90|327:159,1,440,2|4,1:0|1:0,0:0:0:0:
416,160,131478,1,2,0:0:0:0:
96,160,131652,1,2,0:0:0:0:
192,160,131827,1,2,0:0:0:0:
384,224,132001,5,2,0:0:0:0:
192,224,132175,1,4,0:3:0:0:
320,224,132350,1,2,0:0:0:0:
128,224,132524,1,4,0:3:0:0:
448,224,132699,5,4,1:0:0:0:
352,224,132873,1,2,0:0:0:0:
64,224,133047,1,2,0:0:0:0:
160,224,133221,1,2,0:0:0:0:
416,224,133396,5,2,0:0:0:0:
128,224,133570,1,4,0:3:0:0:
384,224,133745,1,2,0:0:0:0:
96,224,133919,1,4,0:3:0:0:
480,224,134094,5,4,1:0:0:0:
384,224,134268,1,2,0:0:0:0:
32,224,134443,1,2,0:0:0:0:
128,224,134617,1,2,0:0:0:0:
384,224,134792,1,2,0:0:0:0:
480,224,134966,1,4,0:3:0:0:
128,224,135140,1,2,0:0:0:0:
32,224,135314,1,4,0:3:0:0:
480,224,135489,5,4,1:0:0:0:
128,224,135664,1,2,0:0:0:0:
384,224,135838,1,2,0:0:0:0:
32,224,136013,1,2,0:0:0:0:
384,224,136187,1,4,0:3:0:0:
128,224,136361,1,0,0:0:0:0:
480,224,136536,1,4,1:3:0:0:
32,224,136710,1,0,3:0:0:0:
384,224,136885,6,0,L|384:96,1,110,4|0,3:3|0:0,0:0:0:0:
320,64,137233,2,0,L|448:64,1,110,0|2,1:0|0:0,0:0:0:0:
128,160,137582,2,0,L|128:288,1,110,4|0,3:0|0:0,0:0:0:0:
192,320,137930,2,0,L|64:320,1,110,0|0,1:0|3:0,0:0:0:0:
480,320,138280,2,0,L|480:192,1,110,4|0,0:3|3:0,0:0:0:0:
128,224,138629,2,0,L|128:96,1,110,2|0,1:2|0:0,0:0:0:0:
384,114,138978,2,0,L|384:224,1,110,4|0,0:3|3:0,0:0:0:0:
32,210,139327,2,0,L|32:320,1,110,2|0,1:2|3:0,0:0:0:0:
448,256,139675,6,0,B|224:256|224:256|288:224|288:224|160:192|160:192|352:160|352:160|96:160,1,825,4|0,1:0|0:0,0:0:0:0:
96,160,141071,2,0,P|192:160|96:160,1,165,4|0,0:3|0:0,0:0:0:0:
416,224,141420,2,0,P|320:224|416:224,1,165,4|4,3:0|3:0,0:0:0:0:
96,288,141768,2,0,P|128:192|64:128,1,165,4|0,3:0|3:0,0:0:0:0:
416,96,142117,1,4,1:3:0:0:
480,96,142204,1,0,3:0:0:0:
288,96,142291,1,2,0:0:0:0:
224,96,142378,1,0,3:0:0:0:
480,160,142466,6,0,L|288:160,1,148.500000566483,4|0,1:0|0:0,0:0:0:0:
480,160,142815,1,0,1:3:0:0:
320,160,142989,1,0,0:0:0:0:
160,160,143164,2,0,L|384:160,1,222.750000849724,4|0,3:3|0:0,0:0:0:0:
4,281,143513,2,0,L|128:96,1,222.750000849724,8|0,1:3|0:0,0:0:0:0:
416,224,143861,2,0,B|288:160|288:160|416:128|416:128|96:128,1,594.00000226593,4|4,3:3|3:3,0:0:0:0:
416,160,144908,6,0,L|480:160,1,55,12|0,1:3|0:0,0:0:0:0:
160,160,145257,2,0,L|85:160,1,74.2500002832413,12|0,0:3|0:0,0:0:0:0:
416,96,145431,2,0,L|128:96,1,247.500009441376,2|0,0:0|1:0,0:0:0:0:
352,160,145780,2,0,L|448:160,1,74.2500002832413,4|0,0:3|0:0,0:0:0:0:
96,96,145954,2,0,L|384:96,1,247.500009441376,4|2,0:3|0:0,0:0:0:0:
128,160,146303,1,0,1:0:0:0:
288,160,146477,1,2,0:0:0:0:
0,160,146652,2,0,L|96:160,1,82.5000031471254,2|0,1:0|0:0,0:0:0:0:
448,224,147001,2,0,L|288:224,1,137.5,0|2,1:0|3:0,0:0:0:0:
96,224,147350,6,0,L|0:224,1,82.5000031471254,4|0,0:3|0:0,0:0:0:0:
192,192,147524,6,0,L|104:151,1,82.5000031471254,2|0,3:3|0:0,0:0:0:0:
288,160,147699,6,0,L|226:86,1,82.5000031471254,4|0,1:3|0:3,0:3:0:0:
384,128,147873,6,0,L|350:4,1,82.5000031471254,0|2,2:3|0:0,2:3:0:0:
64,96,148047,6,0,L|192:192,1,148.500000566483,4|0,3:3|0:0,0:0:0:0:
480,160,148396,1,4,1:3:0:0:
352,224,148570,1,0,0:0:0:0:
480,288,148745,1,4,3:3:0:0:
96,320,149094,1,8,1:3:0:0:
480,320,149443,6,0,B|480:192|480:192|256:192,1,352,2|4,1:0|1:3,0:0:0:0:
256,192,149792,6,0,B|256:64|256:64|480:64,1,297.000001132965,4|12,1:3|3:3,0:0:0:0:
425,64,150140,6,0,L|256:64,2,148.500000566483,12|0|12,3:3|0:0|1:3,0:0:0:0:
87,64,150664,1,0,0:0:0:0:
448,64,150838,5,4,0:3:0:0:
192,64,151013,1,0,0:0:0:0:
320,64,151187,1,4,1:3:0:0:
64,64,151536,5,4,3:3:0:0:
320,64,151711,1,2,0:0:0:0:
192,64,151885,1,4,1:3:0:0:
256,192,152233,12,4,153454,1:3:0:0:
160,160,153629,5,4,3:3:0:0:
480,160,153803,1,0,3:0:0:0:
32,160,154152,1,0,1:0:0:0:
357,105,154501,1,2,0:0:0:0:
398,101,154588,1,0,3:0:0:0:
435,116,154675,1,0,1:0:0:0:
463,147,154762,1,0,0:0:0:0:
472,186,154849,1,2,3:2:0:0:
463,225,154937,1,2,0:0:0:0:
160,192,155024,6,0,L|64:192,1,96.25,2|0,1:0|0:0,0:0:0:0:
352,192,155373,6,0,B|416:128|416:128|288:128|288:128|352:64,1,308,0|0,1:0|0:0,0:0:0:0:
64,192,155722,6,0,L|160:192,1,96.25,2|0,1:0|0:0,0:0:0:0:
351,64,156071,6,0,B|288:128|288:128|416:128|416:128|352:192,1,308,0|0,1:0|0:0,0:0:0:0:
64,192,156420,6,0,B|96:160|64:96,1,96.25,2|0,1:0|0:0,0:0:0:0:
448,192,156768,6,0,P|352:192|448:96,1,308,0|0,1:0|0:0,0:0:0:0:
66,102,157117,6,0,B|96:160|64:192,1,96.25,2|0,1:0|0:0,0:0:0:0:
439,88,157466,6,0,P|332:149|448:192,1,308,0|0,1:0|0:0,0:0:0:0:
192,160,157815,6,0,L|288:160,1,96.25,2|0,1:0|0:0,0:0:0:0:
64,256,158164,6,0,P|160:256|64:160,1,308,0|0,1:0|0:0,0:0:0:0:
320,160,158513,6,0,L|224:160,1,96.25,2|0,1:0|0:0,0:0:0:0:
439,152,158861,6,0,P|332:213|448:256,1,308,0|0,1:0|0:0,0:0:0:0:
128,160,159210,6,0,L|32:160,1,96.25,2|0,1:0|0:0,0:0:0:0:
288,160,159559,2,0,P|352:160|96:160,1,308,0|0,1:0|0:0,0:0:0:0:
384,160,159908,5,2,1:0:0:0:
480,160,159995,1,0,0:0:0:0:
384,160,160082,1,2,0:0:0:0:
288,160,160169,1,0,0:0:0:0:
96,160,160257,5,0,1:0:0:0:
0,160,160344,1,0,0:0:0:0:
96,160,160431,1,2,0:0:0:0:
192,160,160518,1,0,3:0:0:0:
384,160,160606,6,0,P|448:224|448:288,1,148.500000566483,4|0,1:0|0:0,0:0:0:0:
128,224,160954,2,0,P|64:160|64:96,1,148.500000566483,0|0,1:0|0:0,0:0:0:0:
448,128,161303,1,4,0:3:0:0:
288,128,161478,1,2,0:0:0:0:
448,128,161652,1,0,1:1:0:0:
384,128,161827,1,0,0:0:0:0:
160,128,162001,6,0,L|0:128,1,148.500000566483,4|0,0:3|0:0,0:0:0:0:
320,192,162350,2,0,L|480:192,1,148.500000566483,0|0,1:1|0:0,0:0:0:0:
64,224,162699,2,0,L|224:224,1,148.500000566483,4|2,0:3|0:0,0:0:0:0:
448,224,163047,1,0,1:1:0:0:
384,224,163222,2,0,L|320:160,1,74.2500002832413,0|0,3:0|3:0,0:0:0:0:
96,160,163396,6,0,P|256:160|64:96,1,594.00000226593,4|4,1:0|0:3,0:0:0:0:
66,52,164094,6,0,B|192:128|192:128|32:192|32:192|256:192|256:192|256:288,1,594.00000226593,4|4,0:3|1:3,0:0:0:0:
256,320,164966,1,4,1:3:0:0:
256,224,165140,1,4,1:3:0:0:
64,192,165489,1,4,1:0:0:0:
448,192,165838,6,0,P|384:192|416:128,1,140.250002675057,12|0,1:3|0:0,0:0:0:0:
64,96,166187,6,0,L|224:256,2,220,4|2|4,0:3|3:2|0:3,0:0:0:0:
64,96,167582,6,0,L|288:96,1,220,4|2,0:3|3:2,0:0:0:0:
192,96,168454,1,4,0:3:0:0:
320,128,168629,1,0,3:0:0:0:
224,160,168803,1,4,0:3:0:0:
352,192,168978,2,0,L|128:288,2,220,4|2|4,0:1|3:2|0:1,0:0:0:0:
96,160,170547,5,2,0:0:0:0:
192,160,170722,1,2,0:0:0:0:
96,160,170896,1,2,0:0:0:0:
448,160,171071,1,2,0:0:0:0:
160,160,171245,5,2,0:0:0:0:
256,160,171420,1,0,1:0:0:0:
160,160,171594,1,4,0:3:0:0:
448,160,171768,5,6,1:0:0:0:
352,160,171942,1,0,0:0:0:0:
448,160,172117,5,0,0:0:0:0:
320,160,172291,1,0,0:0:0:0:
480,160,172466,5,0,0:0:0:0:
288,160,172640,1,0,0:0:0:0:
64,160,172815,5,2,0:0:0:0:
480,160,172989,1,2,0:0:0:0:
64,160,173164,5,6,1:0:0:0:
160,160,173338,1,0,0:0:0:0:
64,160,173513,5,0,0:0:0:0:
192,160,173687,1,0,0:0:0:0:
32,160,173862,5,2,0:0:0:0:
224,160,174036,1,4,0:3:0:0:
448,160,174211,5,0,3:0:0:0:
32,160,174385,1,4,0:3:0:0:
448,160,174559,5,6,1:0:0:0:
352,160,174733,1,2,0:0:0:0:
64,160,174908,5,4,0:3:0:0:
160,160,175082,1,2,0:0:0:0:
480,160,175257,1,4,0:3:0:0:
416,224,175431,1,2,0:0:0:0:
32,160,175606,1,4,0:3:0:0:
96,224,175780,1,2,0:0:0:0:
384,224,175954,5,4,1:0:0:0:
416,224,176041,1,0,0:0:0:0:
192,192,176129,1,2,0:0:0:0:
160,192,176216,1,0,0:0:0:0:
448,160,176303,5,4,0:3:0:0:
480,160,176390,1,0,0:0:0:0:
320,128,176478,1,2,0:0:0:0:
288,128,176565,1,0,0:0:0:0:
128,160,176652,5,4,1:3:0:0:
64,160,176739,1,2,3:2:0:0:
160,128,176827,1,2,3:2:0:0:
96,128,176914,1,2,3:2:0:0:
192,96,177001,1,2,3:2:0:0:
128,96,177088,1,2,3:2:0:0:
352,96,177175,1,2,3:2:0:0:
416,96,177262,1,2,3:2:0:0:
128,96,177350,6,0,L|256:96,1,110,4|0,0:1|0:0,0:0:0:0:
480,160,177699,2,0,L|352:160,1,110,0|0,1:0|0:0,0:0:0:0:
32,160,178047,1,4,0:3:0:0:
480,160,178396,1,0,1:0:0:0:
256,320,178745,6,0,B|184:192|184:192|332:192|332:192|256:64,1,440,4|4,3:0|0:3,0:0:0:0:
480,64,179792,5,2,1:2:0:0:
96,64,179966,1,2,0:0:0:0:
416,64,180140,2,0,L|352:64,2,55,4|0|2,3:0|0:0|0:0,0:0:0:0:
480,64,180489,1,0,1:0:0:0:
96,64,180664,2,0,L|160:64,2,55,2|0|4,0:0|0:0|0:3,0:0:0:0:
32,64,181013,1,2,0:0:0:0:
384,64,181187,6,0,L|448:64,1,55,2|0,1:2|0:0,0:0:0:0:
192,64,181361,1,2,0:0:0:0:
384,96,181536,2,0,B|448:96|512:160|448:224|384:224,1,220,2|4,1:0|0:3,0:0:0:0:
448,224,182408,1,2,0:0:0:0:
192,224,182582,1,0,1:0:0:0:
448,224,182757,1,2,0:0:0:0:
64,224,182931,6,0,L|0:96,1,110,4|0,0:3|0:0,0:0:0:0:
320,128,183280,2,0,L|192:128,1,110,0|0,1:0|0:0,0:0:0:0:
448,224,183629,2,0,L|512:96,1,110,4|0,0:3|0:0,0:0:0:0:
191,127,183978,6,0,P|89:178|166:263,1,263.99999194336,0|2,1:0|1:0,0:0:0:0:
320,256,184501,5,0,0:0:0:0:
32,256,184675,1,0,1:0:0:0:
416,256,184850,1,0,0:0:0:0:
320,256,185024,1,4,0:3:0:0:
416,256,185199,1,0,0:0:0:0:
32,256,185373,1,0,1:0:0:0:
416,256,185547,1,2,0:0:0:0:
32,256,185722,5,4,0:3:0:0:
288,256,185896,1,0,0:0:0:0:
32,256,186071,1,0,1:0:0:0:
480,256,186420,5,4,0:3:0:0:
224,256,186594,1,0,0:0:0:0:
480,256,186769,1,0,1:0:0:0:
256,192,187117,12,4,188338,0:3:0:0:
96,192,188513,5,4,1:3:0:0:
416,192,188687,1,4,1:3:0:0:
96,192,189036,1,4,1:3:0:0:
416,192,189385,1,4,3:3:0:0:
96,192,189559,1,4,3:3:0:0:
416,192,189733,1,0,3:3:0:0:
96,192,189908,6,0,L|160:192,2,55,2|4|2,1:0|3:0|1:0,0:0:0:0:
256,192,190954,6,0,L|160:192,2,82.5000031471254,4|0|2,3:0|0:0|1:0,0:0:0:0:
416,192,191652,1,4,3:0:0:0:
288,192,192001,2,0,L|256:192,1,27.5,2|4,1:0|0:3,0:0:0:0:
64,128,192350,2,0,L|96:128,1,27.5,4|4,3:0|0:3,0:0:0:0:
416,96,192699,6,0,L|192:96,2,220,2|4|2,1:0|3:0|1:0,0:0:0:0:
128,96,193745,1,4,3:0:0:0:
384,128,194094,2,0,L|416:128,1,27.5,2|0,1:0|0:0,0:0:0:0:
128,160,194443,2,0,L|160:160,1,27.5,0|2,0:0|0:0,0:0:0:0:
416,192,194792,6,0,L|480:288,1,110,2|0,1:0|0:0,0:0:0:0:
96,192,195140,2,0,L|32:96,1,110,0|0,1:0|0:0,0:0:0:0:
448,96,195489,2,0,L|192:96,2,220,4|4|2,1:0|3:0|1:0,0:0:0:0:
64,128,196536,2,0,L|160:128,2,82.5000031471254,4|4|2,3:0|0:3|1:0,0:0:0:0:
352,128,197233,1,4,3:0:0:0:
128,128,197582,2,0,L|64:128,1,55,2|4,1:0|3:0,0:0:0:0:
448,128,198280,6,0,L|448:256,1,110,4|0,1:3|0:0,0:0:0:0:
64,256,198629,2,0,L|64:128,1,110,0|2,1:0|0:0,0:0:0:0:
448,128,198978,2,0,L|448:256,1,110,4|0,3:0|0:0,0:0:0:0:
64,256,199327,2,0,L|64:128,1,110,0|0,1:0|3:0,0:0:0:0:
448,128,199675,2,0,L|352:288,1,165,4|0,0:3|0:0,0:0:0:0:
64,256,200024,2,0,L|160:96,1,165,2|0,1:2|0:0,0:0:0:0:
32,256,200373,1,4,0:3:0:0:
480,128,200722,1,2,1:2:0:0:
87,132,201071,2,0,B|384:192|384:192|160:64|160:64|288:64|288:64|288:32|288:32|224:32|224:32|224:64|224:64|352:64|352:64|224:128|224:128|288:128|288:128|128:192|128:192|448:128,1,1650,4|4,1:0|3:0,0:0:0:0:
256,192,203861,12,4,204210,1:0:0:0:
352,192,204385,5,4,1:3:0:0:
64,192,204559,2,0,P|192:192|64:352,1,445.500001699448,4|0,1:1|3:0,0:0:0:0:
384,352,205257,6,0,L|480:192,1,148.500000566483,4|0,1:3|0:0,0:0:0:0:
320,192,205518,2,0,L|224:64,1,148.500000566483,4|0,1:3|0:0,0:0:0:0:
96,64,205780,2,0,L|192:192,1,148.500000566483,4|4,0:0|1:0,0:0:0:0:
480,192,206129,1,0,0:0:0:0:
352,192,206303,1,2,3:0:0:0:
480,192,206478,1,2,0:0:0:0:
64,192,206652,5,4,1:0:0:0:
384,192,206827,1,0,0:0:0:0:
128,192,207001,1,0,1:3:0:0:
448,192,207176,1,0,0:0:0:0:
128,192,207350,6,0,P|64:128|192:128,1,297.000001132965,4|8,3:3|1:3,0:0:0:0:
191,123,207699,2,0,P|301:84|254:192,1,297.000001132965,8|4,1:3|3:3,0:0:0:0:
416,192,208222,1,0,0:0:0:0:
128,192,208396,1,0,1:0:0:0:
416,192,208571,1,0,0:0:0:0:
256,192,208745,1,4,3:3:0:0:
96,192,208920,1,0,0:0:0:0:
416,192,209094,1,12,1:3:0:0:
96,192,209268,6,0,L|128:192,1,27.5,0|0,0:0|0:0,0:0:0:0:
416,192,209443,2,0,L|480:32,1,148.500000566483,12|2,0:3|0:0,0:0:0:0:
64,32,209792,1,0,1:0:0:0:
320,96,209966,2,0,L|128:96,1,148.500000566483,8|4,0:3|0:3,0:0:0:0:
416,160,210315,1,2,0:0:0:0:
256,160,210489,1,0,1:0:0:0:
416,160,210664,1,2,0:0:0:0:
32,160,210838,6,0,L|384:160,1,352,2|12,1:0|1:3,0:0:0:0:
192,160,211361,1,2,0:0:0:0:
352,160,211536,2,0,L|448:160,1,74.2500002832413,4|0,3:3|0:0,0:0:0:0:
192,160,211710,2,0,L|96:160,1,74.2500002832413,2|0,3:2|0:0,0:0:0:0:
384,160,211885,2,0,L|480:160,1,74.2500002832413,4|0,0:3|0:0,0:0:0:0:
160,160,212059,2,0,L|64:160,1,74.2500002832413,2|2,0:0|0:0,0:0:0:0:
384,160,212233,6,0,P|416:224|352:256,1,148.500000566483,4|0,3:3|0:0,0:0:0:0:
128,224,212582,2,0,P|160:288|96:320,1,148.500000566483,0|0,1:0|0:0,0:0:0:0:
384,160,212931,1,4,3:3:0:0:
128,224,213280,1,8,1:3:0:0:
384,160,213629,6,0,L|128:224,1,264,2|0,1:0|0:0,0:0:0:0:
352,256,213978,2,0,L|203:256,1,148.500000566483,4|0,3:0|0:0,0:0:0:0:
448,192,214327,2,0,L|384:192,1,55,12|0,3:3|0:0,0:0:0:0:
96,128,214675,2,0,L|256:128,1,148.500000566483,12|0,1:3|0:0,0:0:0:0:
96,128,215024,1,4,0:3:0:0:
416,128,215199,1,2,0:0:0:0:
96,128,215373,1,4,1:3:0:0:
416,128,215722,5,4,3:3:0:0:
96,128,215896,1,2,0:0:0:0:
416,128,216071,1,4,1:3:0:0:
256,192,216420,12,6,217640,1:0:0:0:
64,224,217815,6,0,B|96:192|96:192|64:192,1,55,6|0,3:3|0:0,0:0:0:0:
448,224,218164,6,0,B|416:192|416:192|448:192,1,55,6|0,3:3|0:0,0:0:0:0:
32,224,218513,6,0,B|64:192|64:192|32:192,1,55,6|2,0:3|0:0,0:0:0:0:
480,224,218861,5,0,1:0:0:0:
160,224,219036,1,2,3:2:0:0:
416,160,219210,6,0,L|224:160,1,165.000006294251,4|0,1:0|0:0,0:0:0:0:
480,96,219559,2,0,L|288:96,1,165.000006294251,4|0,1:3|0:0,0:0:0:0:
32,96,219908,1,4,3:3:0:0:
480,96,220257,1,8,1:3:0:0:
160,128,220606,6,0,L|32:256,1,165.000006294251,4|0,3:3|0:0,0:0:0:0:
352,288,220954,2,0,L|128:288,1,165.000006294251,4|0,1:3|0:0,0:0:0:0:
480,192,221303,1,4,3:3:0:0:
416,192,221390,1,0,0:0:0:0:
352,192,221477,1,0,0:0:0:0:
96,192,221652,6,0,L|64:160,1,27.5,12|0,1:3|0:0,0:0:0:0:
320,160,221827,2,0,L|352:160,1,27.5,0|0,0:0|0:0,0:0:0:0:
64,96,222001,2,0,L|160:96,2,82.5000031471254,12|0|2,0:3|0:0|0:0,0:0:0:0:
320,160,222350,2,0,L|384:224,1,82.5000031471254,0|0,1:0|0:0,0:0:0:0:
128,160,222524,2,0,L|64:224,1,82.5000031471254,2|0,0:0|0:0,0:0:0:0:
288,96,222699,2,0,L|123:96,1,165.000006294251,4|2,0:3|0:0,0:0:0:0:
448,160,223047,1,0,1:0:0:0:
288,160,223222,1,2,0:0:0:0:
32,160,223396,6,0,L|256:160,1,220,2|0,1:0|0:0,0:0:0:0:
480,224,223745,2,0,L|256:224,1,192.500001835823,6|0,1:0|0:0,0:0:0:0:
64,224,224094,2,0,L|160:224,1,82.5000031471254,4|0,0:3|0:0,0:0:0:0:
416,288,224268,2,0,L|320:288,1,82.5000031471254,0|0,0:0|0:0,0:0:0:0:
64,288,224443,2,0,L|160:352,1,110,6|0,1:3|0:0,0:0:0:0:
416,224,224617,2,0,L|480:128,1,110,0|2,0:0|0:0,0:0:0:0:
128,96,224792,6,0,P|192:160|96:224,1,165.000006294251,4|0,3:3|0:0,0:0:0:0:
416,288,225140,1,4,1:3:0:0:
256,288,225315,1,0,0:0:0:0:
480,288,225489,1,4,3:3:0:0:
96,288,225838,1,8,1:3:0:0:
448,288,226187,6,0,L|256:288,1,165.000006294251,2|2,1:0|0:0,0:0:0:0:
32,224,226536,2,0,L|64:96,1,110,4|0,3:0|0:0,0:0:0:0:
352,128,226885,2,0,L|128:128,1,220,6|0,1:0|0:0,0:0:0:0:
416,64,227233,2,0,L|480:320,1,220,0|0,0:0|0:0,0:0:0:0:
96,288,227582,5,4,0:3:0:0:
64,213,227669,1,0,0:0:0:0:
81,133,227756,1,2,0:0:0:0:
140,77,227843,1,0,0:0:0:0:
352,96,227931,6,0,L|448:96,1,82.5000031471254,4|0,1:3|0:0,0:0:0:0:
192,128,228106,2,0,L|96:128,1,82.5000031471254,0|0,0:0|0:0,0:0:0:0:
384,160,228280,2,0,L|480:160,1,82.5000031471254,4|0,3:3|0:0,0:0:0:0:
384,192,228454,2,0,L|288:192,1,82.5000031471254,0|0,0:0|0:0,0:0:0:0:
77,292,228628,1,4,1:3:0:0:
147,330,228715,1,0,0:0:0:0:
224,352,228803,1,0,0:0:0:0:
480,352,228890,1,0,0:0:0:0:
256,192,228978,12,6,230199,1:0:0:0:
64,64,230373,6,0,P|160:64|32:320,1,577.500022029878,4|2,1:3|3:2,0:0:0:0:
480,288,231768,6,0,L|384:288,1,96.25,2|0,1:0|0:0,0:0:0:0:
64,256,232117,6,0,P|128:256|64:128,1,288.750011014939,0|0,1:0|0:0,0:0:0:0:
320,96,232466,6,0,L|416:96,1,96.25,2|0,1:0|0:0,0:0:0:0:
128,96,232815,6,0,P|64:96|128:224,1,288.750011014939,0|0,1:0|0:0,0:0:0:0:
448,160,233164,6,0,L|416:256,1,96.25,2|0,1:0|0:0,0:0:0:0:
160,288,233513,6,0,B|192:256|192:256|288:224|288:224|192:192|192:192|128:192|128:192,1,288.750011014939,0|0,1:0|0:0,0:0:0:0:
416,256,233861,6,0,L|448:160,1,96.25,2|0,1:0|0:0,0:0:0:0:
128,96,234210,6,0,P|32:128|128:224,1,288.750011014939,0|0,1:0|0:0,0:0:0:0:
416,256,234559,6,0,P|384:224|416:192,1,96.25,2|0,1:0|0:0,0:0:0:0:
128,96,234908,6,0,P|160:64|288:192,1,288.750011014939,0|0,1:0|0:0,0:0:0:0:
32,256,235257,6,0,P|0:288|32:320,1,96.25,2|0,1:0|0:0,0:0:0:0:
416,320,235606,6,0,P|352:320|416:192,1,288.750011014939,0|0,1:0|0:0,0:0:0:0:
64,128,235954,6,0,L|160:128,1,96.25,2|0,1:0|0:0,0:0:0:0:
448,192,236303,6,0,P|224:192|320:192,1,288.750011014939,0|0,1:0|0:0,0:0:0:0:
480,256,236652,6,0,L|320:320,3,165.000006294251,2|2|0|2,1:0|0:0|1:0|0:0,0:0:0:0:
128,288,237350,6,0,L|32:160,1,148.500000566483,4|0,1:0|0:0,0:0:0:0:
473,169,237699,2,0,L|384:288,1,148.500000566483,0|0,1:0|0:0,0:0:0:0:
192,192,238047,1,4,0:3:0:0:
320,192,238222,1,2,0:0:0:0:
192,192,238396,1,0,1:1:0:0:
448,192,238571,1,0,0:0:0:0:
192,192,238745,6,0,L|32:192,1,148.500000566483,4|0,0:3|0:0,0:0:0:0:
448,192,239094,2,0,L|288:192,1,148.500000566483,0|0,1:1|0:0,0:0:0:0:
448,192,239443,1,4,0:3:0:0:
352,192,239617,1,2,0:0:0:0:
64,192,239792,1,0,1:1:0:0:
160,192,239966,1,0,3:0:0:0:
224,192,240053,1,0,3:0:0:0:
448,192,240140,6,0,P|352:192|448:96,1,297.000001132965,4|0,1:0|0:0,0:0:0:0:
448,192,240664,1,0,0:0:0:0:
64,192,240838,6,0,P|160:192|64:96,1,297.000001132965,4|2,0:3|0:0,0:0:0:0:
448,192,241361,1,0,0:0:0:0:
0,192,241536,6,0,L|0:128,1,37.1250001416206,4|0,1:3|0:0,0:0:0:0:
192,192,241710,6,0,L|192:128,1,37.1250001416206,4|0,1:3|0:0,0:0:0:0:
448,192,241885,6,0,L|448:128,1,37.1250001416206,4|0,1:3|0:0,0:0:0:0:
64,192,242233,5,4,1:0:0:0:
32,128,242320,1,0,0:0:0:0:
64,64,242407,1,2,0:0:0:0:
128,64,242494,1,0,0:0:0:0:
384,160,242582,2,0,L|480:160,1,74.2500002832413,4|0,0:3|0:0,0:0:0:0:
224,160,242757,2,0,L|288:224,1,74.2500002832413,2|0,0:0|0:0,0:0:0:0:
64,256,242931,5,6,1:0:0:0:
32,192,243018,1,0,0:0:0:0:
96,128,243105,1,0,0:0:0:0:
192,128,243192,1,0,0:0:0:0:
384,160,243280,6,0,L|480:160,1,85.2500006504059,2|0,0:0|0:0,0:0:0:0:
160,160,243454,2,0,L|64:160,1,85.2500006504059,4|0,0:3|3:0,0:0:0:0:
384,192,243629,5,6,1:0:0:0:
445,244,243716,1,0,0:0:0:0:
424,322,243803,1,0,0:0:0:0:
344,336,243890,1,0,0:0:0:0:
96,288,243978,6,0,L|192:288,1,85.2500006504059,2|0,0:0|0:0,0:0:0:0:
384,224,244152,2,0,L|288:224,1,85.2500006504059,0|0,0:0|0:0,0:0:0:0:
117,160,244327,6,0,L|32:160,1,85.2500006504059,6|0,1:0|0:0,0:0:0:0:
149,96,244501,2,0,L|64:96,1,85.2500006504059,0|0,0:0|0:0,0:0:0:0:
362,224,244675,6,0,L|448:224,1,85.2500006504059,2|4,0:0|0:3,0:0:0:0:
330,160,244849,2,0,L|416:160,1,85.2500006504059,4|4,0:3|0:3,0:0:0:0:
64,128,245024,5,6,1:0:0:0:
32,192,245111,1,0,0:0:0:0:
64,256,245198,1,4,0:3:0:0:
128,288,245285,1,0,0:0:0:0:
480,288,245373,5,2,0:0:0:0:
512,224,245460,1,0,0:0:0:0:
480,160,245547,1,4,0:3:0:0:
416,128,245634,1,2,0:0:0:0:
64,128,245722,6,0,P|32:256|192:352,1,341.000002601624,6|2,1:0|0:0,0:0:0:0:
64,128,246245,1,0,0:0:0:0:
448,128,246420,2,0,P|320:128|448:224,1,341.000002601624,6|2,1:0|0:0,0:0:0:0:
64,128,246943,1,0,0:0:0:0:
416,128,247117,6,0,L|64:128,2,330.000012588501,6|0|0,1:0|1:0|1:0,0:0:0:0:
64,128,247815,6,0,L|128:128,1,55,4|0,1:0|0:0,0:0:0:0:
338,128,248164,6,0,P|160:128|384:320,1,660.000025177003,0|4,3:0|3:3,0:0:0:0:
288,352,248687,1,0,0:0:0:0:
398,320,248861,6,0,L|288:320,1,110,4|0,1:3|0:0,0:0:0:0:
32,288,249210,2,0,L|142:288,1,110,4|0,3:3|0:0,0:0:0:0:
398,320,249559,6,0,L|453:224,1,110,8|0,1:3|0:0,0:0:0:0:
114,64,249908,2,0,L|59:159,1,110,4|0,3:3|0:0,0:0:0:0:
480,64,250257,2,0,L|385:119,1,110,4|0,1:3|0:0,0:0:0:0:
128,64,250606,2,0,L|223:119,1,110,4|0,3:3|0:0,0:0:0:0:
64,128,250954,6,0,L|32:256,1,110,12|0,1:3|0:0,0:0:0:0:
448,192,251303,2,0,L|320:192,1,110,12|2,0:3|0:0,0:0:0:0:
480,256,251652,2,0,L|288:256,1,165.000006294251,0|4,1:0|0:3,0:0:0:0:
512,320,252001,2,0,L|288:320,1,220,4|2,0:3|0:0,0:0:0:0:
512,352,252350,1,0,1:0:0:0:
160,352,252524,1,2,0:0:0:0:
448,192,252699,2,0,L|320:192,1,110,2|0,1:0|0:0,0:0:0:0:
32,256,253048,2,0,L|224:256,1,165.000006294251,0|2,1:0|0:0,0:0:0:0:
512,320,253397,2,0,L|288:320,1,220,4|2,3:3|0:0,0:0:0:0:
0,352,253745,1,4,1:3:0:0:
512,352,253920,1,0,0:0:0:0:
256,352,254094,6,0,L|128:352,1,110,4|0,3:3|0:0,0:0:0:0:
416,288,254443,2,0,L|416:160,1,110,4|0,1:3|0:0,0:0:0:0:
96,96,254792,2,0,L|224:96,1,110,4|0,3:3|0:0,0:0:0:0:
480,128,255140,2,0,L|480:256,1,110,8|2,1:3|0:0,0:0:0:0:
128,256,255489,6,0,L|0:256,1,110,2|0,1:0|0:0,0:0:0:0:
448,256,255838,2,0,L|320:256,1,110,4|0,1:3|0:0,0:0:0:0:
64,160,256187,2,0,L|192:160,1,110,4|2,3:3|0:0,0:0:0:0:
448,160,256536,2,0,L|320:160,1,110,12|0,1:3|0:0,0:0:0:0:
64,256,256885,6,0,L|32:128,1,110,4|2,0:3|0:0,0:0:0:0:
448,128,257233,2,0,L|480:256,1,110,4|2,1:3|0:0,0:0:0:0:
32,256,257582,2,0,L|64:128,1,110,4|2,3:3|0:0,0:0:0:0:
480,128,257931,2,0,L|448:256,1,110,4|2,1:3|0:0,0:0:0:0:
32,128,258280,5,2,1:0:0:0:
480,256,258454,1,2,0:0:0:0:
480,256,258629,1,8,1:3:0:0:
32,128,258803,1,2,0:0:0:0:
480,256,258978,5,4,0:3:0:0:
32,128,259152,1,2,0:0:0:0:
32,128,259327,1,4,1:3:0:0:
480,256,259501,1,2,0:0:0:0:
32,128,259675,5,4,1:3:0:0:
480,256,259850,1,0,3:0:0:0:
32,192,260024,1,0,0:0:0:0:
480,192,260199,1,0,1:0:0:0:
32,256,260373,1,0,0:0:0:0:
480,128,260547,1,2,0:0:0:0:
32,320,260722,1,0,1:0:0:0:
480,64,260896,1,2,3:2:0:0:
192,192,261071,6,0,L|64:192,1,110,4|0,3:3|0:0,0:0:0:0:
192,128,261420,2,0,L|320:128,1,110,4|0,1:3|0:0,0:0:0:0:
96,128,261768,1,4,3:3:0:0:
416,128,262117,1,14,1:3:0:0:
96,128,262466,2,0,P|32:192|96:288,1,220,12|6,0:3|1:3,0:0:0:0:
416,128,262989,1,0,0:0:0:0:
96,128,263164,2,0,L|224:128,1,110,4|0,3:3|0:0,0:0:0:0:
448,192,263513,2,0,L|480:320,1,110,12|0,1:3|0:0,0:0:0:0:
128,288,263861,6,0,L|384:64,1,330.000012588501,4|4,1:1|1:1,0:0:0:0:
128,64,264733,2,0,L|224:64,2,82.5000031471254,0|0|0,0:0|0:0|0:0,0:0:0:0:
448,128,265257,2,0,L|352:192,1,110,6|0,1:0|0:0,0:0:0:0:
64,128,265606,2,0,L|160:192,1,110,4|2,0:3|0:0,0:0:0:0:
416,256,265954,6,0,L|480:256,1,55,4|2,0:3|0:0,0:0:0:0:
192,256,266129,6,0,L|128:256,1,55,0|0,3:0|3:0,0:0:0:0:
352,288,266303,6,0,L|416:288,1,55,4|0,3:3|3:0,0:0:0:0:
128,288,266478,6,0,L|64:288,1,55,4|0,3:0|3:0,0:0:0:0:
480,352,266652,1,4,1:3:0:0:
32,352,266827,1,4,0:3:0:0:
352,352,267175,1,4,1:3:0:0:
256,352,267350,2,0,L|256:128,1,220,4|6,0:3|1:2,0:0:0:0:
