osu file format v14

[General]
AudioFilename: audio.mp3
AudioLeadIn: 0
PreviewTime: 174487
Countdown: 0
SampleSet: Soft
StackLeniency: 0.7
Mode: 0
LetterboxInBreaks: 0
WidescreenStoryboard: 0

[Editor]
Bookmarks: 12736,18850,24965,49424,55538,79997,86112,92226,116685,122799,147258,171717,183946,190061,194647,196175,220634,245092,249678
DistanceSpacing: 1.7
BeatDivisor: 4
GridSize: 32
TimelineZoom: 0.7999997

[Metadata]
Title:Taiyou no Hana -Eternal Summer-
TitleUnicode:太陽の花 -Eternal Summer-
Artist:Akatsuki Records
ArtistUnicode:暁Records
Creator:SMOKELIND
Version:You're Beautiful
Source:東方花映塚 ~ Phantasmagoria of Flower View.
Tags:Sunflower Japanese J-Rock Rock Stack TH ZUN Touhou Comiket 96 C96 今昔幻想郷 ~ Flower Land Gensokyo Past and Present Konjaku Yuuka Kazami 風見幽香 東方Project Video Game
BeatmapID:2267272
BeatmapSetID:1084144

[Difficulty]
HPDrainRate:4.7
CircleSize:3.7
OverallDifficulty:7.7
ApproachRate:8.7
SliderMultiplier:1.77
SliderTickRate:1

[Events]
//Background and Video events
0,0,"Cute Sunflowers.jpg",0,0
Video,-1106,"Sunflowers.mp4"
//Break Periods
2,80197,85467
//Storyboard Layer 0 (Background)
//Storyboard Layer 1 (Fail)
//Storyboard Layer 2 (Pass)
//Storyboard Layer 3 (Foreground)
//Storyboard Layer 4 (Overlay)
//Storyboard Sound Samples

[TimingPoints]
507,382.165605095541,4,2,77,47,1,0
507,-129.87012987013,4,2,77,47,0,0
12736,-129.87012987013,4,3,77,57,0,0
18850,-129.87012987013,4,3,77,67,0,0
23436,-129.87012987013,4,3,77,77,0,0
24965,-93.4579439252336,4,2,77,97,0,0
49424,-175.438596491228,4,2,77,47,0,0
55538,-129.87012987013,4,2,77,57,0,0
79997,-175.438596491228,4,2,77,47,0,0
86112,-129.87012987013,4,2,77,57,0,0
86303,-129.87012987013,4,2,77,7,0,0
87640,-129.87012987013,4,2,77,57,0,0
87831,-129.87012987013,4,2,77,7,0,0
88787,-129.87012987013,4,2,77,47,0,0
89169,-114.942528735632,4,2,77,57,0,0
89933,-114.942528735632,4,2,77,67,0,0
90698,-103.092783505155,4,2,77,77,0,0
91462,-103.092783505155,4,2,77,87,0,0
92226,-93.4579439252336,4,2,77,97,0,0
116685,-175.438596491228,4,2,77,47,0,0
122799,-129.87012987013,4,2,77,57,0,0
146876,-129.87012987013,4,2,77,77,0,0
147258,-93.4579439252336,4,2,77,97,0,0
171717,-212.765957446809,4,2,77,47,0,0
183946,-129.87012987013,4,3,77,67,0,0
190061,-114.942528735632,4,3,77,67,0,0
194647,-103.092783505155,4,3,77,77,0,0
196175,-103.092783505155,4,2,77,87,0,0
220634,-212.76595744681,4,2,77,27,0,0
234392,-370.370370370374,4,2,77,27,0,0
245092,-588.235294117657,4,2,77,47,0,0
245284,-588.235294117657,4,2,77,7,0,0

[Colours]
Combo1 : 168,233,80
Combo2 : 255,145,79
Combo3 : 255,87,57
Combo4 : 255,206,57

[HitObjects]
50,54,507,6,0,P|74:82|90:200,1,136.289997296494,6|2,1:0|0:0,0:0:0:0:
167,267,1080,2,0,P|174:199|212:144,1,136.289997296494,2|2,0:0|0:0,0:0:0:0:
326,123,1653,2,0,P|362:149|416:149,1,68.1449986482468,2|0,0:0|0:0,0:0:0:0:
474,66,2035,1,2,0:0:0:0:
474,66,2226,2,0,P|443:126|443:200,1,136.289997296494,2|2,0:0|0:0,0:0:0:0:
491,293,2799,2,0,P|464:248|360:254,1,136.289997296494,2|2,0:0|0:0,0:0:0:0:
270,349,3373,5,2,1:0:0:0:
270,349,3564,2,0,P|291:277|291:197,1,136.289997296494,2|2,1:0|0:0,0:0:0:0:
184,140,4137,2,0,P|203:205|207:272,1,136.289997296494,2|2,0:0|0:0,0:0:0:0:
294,131,4710,2,0,P|322:135|361:162,1,68.1449986482468,2|0,0:0|0:0,0:0:0:0:
213,227,5092,1,2,0:0:0:0:
213,227,5284,2,0,P|134:227|76:183,1,136.289997296494,2|2,0:0|0:0,0:0:0:0:
179,107,5857,1,2,0:0:0:0:
224,260,6048,1,8,3:0:0:0:
294,107,6239,1,8,3:0:0:0:
345,277,6430,1,8,3:0:0:0:
425,80,6621,6,0,P|397:142|397:224,1,136.289997296494,6|2,1:0|0:0,0:0:0:0:
240,260,7194,2,0,P|237:192|210:131,1,136.289997296494,2|2,0:0|0:0,0:0:0:0:
76,123,7768,2,0,P|114:150|149:150,1,68.1449986482468
227,47,8150,1,2,0:0:0:0:
227,47,8341,2,0,B|301:66|255:98|342:113,1,136.289997296494,2|2,0:0|0:0,0:0:0:0:
400,7,8914,2,0,P|368:29|334:33,1,68.1449986482468,2|0,0:0|0:0,0:0:0:0:
430,90,9296,1,2,0:0:0:0:
264,181,9487,5,2,1:0:0:0:
264,181,9678,2,0,P|338:193|400:223,1,136.289997296494,2|2,1:0|0:0,0:0:0:0:
307,321,10252,2,0,P|244:348|177:358,1,136.289997296494,2|2,0:0|0:0,0:0:0:0:
79,259,10825,2,0,P|110:275|153:281,1,68.1449986482468,2|0,0:0|0:0,0:0:0:0:
74,170,11207,1,2,0:0:0:0:
74,170,11398,2,0,P|124:141|211:142,1,136.289997296494,2|2,0:0|0:0,0:0:0:0:
305,200,11971,2,0,P|251:146|274:91,1,136.289997296494,2|0,0:0|0:0,0:0:0:0:
369,44,12545,1,2,1:0:0:0:
452,180,12736,6,0,P|421:235|409:330,1,136.289997296494,2|0,1:2|0:2,0:0:0:0:
178,213,13309,2,0,P|209:268|221:363,1,136.289997296494,0|0,1:2|0:2,0:0:0:0:
289,181,13882,2,0,P|316:163|347:160,5,34.0724993241234,2|0|0|0|0|0,1:2|3:2|3:2|3:2|3:2|3:2,0:0:0:0:
349,80,14456,2,0,P|376:98|407:101,5,34.0724993241234,0|0|0|0|0|0,1:2|3:2|3:2|3:2|3:2|3:2,0:0:0:0:
313,170,15029,2,0,P|297:177|285:189,5,34.0724993241234,0|0|0|0|0|0,1:2|3:2|3:2|3:2|3:2|3:2,0:0:0:0:
225,103,15602,5,8,0:2:0:0:
225,103,15698,1,8,0:2:0:0:
225,103,15793,2,0,B|151:124|202:166|105:188,1,136.289997296494,0|8,1:2|0:2,0:0:0:0:
37,0,16366,2,0,P|72:19|105:116,1,136.289997296494,0|8,1:2|0:2,0:0:0:0:
39,259,16940,2,0,P|68:291|106:297,1,68.1449986482468,0|8,1:2|0:2,0:0:0:0:
127,273,17226,5,8,0:2:0:0:
127,273,17322,2,0,P|183:247|217:247,1,68.1449986482468,8|0,0:2|1:2,0:0:0:0:
216,266,17608,1,0,0:2:0:0:
216,266,17704,2,0,P|256:291|338:306,1,102.21749797237,8|0,0:2|0:2,0:0:0:0:
339,278,18086,1,2,1:2:0:0:
420,154,18277,1,8,0:2:0:0:
420,154,18373,1,8,0:2:0:0:
420,154,18468,2,0,P|435:142|459:136,3,34.0724993241234,8|8|8|8,0:2|0:2|0:2|0:2,0:0:0:0:
493,238,18850,6,0,P|480:228|465:222,3,34.0724993241234,6|0|0|0,1:1|0:2|0:2|0:2,0:0:0:0:
445,299,19233,1,8,0:2:0:0:
311,203,19424,2,0,P|295:209|282:219,3,34.0724993241234,0|0|0|0,1:2|0:2|0:2|0:2,0:0:0:0:
219,270,19806,1,8,0:2:0:0:
302,127,19997,2,0,P|318:126|335:130,3,34.0724993241234,0|0|0|0,1:2|0:2|0:2|0:2,0:0:0:0:
388,188,20379,1,8,0:2:0:0:
305,45,20570,2,0,P|288:44|271:48,3,34.0724993241234,0|0|0|0,1:2|0:2|0:2|0:2,0:0:0:0:
225,110,20952,1,0,0:2:0:0:
207,278,21143,1,0,1:2:0:0:
115,149,21335,1,8,0:2:0:0:
209,264,21526,2,0,P|226:254|255:250,3,34.0724993241234,0|0|0|0,0:2|0:2|0:2|0:2,0:0:0:0:
180,347,21908,6,0,P|163:337|134:333,3,34.0724993241234,4|0|0|0,1:1|0:2|0:2|0:2,0:0:0:0:
74,356,22290,1,8,0:2:0:0:
101,191,22481,2,0,P|87:205|77:232,3,34.0724993241234,0|0|0|0,1:2|0:2|0:2|0:2,0:0:0:0:
152,251,22863,1,8,0:2:0:0:
125,86,23054,2,0,P|138:100|148:127,3,34.0724993241234,0|0|8|8,1:2|0:2|0:2|0:2,0:0:0:0:
239,245,23436,5,0,1:2:0:0:
260,255,23531,1,0,3:2:0:0:
283,260,23627,1,0,3:2:0:0:
307,259,23723,1,0,3:2:0:0:
329,251,23818,1,8,3:2:0:0:
294,107,24010,1,0,0:2:0:0:
294,107,24105,1,0,0:2:0:0:
294,107,24201,2,0,L|285:200,1,68.1449986482468,0|10,0:2|0:2,0:0:0:0:
197,27,24583,5,10,0:2:0:0:
174,15,24678,1,8,0:2:0:0:
150,10,24774,1,10,0:2:0:0:
124,11,24869,1,8,0:2:0:0:
101,20,24965,2,0,P|130:93|130:219,1,189.389994220276,6|8,1:0|0:0,0:0:0:0:
293,5,25538,2,0,P|391:39|391:142,1,189.389994220276,0|0,1:0|1:0,0:0:0:0:
211,292,26112,2,0,P|163:248|163:159,1,142.042495665207,10|0,0:0|0:0,0:0:0:0:
181,158,26494,1,0,0:0:0:0:
301,319,26685,1,0,1:0:0:0:
345,117,26876,2,0,P|404:58|462:58,1,142.042495665207,8|0,0:0|0:0,0:0:0:0:
511,123,27258,2,0,P|489:166|482:226,1,94.694997110138,0|0,1:0|1:0,0:0:0:0:
271,336,27640,1,10,0:0:0:0:
393,200,27831,1,2,0:0:0:0:
200,52,28022,6,0,B|104:110|196:136|62:200,1,189.389994220276,6|8,1:0|0:0,0:0:0:0:
401,188,28596,2,0,P|272:135|208:136,1,189.389994220276,0|0,1:0|1:0,0:0:0:0:
126,351,29169,2,0,P|255:298|319:299,1,189.389994220276,10|0,0:0|0:0,0:0:0:0:
401,188,29742,1,2,1:0:0:0:
185,112,29933,1,10,0:0:0:0:
243,279,30124,1,2,0:0:0:0:
328,66,30315,1,2,1:0:0:0:
212,195,30506,1,2,1:0:0:0:
436,316,30698,1,10,0:0:0:0:
465,322,31080,6,0,P|500:229|500:120,1,189.389994220276,6|8,1:0|0:0,0:0:0:0:
203,16,31653,2,0,P|238:109|238:218,1,189.389994220276,0|0,1:0|1:0,0:0:0:0:
27,283,32226,2,0,P|104:215|151:223,1,142.042495665207,10|0,0:0|0:0,0:0:0:0:
157,247,32608,1,2,0:0:0:0:
259,119,32799,1,0,1:0:0:0:
323,358,32991,2,0,P|376:375|434:337,1,94.694997110138,8|0,0:0|0:0,0:0:0:0:
433,133,33373,1,2,1:0:0:0:
299,275,33564,1,0,1:0:0:0:
495,198,33755,2,0,P|520:140|511:88,1,94.694997110138,8|0,0:0|0:0,0:0:0:0:
276,62,34137,6,0,B|284:40|284:40|353:107|353:219,1,189.389994220276,6|8,1:0|0:0,0:0:0:0:
171,305,34710,2,0,B|179:327|179:327|248:260|248:148,1,189.389994220276,2|0,1:0|1:0,0:0:0:0:
69,83,35284,2,0,P|91:123|101:190,1,94.694997110138,10|0,0:0|0:0,0:0:0:0:
253,288,35666,6,0,P|298:258|382:241,1,94.694997110138,2|0,0:0|1:0,0:0:0:0:
181,105,36048,1,8,0:0:0:0:
416,186,36239,1,10,0:0:0:0:
244,323,36430,1,0,1:0:0:0:
306,127,36621,1,8,3:0:0:0:
370,275,36812,1,10,3:0:0:0:
277,216,37003,1,8,3:0:0:0:
83,360,37194,6,0,B|67:374|67:374|27:293|77:216,1,142.042495665207,6|0,1:0|0:0,0:0:0:0:
122,210,37577,1,8,0:0:0:0:
311,60,37768,2,0,B|425:80|344:150|489:167,1,189.389994220276,0|0,1:0|1:0,0:0:0:0:
191,281,38341,2,0,P|166:223|201:128,1,142.042495665207,10|0,0:0|0:0,0:0:0:0:
219,141,38723,1,2,0:0:0:0:
359,253,38914,1,0,1:0:0:0:
416,27,39105,2,0,P|335:69|331:146,1,142.042495665207,8|0,0:0|0:0,0:0:0:0:
388,155,39487,2,0,P|433:125|488:119,1,94.694997110138,0|0,1:0|1:0,0:0:0:0:
446,335,39870,1,10,0:0:0:0:
294,204,40061,1,2,0:0:0:0:
165,384,40252,6,0,B|88:336|-3:336|-3:336|39:314,1,189.389994220276,6|8,1:0|0:0,0:0:0:0:
276,184,40825,2,0,B|199:232|108:232|108:232|150:254,1,189.389994220276,0|0,1:0|1:0,0:0:0:0:
400,249,41398,2,0,P|422:158|341:68,1,189.389994220276,10|0,0:0|0:0,0:0:0:0:
206,94,41971,1,2,1:0:0:0:
239,303,42163,1,10,0:0:0:0:
296,147,42354,1,2,0:0:0:0:
72,132,42545,1,2,1:0:0:0:
230,277,42736,1,2,1:0:0:0:
345,41,42927,1,10,0:0:0:0:
344,3,43309,6,0,B|297:2|275:62|275:62|218:41|182:79,1,189.389994220276,6|8,1:0|0:0,0:0:0:0:
238,313,43882,2,0,B|225:294|225:294|269:222|237:129,1,189.389994220276,0|0,1:0|1:0,0:0:0:0:
23,65,44456,2,0,P|78:140|89:223,1,142.042495665207,10|0,0:0|0:0,0:0:0:0:
73,219,44838,1,2,0:0:0:0:
176,60,45029,1,0,1:0:0:0:
316,287,45220,2,0,P|389:261|409:164,1,142.042495665207,8|0,0:0|0:0,0:0:0:0:
468,149,45602,2,0,P|473:195|465:244,1,94.694997110138,2|0,1:0|1:0,0:0:0:0:
302,94,45984,1,8,0:0:0:0:
307,72,46366,6,0,P|351:28|439:41,1,142.042495665207,6|0,1:0|0:0,0:0:0:0:
456,106,46749,1,8,0:0:0:0:
281,273,46940,2,0,P|218:270|168:197,1,142.042495665207,2|0,1:0|0:0,0:0:0:0:
204,140,47322,1,0,1:0:0:0:
400,313,47513,1,10,0:0:0:0:
456,106,47704,1,8,0:0:0:0:
346,177,47895,5,2,0:0:0:0:
180,27,48086,1,0,1:0:0:0:
265,103,48277,1,8,0:0:0:0:
260,135,48372,1,8,0:0:0:0:
258,160,48468,1,10,0:0:0:0:
255,186,48563,1,8,0:0:0:0:
252,213,48659,1,0,1:0:0:0:
384,304,48850,1,0,1:0:0:0:
234,347,49042,1,2,1:0:0:0:
384,304,49233,1,8,3:0:0:0:
252,322,49424,6,0,L|80:300,2,151.334998152649,2|2|0,0:0|0:0|0:0,0:0:0:0:
321,245,50761,2,0,L|432:230,2,100.889998768433,2|2|2,0:0|0:0|0:0,0:0:0:0:
272,156,51717,1,0,0:0:0:0:
272,156,51908,2,0,L|378:166,1,100.889998768433,2|0,0:0|0:0,0:0:0:0:
444,69,52481,5,2,0:0:0:0:
444,69,52672,2,0,P|421:88|377:95,1,50.4449993842163,2|0,0:0|0:0,0:0:0:0:
312,37,53054,2,0,P|266:7|201:0,1,100.889998768433,2|2,0:0|0:0,0:0:0:0:
173,96,53628,1,0,0:0:0:0:
173,96,53819,2,0,P|191:83|234:72,1,50.4449993842163,2|0,0:0|0:0,0:0:0:0:
270,172,54201,2,0,P|252:159|209:148,1,50.4449993842163,2|0,0:0|1:0,0:0:0:0:
89,296,54583,5,8,0:0:0:0:
176,214,54774,1,0,1:0:0:0:
50,204,54965,1,8,3:0:0:0:
95,313,55156,1,8,3:0:0:0:
182,231,55347,1,8,3:0:0:0:
264,350,55538,5,0,1:0:0:0:
264,350,55729,2,0,P|295:331|333:324,1,68.1449986482468,0|0,0:0|1:0,0:0:0:0:
413,374,56112,1,2,0:0:0:0:
491,269,56303,1,2,1:0:0:0:
491,269,56494,2,0,P|474:230|474:189,1,68.1449986482468,2|0,0:0|1:0,0:0:0:0:
502,90,56876,2,0,P|482:114|438:128,1,68.1449986482468,2|0,0:0|1:0,0:0:0:0:
306,66,57258,2,0,P|337:78|359:103,2,68.1449986482468,2|0|0,0:0|1:0|0:0,0:0:0:0:
222,128,57831,1,0,1:0:0:0:
222,128,58022,2,0,L|145:138,1,68.1449986482468,0|0,0:0|1:0,0:0:0:0:
90,58,58405,1,0,0:0:0:0:
2,163,58596,5,0,1:0:0:0:
2,163,58787,2,0,P|24:195|29:238,1,68.1449986482468,0|0,0:0|1:0,0:0:0:0:
106,299,59169,1,2,0:0:0:0:
212,213,59360,1,2,1:0:0:0:
212,213,59551,2,0,P|190:245|185:288,1,68.1449986482468,2|0,0:0|1:0,0:0:0:0:
146,157,59933,2,0,P|168:189|173:232,1,68.1449986482468,2|0,0:0|1:0,0:0:0:0:
248,114,60315,2,0,P|226:146|221:189,1,68.1449986482468,2|0,0:0|1:0,0:0:0:0:
150,57,60698,2,0,P|114:38|71:33,1,68.1449986482468,2|0,0:0|1:0,0:0:0:0:
24,120,61080,1,2,0:0:0:0:
78,245,61271,1,2,1:0:0:0:
78,245,61462,1,2,0:0:0:0:
139,142,61653,6,0,P|99:211|99:274,1,136.289997296494,2|0,1:0|1:0,0:0:0:0:
229,341,62226,1,2,0:0:0:0:
229,341,62417,2,0,P|287:303|374:285,1,136.289997296494,2|0,1:0|1:0,0:0:0:0:
437,351,62991,1,0,0:0:0:0:
490,202,63182,1,0,1:0:0:0:
490,202,63373,2,0,P|462:187|403:181,1,68.1449986482468,0|0,0:0|1:0,0:0:0:0:
357,278,63755,1,0,0:0:0:0:
265,151,63946,2,0,L|248:64,1,68.1449986482468,2|0,1:0|0:0,0:0:0:0:
145,214,64328,2,0,L|162:127,1,68.1449986482468,2|0,1:0|0:0,0:0:0:0:
231,13,64710,6,0,P|307:4|355:80,1,136.289997296494,2|0,1:0|1:0,0:0:0:0:
279,175,65284,1,0,0:0:0:0:
279,175,65475,2,0,P|220:119|122:120,1,136.289997296494,2|0,1:0|1:0,0:0:0:0:
74,232,66048,1,0,0:0:0:0:
74,232,66239,2,0,P|104:198|111:112,1,68.1449986482468,2|0,1:0|0:0,0:0:0:0:
234,264,66621,2,0,P|210:239|195:209,1,68.1449986482468,2|0,1:0|0:0,0:0:0:0:
116,327,67003,2,0,P|75:322|35:273,1,68.1449986482468,2|0,1:0|0:0,0:0:0:0:
222,288,67385,2,0,P|255:289|284:307,1,68.1449986482468,2|0,1:0|0:0,0:0:0:0:
424,356,67768,5,2,1:0:0:0:
402,258,67959,2,0,P|393:293|388:364,1,68.1449986482468,2|0,0:0|1:0,0:0:0:0:
316,182,68341,2,0,P|288:160|250:154,1,68.1449986482468,2|0,0:0|1:0,0:0:0:0:
385,243,68723,2,0,P|418:235|444:214,1,68.1449986482468,2|0,0:0|1:0,0:0:0:0:
472,74,69105,1,2,0:0:0:0:
472,74,69296,2,0,P|441:169|440:212,2,136.289997296494,0|0|0,1:0|1:0|1:0,0:0:0:0:
345,38,70252,1,2,0:0:0:0:
430,101,70443,1,2,1:0:0:0:
327,144,70634,6,0,P|275:117|228:109,1,68.1449986482468,2|0,0:0|1:0,0:0:0:0:
198,239,71016,2,0,P|249:212|296:204,1,68.1449986482468,2|0,0:0|1:0,0:0:0:0:
144,141,71398,2,0,P|113:106|110:71,1,68.1449986482468,2|0,0:0|1:0,0:0:0:0:
232,22,71780,2,0,P|221:54|196:76,1,68.1449986482468,2|0,0:0|1:0,0:0:0:0:
327,144,72163,1,2,0:0:0:0:
327,144,72354,2,0,P|275:81|263:13,1,136.289997296494,0|0,1:0|1:0,0:0:0:0:
396,95,72927,1,0,0:0:0:0:
396,95,73118,2,0,P|367:129|351:245,1,136.289997296494,2|0,1:0|1:0,0:0:0:0:
483,241,73691,5,0,0:0:0:0:
483,241,73882,2,0,B|403:264|469:297|346:332,1,136.289997296494,2|0,1:0|1:0,0:0:0:0:
253,367,74456,1,2,0:0:0:0:
253,367,74647,2,0,P|199:303|218:226,1,136.289997296494,2|0,1:0|1:0,0:0:0:0:
292,187,75220,1,0,0:0:0:0:
292,187,75411,2,0,P|229:215|128:235,1,136.289997296494,0|0,1:0|1:0,0:0:0:0:
79,136,75984,1,0,0:0:0:0:
79,136,76175,2,0,P|116:153|185:160,1,68.1449986482468,2|0,1:0|0:0,0:0:0:0:
274,185,76557,2,0,P|237:202|168:209,1,68.1449986482468,2|0,1:0|0:0,0:0:0:0:
51,212,76940,6,0,P|72:246|82:301,1,68.1449986482468,6|0,1:0|0:0,0:0:0:0:
39,344,77226,1,8,0:0:0:0:
39,344,77322,2,0,L|81:352,1,34.0724993241234,8|8,0:0|0:0,0:0:0:0:
170,306,77513,2,0,L|203:299,1,34.0724993241234,8|8,0:0|0:0,0:0:0:0:
315,347,77704,2,0,P|342:315|349:274,1,68.1449986482468,2|0,1:0|0:0,0:0:0:0:
298,228,77991,1,8,0:0:0:0:
298,228,78086,2,0,L|293:179,1,34.0724993241234,8|8,0:0|0:0,0:0:0:0:
385,131,78277,2,0,L|390:82,1,34.0724993241234,8|8,0:0|0:0,0:0:0:0:
274,22,78468,5,2,1:0:0:0:
178,154,78659,1,8,0:0:0:0:
301,142,78850,1,0,1:0:0:0:
201,127,79042,1,0,1:0:0:0:
223,306,79233,2,0,P|200:335|143:352,1,68.1449986482468,10|0,0:0|0:0,0:0:0:0:
97,308,79519,1,8,0:0:0:0:
97,308,79615,2,0,P|110:285|110:253,1,34.0724993241234,8|8,0:0|0:0,0:0:0:0:
24,203,79806,2,0,P|11:180|11:148,1,34.0724993241234,8|8,0:0|0:0,0:0:0:0:
109,37,79997,5,6,1:0:0:0:
89,66,86112,6,0,B|65:27|34:19|34:19|283:81|11:244|290:314,1,511.087489861851,4|0,1:0|0:0,0:0:0:0:
419,348,87640,6,0,B|424:378|505:326|470:272|383:138|318:390|148:237|212:139,1,408.869991889481,4|0,1:0|0:0,0:0:0:0:
342,69,88978,1,8,0:0:0:0:
338,90,89073,1,8,0:0:0:0:
334,113,89169,1,12,0:2:0:0:
263,179,89360,1,8,0:0:0:0:
233,85,89551,1,8,0:0:0:0:
183,233,89742,1,8,0:0:0:0:
282,164,89933,1,8,0:0:0:0:
123,130,90124,1,8,0:0:0:0:
195,256,90315,1,8,0:0:0:0:
244,63,90506,1,8,0:0:0:0:
30,179,90698,6,0,P|50:216|59:265,1,85.8450020303307,8|8,0:0|0:0,0:0:0:0:
248,347,91080,1,8,0:0:0:0:
102,263,91271,1,8,0:0:0:0:
300,220,91462,1,8,0:0:0:0:
102,138,91653,1,8,0:0:0:0:
333,47,91844,1,8,0:0:0:0:
113,18,92035,1,8,0:0:0:0:
274,226,92226,6,0,P|236:159|236:31,1,189.389994220276,6|8,1:0|0:0,0:0:0:0:
137,263,92799,2,0,P|17:236|7:147,1,189.389994220276,0|0,1:0|1:0,0:0:0:0:
167,42,93373,2,0,P|209:79|233:164,1,142.042495665207,10|0,0:0|0:0,0:0:0:0:
215,187,93755,1,2,0:0:0:0:
290,3,93946,1,0,1:0:0:0:
359,244,94137,2,0,P|442:254|506:201,1,142.042495665207,8|0,0:0|0:0,0:0:0:0:
509,148,94519,2,0,P|475:99|468:49,1,94.694997110138,0|0,1:0|1:0,0:0:0:0:
438,285,94901,1,10,0:0:0:0:
321,117,95092,1,2,0:0:0:0:
200,343,95284,6,0,P|86:378|32:320,1,189.389994220276,6|8,1:0|0:0,0:0:0:0:
35,123,95857,2,0,P|98:221|102:303,1,189.389994220276,0|0,1:0|1:0,0:0:0:0:
196,24,96430,2,0,P|133:122|129:204,1,189.389994220276,10|0,0:0|0:0,0:0:0:0:
282,288,97003,1,2,1:0:0:0:
358,70,97194,1,10,0:0:0:0:
172,129,97385,1,2,0:0:0:0:
398,239,97577,1,2,1:0:0:0:
268,98,97768,1,2,1:0:0:0:
166,326,97959,1,10,0:0:0:0:
178,343,98341,6,0,B|300:306|226:264|334:235,1,189.389994220276,6|8,1:0|0:0,0:0:0:0:
30,135,98914,2,0,B|152:172|78:214|186:243,1,189.389994220276,0|0,1:0|1:0,0:0:0:0:
420,248,99487,2,0,P|417:151|350:120,1,142.042495665207,10|0,0:0|0:0,0:0:0:0:
357,125,99870,1,2,0:0:0:0:
262,313,100061,1,0,1:0:0:0:
189,61,100252,2,0,P|144:113|156:181,1,142.042495665207,8|0,0:0|0:0,0:0:0:0:
181,194,100634,1,2,1:0:0:0:
285,59,100825,1,0,1:0:0:0:
171,280,101016,2,0,P|120:273|84:202,1,94.694997110138,8|0,0:0|0:0,0:0:0:0:
331,135,101398,6,0,B|349:110|349:110|349:193|397:270,1,189.389994220276,6|8,1:0|0:0,0:0:0:0:
151,359,101971,2,0,B|169:384|169:384|169:301|217:224,1,189.389994220276,2|0,1:0|1:0,0:0:0:0:
419,346,102545,2,0,P|382:306|366:248,1,94.694997110138,10|0,0:0|0:0,0:0:0:0:
448,88,102927,6,0,P|419:126|351:143,1,94.694997110138,2|0,0:0|1:0,0:0:0:0:
190,37,103309,1,8,0:0:0:0:
241,242,103500,1,10,0:0:0:0:
375,60,103691,1,0,1:0:0:0:
217,135,103882,1,8,3:0:0:0:
354,231,104073,1,10,3:0:0:0:
298,96,104264,1,8,3:0:0:0:
173,339,104456,6,0,B|80:358|19:273|19:273|39:266,1,189.389994220276,6|8,1:0|0:0,0:0:0:0:
353,352,105029,2,0,B|445:331|466:229|466:229|445:230,1,189.389994220276,0|0,1:0|1:0,0:0:0:0:
205,218,105602,2,0,P|263:272|347:272,1,142.042495665207,10|0,0:0|0:0,0:0:0:0:
336,257,105984,1,2,0:0:0:0:
253,83,106175,1,0,1:0:0:0:
167,295,106366,2,0,P|152:188|120:119,1,142.042495665207,8|0,0:0|0:0,0:0:0:0:
74,122,106749,2,0,P|104:78|155:67,1,94.694997110138,0|0,1:0|1:0,0:0:0:0:
316,233,107131,1,10,0:0:0:0:
168,140,107322,1,2,0:0:0:0:
369,4,107513,6,0,B|485:32|404:99|547:124,1,189.389994220276,6|8,1:0|0:0,0:0:0:0:
224,238,108086,2,0,B|340:210|259:143|402:118,1,189.389994220276,0|0,1:0|1:0,0:0:0:0:
512,348,108659,2,0,P|452:283|345:245,1,189.389994220276,10|0,0:0|0:0,0:0:0:0:
195,136,109233,1,2,1:0:0:0:
119,339,109424,1,10,0:0:0:0:
270,252,109615,1,2,0:0:0:0:
48,143,109806,1,2,1:0:0:0:
195,296,109997,1,2,1:0:0:0:
285,54,110188,1,10,0:0:0:0:
262,39,110570,6,0,P|273:123|284:239,1,189.389994220276,6|8,1:0|0:0,0:0:0:0:
89,368,111143,2,0,P|100:283|111:168,1,189.389994220276,0|0,1:0|1:0,0:0:0:0:
285,354,111717,2,0,P|334:384|409:352,1,142.042495665207,10|0,0:0|0:0,0:0:0:0:
408,325,112099,1,2,0:0:0:0:
475,151,112290,1,0,1:0:0:0:
267,357,112481,2,0,P|258:262|245:193,1,142.042495665207,8|0,0:0|0:0,0:0:0:0:
193,168,112863,1,2,1:0:0:0:
349,54,113054,1,0,1:0:0:0:
86,25,113245,2,0,P|75:70|71:130,1,94.694997110138,8|0,0:0|0:0,0:0:0:0:
161,319,113628,6,0,B|224:254|310:247|310:247|291:244|276:227,1,189.389994220276,6|8,1:0|0:0,0:0:0:0:
176,40,114201,2,0,B|239:105|325:112|325:112|306:115|291:132,1,189.389994220276,2|0,1:0|1:0,0:0:0:0:
160,285,114774,1,10,0:0:0:0:
256,63,114965,1,8,0:0:0:0:
328,229,115156,1,2,0:0:0:0:
405,17,115347,1,0,1:0:0:0:
326,110,115538,1,8,0:0:0:0:
329,136,115634,1,8,0:0:0:0:
332,162,115729,1,10,0:0:0:0:
335,189,115825,1,8,0:0:0:0:
339,216,115921,1,0,1:0:0:0:
441,340,116112,1,0,1:0:0:0:
502,191,116303,1,0,1:0:0:0:
422,321,116494,1,8,3:0:0:0:
483,172,116685,6,0,L|463:14,2,151.334998152649,2|10|8,1:0|0:0|0:0,0:0:0:0:
389,264,118022,2,0,L|319:255,1,50.4449993842163,0|0,0:0|1:0,0:0:0:0:
251,171,118405,2,0,L|200:177,1,50.4449993842163,0|0,0:0|1:0,0:0:0:0:
96,304,118787,2,0,L|146:310,1,50.4449993842163,8|0,0:0|1:0,0:0:0:0:
94,216,119169,1,0,0:0:0:0:
173,106,119360,6,0,L|176:80,4,25.2224996921082,8|8|8|8|0,0:0|3:0|3:0|3:0|1:0,0:0:0:0:
269,24,119933,2,0,L|279:94,1,50.4449993842163,0|0,0:0|1:0,0:0:0:0:
413,174,120315,2,0,L|403:244,1,50.4449993842163,8|0,0:0|1:0,0:0:0:0:
348,122,120698,1,0,1:0:0:0:
316,310,120889,1,8,0:0:0:0:
316,310,121080,2,0,P|294:324|260:324,1,50.4449993842163,0|0,1:0|0:0,0:0:0:0:
190,239,121462,2,0,P|214:241|235:255,1,50.4449993842163
88,323,121844,2,0,P|111:273|111:219,1,100.889998768433
12,114,122417,1,8,3:0:0:0:
26,136,122799,5,4,1:0:0:0:
26,136,122991,2,0,L|100:150,1,68.1449986482468,0|0,0:0|1:0,0:0:0:0:
201,282,123373,1,10,0:0:0:0:
285,175,123564,1,2,1:0:0:0:
285,175,123755,2,0,L|211:189,1,68.1449986482468,2|8,0:0|0:0,0:0:0:0:
125,283,124137,2,0,L|191:295,1,68.1449986482468,2|0,0:0|1:0,0:0:0:0:
324,318,124519,2,0,L|390:305,1,68.1449986482468,2|0,0:0|1:0,0:0:0:0:
447,106,124901,1,8,0:0:0:0:
399,206,125092,1,0,1:0:0:0:
399,206,125284,2,0,L|332:218,1,68.1449986482468,0|8,0:0|0:0,0:0:0:0:
248,149,125666,1,0,0:0:0:0:
354,48,125857,5,0,1:0:0:0:
354,48,126048,2,0,L|346:119,1,68.1449986482468,0|0,0:0|1:0,0:0:0:0:
195,20,126430,1,10,0:0:0:0:
273,138,126621,1,2,1:0:0:0:
273,138,126812,2,0,L|281:209,1,68.1449986482468,2|8,0:0|0:0,0:0:0:0:
192,47,127194,2,0,L|184:118,1,68.1449986482468,2|0,0:0|1:0,0:0:0:0:
303,137,127577,2,0,L|311:208,1,68.1449986482468,2|0,0:0|1:0,0:0:0:0:
155,317,127959,2,0,L|162:249,1,68.1449986482468,10|0,0:0|1:0,0:0:0:0:
266,161,128341,1,2,0:0:0:0:
362,348,128532,1,10,0:0:0:0:
362,348,128723,1,2,0:0:0:0:
416,200,128914,6,0,B|418:280|372:245|372:357,1,136.289997296494,2|0,1:0|1:0,0:0:0:0:
304,147,129487,1,10,0:0:0:0:
304,147,129678,2,0,P|333:189|348:295,1,136.289997296494,2|8,1:0|0:0,0:0:0:0:
249,310,130252,1,0,0:0:0:0:
169,197,130443,1,0,1:0:0:0:
169,197,130634,2,0,P|146:222|99:222,1,68.1449986482468,0|0,0:0|1:0,0:0:0:0:
2,59,131016,1,8,0:0:0:0:
26,207,131207,2,0,L|35:123,1,68.1449986482468,2|0,1:0|0:0,0:0:0:0:
185,205,131589,2,0,L|176:121,1,68.1449986482468,10|0,0:0|0:0,0:0:0:0:
330,301,131971,6,0,L|348:129,1,136.289997296494,2|0,1:0|1:0,0:0:0:0:
438,16,132545,1,8,0:0:0:0:
438,16,132736,2,0,L|452:151,1,136.289997296494,2|8,1:0|0:0,0:0:0:0:
314,213,133309,1,0,0:0:0:0:
314,213,133500,2,0,P|291:193|249:184,1,68.1449986482468,2|0,1:0|0:0,0:0:0:0:
190,313,133882,2,0,P|213:293|255:284,1,68.1449986482468,2|8,1:0|0:0,0:0:0:0:
319,206,134264,2,0,P|296:186|254:177,1,68.1449986482468,2|0,1:0|0:0,0:0:0:0:
193,323,134646,2,0,P|216:303|258:294,1,68.1449986482468,10|8,0:0|0:0,0:0:0:0:
121,217,135029,5,2,1:0:0:0:
121,217,135220,2,0,P|112:171|109:123,1,68.1449986482468,2|8,0:0|0:0,0:0:0:0:
240,90,135602,2,0,P|246:56|250:22,1,68.1449986482468,2|0,0:0|1:0,0:0:0:0:
351,164,135984,2,0,P|383:186|428:184,1,68.1449986482468,2|8,0:0|0:0,0:0:0:0:
317,76,136366,1,2,0:0:0:0:
317,76,136557,2,0,P|283:80|231:162,2,136.289997296494,0|8|0,1:0|0:0|1:0,0:0:0:0:
404,173,137513,1,2,0:0:0:0:
270,300,137704,5,10,0:0:0:0:
270,300,137895,2,0,P|236:304|203:312,1,68.1449986482468,2|0,0:0|1:0,0:0:0:0:
156,198,138277,1,2,0:0:0:0:
281,321,138468,1,10,0:0:0:0:
281,321,138659,2,0,P|315:325|348:333,1,68.1449986482468,2|0,0:0|1:0,0:0:0:0:
443,231,139042,1,2,0:0:0:0:
300,129,139233,1,10,0:0:0:0:
300,129,139424,2,0,P|317:164|325:217,1,68.1449986482468,2|0,0:0|1:0,0:0:0:0:
445,95,139806,2,0,P|428:130|420:183,1,68.1449986482468,0|8,0:0|0:0,0:0:0:0:
283,62,140188,1,0,0:0:0:0:
283,62,140379,2,0,P|310:88|416:52,1,136.289997296494,2|8,1:0|0:0,0:0:0:0:
211,15,140952,5,0,0:0:0:0:
211,15,141143,2,0,P|247:50|261:135,1,136.289997296494,2|8,1:0|0:0,0:0:0:0:
154,227,141717,1,2,0:0:0:0:
154,227,141908,2,0,P|123:209|76:196,1,68.1449986482468,2|0,1:0|0:0,0:0:0:0:
227,343,142290,1,8,0:0:0:0:
227,343,142481,2,0,P|259:332|288:314,1,68.1449986482468,0|0,0:0|1:0,0:0:0:0:
348,229,142863,2,0,P|329:294|321:394,1,136.289997296494
429,252,143436,2,0,P|462:229|508:228,1,68.1449986482468,2|0,1:0|0:0,0:0:0:0:
340,326,143819,2,0,P|306:319|280:298,1,68.1449986482468,10|0,0:0|0:0,0:0:0:0:
238,129,144201,6,0,B|326:162|250:186|356:225,1,136.289997296494,6|0,1:0|0:0,0:0:0:0:
402,106,144774,1,10,0:0:0:0:
402,106,144870,1,8,0:0:0:0:
402,106,144965,2,0,P|388:117|376:146,1,34.0724993241234,10|8,3:0|3:0,0:0:0:0:
435,223,145156,2,0,P|425:208|412:198,1,34.0724993241234,8|8,3:0|3:0,0:0:0:0:
270,178,145347,1,8,0:0:0:0:
252,193,145442,1,8,0:0:0:0:
230,204,145538,1,8,0:0:0:0:
207,209,145633,1,8,0:0:0:0:
183,207,145729,2,0,P|172:183|172:158,1,34.0724993241234,10|8,3:0|3:0,0:0:0:0:
236,74,145921,2,0,P|231:90|223:105,1,34.0724993241234,8|8,0:0|3:0,0:0:0:0:
88,112,146112,2,0,P|105:99|134:93,3,34.0724993241234,0|8|10|0,3:0|3:0|3:0|0:0,0:0:0:0:
90,220,146494,1,10,0:0:0:0:
422,352,146876,5,8,0:0:0:0:
425,324,146971,1,8,0:0:0:0:
429,297,147067,1,8,0:0:0:0:
432,270,147162,1,8,0:0:0:0:
436,243,147258,2,0,P|430:178|298:152,1,189.389994220276,6|8,1:0|0:0,0:0:0:0:
163,331,147831,2,0,P|75:310|53:223,1,189.389994220276,0|0,1:0|1:0,0:0:0:0:
238,87,148405,2,0,P|286:122|286:235,1,142.042495665207,10|0,0:0|0:0,0:0:0:0:
281,221,148787,1,2,0:0:0:0:
386,77,148978,1,0,1:0:0:0:
179,193,149169,2,0,P|109:134|25:134,1,142.042495665207,8|0,0:0|0:0,0:0:0:0:
13,189,149551,2,0,P|44:224|61:278,1,94.694997110138,0|0,1:0|1:0,0:0:0:0:
269,135,149933,1,10,0:0:0:0:
295,310,150124,1,2,0:0:0:0:
354,89,150315,6,0,P|421:66|503:170,1,189.389994220276,6|8,1:0|0:0,0:0:0:0:
286,321,150889,2,0,P|238:270|98:243,1,189.389994220276,0|0,1:0|1:0,0:0:0:0:
397,156,151462,2,0,P|328:219|236:238,1,189.389994220276,10|0,0:0|0:0,0:0:0:0:
142,94,152035,1,2,1:0:0:0:
362,146,152226,1,10,0:0:0:0:
201,305,152417,1,2,0:0:0:0:
307,79,152608,1,2,1:0:0:0:
456,258,152799,1,2,1:0:0:0:
188,275,152991,1,10,0:0:0:0:
178,251,153373,6,0,B|62:211|163:164|12:128,1,189.389994220276,6|8,1:0|0:0,0:0:0:0:
328,50,153946,2,0,B|212:90|313:137|162:173,1,189.389994220276,0|0,1:0|1:0,0:0:0:0:
412,292,154519,2,0,P|348:209|348:130,1,142.042495665207,10|0,0:0|0:0,0:0:0:0:
357,151,154901,1,2,0:0:0:0:
236,316,155092,1,0,1:0:0:0:
191,97,155284,2,0,P|132:56|54:47,1,142.042495665207,8|0,0:0|0:0,0:0:0:0:
29,138,155666,2,0,P|82:119|133:145,1,94.694997110138,2|0,1:0|1:0,0:0:0:0:
232,291,156048,2,0,P|274:309|319:298,1,94.694997110138,8|0,0:0|0:0,0:0:0:0:
455,87,156430,6,0,P|430:166|418:265,1,142.042495665207,6|0,1:0|0:0,0:0:0:0:
465,298,156812,1,8,0:0:0:0:
362,60,157003,2,0,P|387:139|398:258,1,189.389994220276,2|0,1:0|1:0,0:0:0:0:
232,53,157577,2,0,P|213:99|204:194,1,142.042495665207,10|0,0:0|0:0,0:0:0:0:
244,260,157959,2,0,P|207:219|129:201,1,94.694997110138,2|0,0:0|1:0,0:0:0:0:
295,359,158341,1,8,0:0:0:0:
386,137,158532,1,10,0:0:0:0:
203,190,158723,1,0,1:0:0:0:
383,277,158914,1,8,3:0:0:0:
287,128,159105,1,10,3:0:0:0:
251,280,159296,1,8,3:0:0:0:
81,106,159487,6,0,B|83:88|97:73|97:73|146:128|146:218,1,189.389994220276,6|8,1:0|0:0,0:0:0:0:
383,71,160061,2,0,B|381:53|367:38|367:38|318:93|318:183,1,189.389994220276,0|0,1:0|1:0,0:0:0:0:
462,350,160634,2,0,P|411:266|408:154,1,189.389994220276,10|0,0:0|0:0,0:0:0:0:
276,331,161207,1,0,1:0:0:0:
207,141,161398,2,0,P|174:184|140:339,1,189.389994220276,8|0,0:0|1:0,0:0:0:0:
251,252,161971,1,0,1:0:0:0:
163,57,162163,1,10,0:0:0:0:
110,221,162354,1,2,0:0:0:0:
315,59,162545,6,0,P|423:25|515:23,1,189.389994220276,6|8,1:0|0:0,0:0:0:0:
426,314,163118,2,0,P|318:280|226:278,1,189.389994220276,0|0,1:0|1:0,0:0:0:0:
60,119,163691,2,0,P|139:92|210:191,1,189.389994220276,10|0,0:0|0:0,0:0:0:0:
166,309,164264,1,2,1:0:0:0:
88,150,164456,1,10,0:0:0:0:
274,181,164647,1,2,0:0:0:0:
36,241,164838,1,2,1:0:0:0:
151,47,165029,1,2,1:0:0:0:
328,243,165220,1,10,0:0:0:0:
317,222,165602,6,0,B|291:235|278:260|278:260|223:194|127:221,1,189.389994220276,6|8,1:0|0:0,0:0:0:0:
6,350,166175,2,0,B|34:356|53:377|53:377|90:300|190:303,1,189.389994220276,0|0,1:0|1:0,0:0:0:0:
401,374,166749,2,0,P|361:341|247:350,1,142.042495665207,10|0,0:0|0:0,0:0:0:0:
256,361,167131,1,2,0:0:0:0:
109,188,167322,1,0,1:0:0:0:
367,111,167513,2,0,P|343:153|335:213,1,94.694997110138,8|0,0:0|0:0,0:0:0:0:
185,277,167895,1,2,1:0:0:0:
243,91,168086,1,0,0:0:0:0:
364,299,168277,2,0,P|453:317|492:278,1,142.042495665207,8|0,0:0|0:0,0:0:0:0:
460,216,168659,6,0,P|437:115|423:26,1,189.389994220276,6|8,1:0|0:0,0:0:0:0:
339,243,169233,2,0,P|230:317|160:273,1,189.389994220276,2|0,1:0|1:0,0:0:0:0:
86,128,169806,1,10,0:0:0:0:
25,301,169997,1,8,0:0:0:0:
137,211,170188,1,2,0:0:0:0:
293,343,170379,1,0,1:0:0:0:
373,177,170570,2,0,P|358:149|355:121,1,47.347498555069,8|8,0:0|0:0,0:0:0:0:
223,279,170761,1,10,0:0:0:0:
223,279,170857,1,8,0:0:0:0:
223,279,170952,2,0,P|238:251|241:223,1,47.347498555069,0|0,1:0|0:0,0:0:0:0:
189,78,171143,1,0,1:0:0:0:
361,197,171335,1,0,1:0:0:0:
218,160,171526,1,8,3:0:0:0:
312,74,171717,6,0,B|392:17|486:86|486:86|459:77|420:96,2,249.569996191864,2|2|0,0:0|0:0|0:0,0:0:0:0:
288,157,174583,5,0,1:0:0:0:
196,27,174774,6,0,B|70:60|166:124|39:139|39:139|43:115|82:109,1,249.569996191864,2|2,1:0|0:0,0:0:0:0:
150,188,176303,5,0,0:0:0:0:
150,188,176494,2,0,L|200:174,2,41.5949993653107,2|2|2,0:0|0:0|0:0,0:0:0:0:
241,252,177067,5,2,0:0:0:0:
168,288,177258,1,2,1:0:0:0:
92,187,177449,5,2,1:0:0:0:
171,204,177640,1,2,1:0:0:0:
298,153,177831,6,0,B|374:227|346:319|346:319|359:276|405:267,2,249.569996191864,2|2|0,1:0|0:0|0:0,0:0:0:0:
190,198,180506,5,2,0:0:0:0:
168,273,180698,1,0,1:0:0:0:
56,124,180889,6,0,P|134:186|227:90,2,249.569996191864,2|2|0,1:0|0:0|0:0,0:0:0:0:
115,28,183373,1,0,0:0:0:0:
162,11,183564,1,0,0:0:0:0:
231,21,183755,1,0,1:0:0:0:
392,134,183946,5,6,1:0:0:0:
376,147,184041,1,0,0:0:0:0:
363,163,184137,1,0,0:0:0:0:
355,181,184232,1,0,0:0:0:0:
351,201,184328,1,8,2:0:0:0:
351,222,184423,1,0,0:0:0:0:
355,241,184519,2,0,L|205:217,1,136.289997296494,0|8,1:0|2:0,0:0:0:0:
43,152,185092,5,2,1:0:0:0:
59,165,185187,1,0,0:0:0:0:
72,181,185283,1,0,0:0:0:0:
80,199,185378,1,0,0:0:0:0:
84,219,185474,1,8,2:0:0:0:
84,240,185569,1,0,0:0:0:0:
80,259,185665,2,0,L|117:253,1,34.0724993241234,0|0,1:0|0:0,0:0:0:0:
220,293,185857,2,0,L|182:287,1,34.0724993241234,8|0,0:0|0:0,0:0:0:0:
264,198,186048,1,0,0:0:0:0:
334,288,186239,1,0,1:0:0:0:
264,198,186430,2,0,L|206:212,5,34.0724993241234,8|0|0|0|0|0,2:0|0:0|0:0|0:0|0:0|0:0,0:0:0:0:
192,64,187003,5,6,1:0:0:0:
215,67,187098,1,0,0:0:0:0:
239,71,187194,1,0,0:0:0:0:
262,75,187289,1,0,0:0:0:0:
286,79,187385,1,8,2:0:0:0:
309,83,187480,1,0,0:0:0:0:
333,87,187576,1,0,1:0:0:0:
142,300,187959,1,8,2:0:0:0:
181,190,188150,2,0,L|188:242,3,34.0724993241234,2|0|0|0,1:0|0:0|0:0|0:0,0:0:0:0:
258,263,188532,5,0,0:0:0:0:
345,315,188723,1,2,1:0:0:0:
459,206,188914,1,10,2:0:0:0:
360,234,189105,1,2,0:0:0:0:
271,130,189296,1,2,1:0:0:0:
370,158,189487,1,10,2:0:0:0:
483,54,189678,2,0,L|424:71,1,34.0724993241234,10|0,2:0|0:0,0:0:0:0:
283,39,189870,2,0,L|342:56,1,34.0724993241234,10|8,2:0|2:0,0:0:0:0:
259,210,190061,5,6,1:0:0:0:
247,185,190156,1,0,0:0:0:0:
231,164,190252,1,0,0:0:0:0:
210,146,190347,1,0,0:0:0:0:
187,132,190443,1,8,2:0:0:0:
162,123,190538,1,0,0:0:0:0:
135,119,190634,2,0,P|167:189|178:280,1,153.990001292336,0|8,1:0|2:0,0:0:0:0:
318,353,191207,2,0,P|285:322|238:322,1,76.9950006461678,2|8,1:0|2:0,0:0:0:0:
182,360,191494,5,8,2:0:0:0:
182,360,191589,2,0,P|165:379|129:379,3,38.4975003230839,0|0|0|0,0:0|0:0|1:0|0:0,0:0:0:0:
104,313,191971,1,8,0:0:0:0:
154,203,192163,1,0,0:0:0:0:
238,294,192354,1,0,1:0:0:0:
288,184,192545,1,8,2:0:0:0:
288,184,192640,1,0,0:0:0:0:
288,184,192736,2,0,L|279:129,1,38.4975003230839,2|0,0:0|0:0,0:0:0:0:
143,188,192927,2,0,L|152:133,1,38.4975003230839,0|8,0:0|2:0,0:0:0:0:
63,23,193118,5,6,1:0:0:0:
91,34,193213,1,0,0:0:0:0:
112,54,193309,1,0,0:0:0:0:
124,83,193404,1,0,0:0:0:0:
124,114,193500,1,8,0:0:0:0:
59,235,193691,1,0,1:0:0:0:
44,101,193882,2,0,P|69:142|69:252,1,153.990001292336,10|0,0:0|1:0,0:0:0:0:
223,75,194456,5,8,2:0:0:0:
223,75,194551,1,8,2:0:0:0:
223,75,194647,2,0,L|213:137,3,42.9225010151654,2|0|0|0,1:0|0:0|0:0|0:0,0:0:0:0:
312,183,195029,2,0,L|322:245,1,42.9225010151654,8|0,0:0|0:0,0:0:0:0:
429,312,195220,1,0,3:0:0:0:
429,312,195315,1,0,3:0:0:0:
429,312,195411,2,0,L|419:374,1,42.9225010151654,2|0,0:0|0:0,0:0:0:0:
451,186,195602,1,8,2:0:0:0:
334,321,195793,5,0,0:0:0:0:
308,336,195888,1,0,0:0:0:0:
278,338,195984,1,0,0:0:0:0:
251,326,196079,1,0,0:0:0:0:
232,303,196175,2,0,P|179:249|60:216,1,171.690004060661,6|8,1:0|0:0,0:0:0:0:
312,139,196749,2,0,P|259:193|140:226,1,171.690004060661,2|0,1:0|1:0,0:0:0:0:
187,47,197322,2,0,P|240:101|359:134,1,171.690004060661,10|2,0:0|0:0,0:0:0:0:
435,52,197895,1,2,1:0:0:0:
395,279,198086,2,0,P|349:193|349:105,1,171.690004060661,10|2,0:0|1:0,0:0:0:0:
486,174,198659,1,2,1:0:0:0:
336,338,198850,1,10,0:0:0:0:
313,329,199233,5,6,1:0:0:0:
124,107,199615,1,8,0:0:0:0:
57,291,199806,2,0,P|88:254|234:215,1,171.690004060661,2|0,1:0|1:0,0:0:0:0:
0,63,200379,2,0,P|31:100|177:139,1,171.690004060661,10|0,0:0|0:0,0:0:0:0:
318,50,200952,1,2,1:0:0:0:
467,192,201143,2,0,P|436:256|360:270,1,128.767503045496,10|0,0:0|0:0,0:0:0:0:
321,232,201526,1,2,1:0:0:0:
239,14,201717,1,2,1:0:0:0:
244,272,201908,2,0,P|215:317|144:339,1,128.767503045496,10|0,0:0|0:0,0:0:0:0:
88,284,202290,6,0,P|124:226|124:142,1,128.767503045496,6|0,1:0|0:0,0:0:0:0:
78,109,202672,1,8,0:0:0:0:
249,288,202863,2,0,P|328:288|375:204,1,171.690004060661,2|0,1:0|1:0,0:0:0:0:
404,54,203436,2,0,P|325:54|278:138,1,171.690004060661,10|2,0:0|0:0,0:0:0:0:
357,303,204010,1,2,1:0:0:0:
199,102,204201,2,0,P|276:186|284:236,1,128.767503045496,10|0,0:0|0:0,0:0:0:0:
247,267,204583,1,2,1:0:0:0:
91,162,204774,1,2,1:0:0:0:
316,27,204965,1,10,0:0:0:0:
333,48,205347,5,6,1:0:0:0:
63,335,205729,1,8,0:0:0:0:
110,144,205921,2,0,B|214:170|137:225|260:255,1,171.690004060661,2|0,1:0|1:0,0:0:0:0:
483,234,206494,2,0,B|379:260|456:315|333:345,1,171.690004060661,10|0,0:0|0:0,0:0:0:0:
254,170,207067,1,0,1:0:0:0:
128,341,207258,1,8,0:0:0:0:
306,257,207449,1,8,0:0:0:0:
133,175,207640,1,0,1:0:0:0:
296,279,207831,1,8,3:0:0:0:
180,267,208022,1,8,3:0:0:0:
269,149,208214,1,8,3:0:0:0:
128,341,208405,6,0,P|61:282|55:176,1,171.690004060661,6|8,1:0|0:0,0:0:0:0:
264,41,208978,2,0,P|247:123|183:177,1,171.690004060661,2|0,1:0|1:0,0:0:0:0:
368,335,209551,2,0,P|303:280|287:198,1,171.690004060661,10|2,0:0|0:0,0:0:0:0:
412,98,210124,1,2,1:0:0:0:
184,11,210315,2,0,P|149:38|79:38,1,85.8450020303307,10|0,0:0|0:0,0:0:0:0:
311,190,210698,1,2,1:0:0:0:
265,44,210889,1,2,1:0:0:0:
181,231,211080,2,0,P|139:223|105:196,1,85.8450020303307,10|0,0:0|0:0,0:0:0:0:
279,72,211462,6,0,P|263:169|263:266,1,171.690004060661,6|8,1:0|0:0,0:0:0:0:
79,14,212035,2,0,P|95:111|95:208,1,171.690004060661,2|0,1:0|1:0,0:0:0:0:
301,65,212608,2,0,P|285:162|285:259,1,171.690004060661,10|0,0:0|0:0,0:0:0:0:
409,344,213182,1,2,1:0:0:0:
210,274,213373,1,10,0:0:0:0:
191,281,213755,5,2,1:0:0:0:
384,184,213946,1,2,1:0:0:0:
108,93,214137,1,10,0:0:0:0:
87,85,214519,5,6,1:0:0:0:
413,195,214901,1,8,0:0:0:0:
280,32,215092,2,0,P|224:77|224:158,1,128.767503045496,2|0,1:0|0:0,0:0:0:0:
275,182,215475,1,0,1:0:0:0:
31,163,215666,2,0,P|87:208|87:289,1,128.767503045496,10|0,0:0|0:0,0:0:0:0:
81,286,216048,5,2,0:0:0:0:
250,197,216239,1,2,1:0:0:0:
65,78,216430,1,10,0:0:0:0:
86,88,216812,5,2,1:0:0:0:
195,282,217003,1,2,1:0:0:0:
336,42,217194,1,10,0:0:0:0:
319,59,217577,6,0,B|207:72|279:128|167:142,1,171.690004060661,6|8,1:0|0:0,0:0:0:0:
252,352,218150,2,0,B|140:338|212:282|100:268,1,171.690004060661,2|0,1:0|1:0,0:0:0:0:
316,133,218723,1,10,0:0:0:0:
247,272,218914,1,8,0:0:0:0:
247,272,219105,2,0,L|231:167,1,85.8450020303307,0|0,0:0|1:0,0:0:0:0:
387,62,219487,1,8,0:0:0:0:
424,42,219582,1,8,0:0:0:0:
466,47,219678,1,8,0:0:0:0:
499,73,219773,1,8,0:0:0:0:
512,113,219869,1,0,1:0:0:0:
412,325,220061,1,2,1:0:0:0:
275,158,220252,1,10,0:0:0:0:
478,197,220443,1,10,0:0:0:0:
345,244,220634,6,0,B|270:290|199:222|199:222|161:259|104:253,1,249.569996191864,6|2,1:0|0:0,0:0:0:0:
112,178,222163,6,0,P|135:178|153:159,2,41.5949993653107
335,111,223309,6,0,P|312:111|294:92,1,41.5949993653107,2|2,0:0|0:0,0:0:0:0:
326,26,223691,2,0,B|465:38|362:149|530:168,1,249.569996191864,2|2,0:0|0:0,0:0:0:0:
470,235,225411,5,2,0:0:0:0:
470,235,225602,2,0,P|445:235|418:244,1,41.5949993653107,2|2,0:0|0:0,0:0:0:0:
366,290,225984,2,0,P|341:290|314:281,2,41.5949993653107,2|2|2,0:0|0:0|0:0,0:0:0:0:
339,212,226557,1,2,0:0:0:0:
260,237,226749,5,2,0:0:0:0:
90,150,227513,5,2,0:0:0:0:
90,150,227895,1,2,0:0:0:0:
146,349,228277,5,0,0:0:0:0:
146,349,229042,2,0,P|172:292|172:216,1,124.784998095932,2|0,0:0|0:0,0:0:0:0:
125,165,229806,5,2,0:0:0:0:
125,165,230379,1,2,0:0:0:0:
309,361,230952,6,0,P|314:340|314:319,1,41.5949993653107,2|0,0:0|0:0,0:0:0:0:
263,259,231335,2,0,P|311:216|382:223,2,124.784998095932,2|2|2,0:0|0:0|0:0,0:0:0:0:
223,331,232672,5,0,0:0:0:0:
222,330,232863,2,0,P|161:329|117:288,2,124.784998095932,2|2|2,0:0|0:0|0:0,0:0:0:0:
199,253,234392,6,0,P|181:160|182:58,1,191.160004666992
335,184,236303,5,2,0:0:0:0:
335,184,236494,2,0,P|363:177|385:176,1,47.7900011667481,2|0,0:0|0:0,0:0:0:0:
432,260,237067,2,0,P|408:255|382:252,1,47.7900011667481,2|0,0:0|0:0,0:0:0:0:
335,325,237640,2,0,P|309:332|287:332,1,47.7900011667481,2|0,0:0|0:0,0:0:0:0:
221,277,238214,2,0,L|190:282,3,23.895000583374,2|0|2|0,0:0|0:0|0:0|0:0,0:0:0:0:
279,221,238978,6,0,P|302:184|293:149,2,71.6850017501221,2|2|2,0:0|0:0|0:0,0:0:0:0:
165,68,240506,6,0,B|262:82|201:143|308:159,1,167.265004083618,2|0,0:0|0:0,0:0:0:0:
403,46,242035,1,2,0:0:0:0:
460,187,242417,1,2,0:0:0:0:
460,187,242608,2,0,P|422:142|363:138,1,119.47500291687,2|0,0:0|0:0,0:0:0:0:
337,226,243755,2,0,L|356:300,2,71.6850017501221,2|2|0,0:0|0:0|0:0,0:0:0:0:
255,232,245092,6,0,B|67:208|235:76|25:50|25:50|54:62|62:82,1,361.080002203857,2|0,0:0|0:0,0:0:0:0:
