osu file format v14

[General]
AudioFilename: audio.mp3
AudioLeadIn: 0
PreviewTime: 198458
Countdown: 0
SampleSet: Soft
StackLeniency: 0.7
Mode: 0
LetterboxInBreaks: 0
WidescreenStoryboard: 0

[Editor]
DistanceSpacing: 0.8
BeatDivisor: 3
GridSize: 32
TimelineZoom: 1.4

[Metadata]
Title:Snowy Night
TitleUnicode:Snowy Night
Artist:Akatsuki Records
ArtistUnicode:暁Records
Creator:SMOKELIND
Version:Snowy Heavens
Source:東方天空璋 〜 Hidden Star in Four Seasons.
Tags:Japanese JP Stack TH Touhou Comiket 93 幻想のホワイトトラベラー Illusionary White Traveler 魔法の笠地蔵 The Magic Straw-Hat Jizo 矢田寺 成美 Narumi Yatadera Metamorphosis Winter Comfy
BeatmapID:2242734
BeatmapSetID:1071460

[Difficulty]
HPDrainRate:4.7
CircleSize:3.9
OverallDifficulty:7
ApproachRate:8.7
SliderMultiplier:1.77
SliderTickRate:1

[Events]
//Background and Video events
0,0,"Comfy Sweetie.jpg",0,0
//Break Periods
2,199045,208910
//Storyboard Layer 0 (Background)
//Storyboard Layer 1 (Fail)
//Storyboard Layer 2 (Pass)
//Storyboard Layer 3 (Foreground)
//Storyboard Layer 4 (Overlay)
//Storyboard Sound Samples

[TimingPoints]
652,387.096774193548,4,2,7,27,1,0
652,-129.87012987013,4,2,7,27,0,0
13039,-103.092783505155,4,2,7,77,0,0
25426,-129.87012987013,4,2,7,47,0,0
37813,-114.942528735632,4,2,7,57,0,0
50200,-129.87012987013,4,2,7,57,0,0
71877,-114.942528735632,4,2,7,77,0,0
74974,-85.4700854700855,4,2,7,87,0,0
77684,-129.87012987013,4,2,7,87,0,0
78071,-85.4700854700855,4,2,7,87,0,0
87361,-103.092783505155,4,2,7,77,0,0
99748,-129.87012987013,4,2,7,47,0,0
112135,-114.942528735632,4,2,7,57,0,0
124522,-129.87012987013,4,2,7,57,0,0
146199,-114.942528735632,4,2,7,77,0,0
149296,-85.4700854700855,4,2,7,87,0,0
152006,-129.87012987013,4,2,7,87,0,0
152393,-85.4700854700855,4,2,7,87,0,0
174071,-103.092783505155,4,2,7,57,0,0
186071,-129.87012987013,4,2,7,57,0,0
186458,-103.092783505155,4,2,7,57,0,0
198458,-212.76595744681,4,2,7,57,0,0
198845,-175.438596491228,4,2,7,47,0,0
209684,-175.438596491228,4,2,7,57,0,0
211232,-85.4700854700855,4,2,7,87,0,0
213942,-129.87012987013,4,2,7,87,0,0
214329,-85.4700854700855,4,2,7,87,0,0
223619,-78.7401574803149,4,2,7,87,0,0
224006,-85.4700854700855,4,2,7,87,0,0
226329,-129.87012987013,4,2,7,87,0,0
226716,-85.4700854700855,4,2,7,87,0,0
236006,-78.7401574803149,4,2,7,87,0,0
236393,-85.4700854700855,4,2,7,87,0,0
251490,-93.4579439252336,4,2,7,77,0,0
254587,-103.092783505155,4,2,7,67,0,0
257684,-114.942528735633,4,2,7,57,0,0
260781,-129.870129870131,4,2,7,47,0,0
263877,-175.43859649123,4,2,7,37,0,0
266974,-370.370370370379,4,2,7,27,0,0
270071,-588.235294117668,4,2,7,17,0,0
273168,-588.235294117668,4,2,7,7,0,0

[Colours]
Combo1 : 255,206,247
Combo2 : 255,192,185
Combo3 : 255,215,185
Combo4 : 255,233,185

[HitObjects]
55,280,652,6,0,P|61:256|63:235,1,45.4299990988312,2|0,0:0|0:0,0:0:0:0:
120,140,910,1,0,0:0:0:0:
120,140,1039,2,0,P|138:127|161:124,1,45.4299990988312,2|0,0:0|0:0,0:0:0:0:
266,182,1297,1,0,0:0:0:0:
266,182,1426,2,0,P|234:174|209:159,1,45.4299990988312,2|0,0:0|0:0,0:0:0:0:
310,75,1684,1,0,0:0:0:0:
310,75,1813,2,0,B|361:88|338:120|397:123,1,90.8599981976624,2|0,0:0|0:0,0:0:0:0:
451,11,2200,6,0,P|440:33|436:64,1,45.4299990988312,2|0,0:0|0:0,0:0:0:0:
494,153,2458,1,0,0:0:0:0:
494,153,2587,2,0,P|503:172|509:209,1,45.4299990988312,2|0,0:0|0:0,0:0:0:0:
387,247,2845,1,0,0:0:0:0:
387,247,2974,2,0,P|391:222|402:201,1,45.4299990988312,2|0,0:0|0:0,0:0:0:0:
437,346,3232,1,0,0:0:0:0:
437,346,3361,2,0,P|387:329|346:325,1,90.8599981976624,2|0,0:0|0:0,0:0:0:0:
252,382,3748,6,0,P|267:355|274:322,1,45.4299990988312,2|0,0:0|0:0,0:0:0:0:
200,241,4006,1,0,0:0:0:0:
200,241,4135,2,0,P|176:260|140:262,1,45.4299990988312,2|0,0:0|0:0,0:0:0:0:
219,163,4393,1,0,0:0:0:0:
219,163,4522,2,0,P|240:170|256:185,1,45.4299990988312,2|0,0:0|0:0,0:0:0:0:
342,244,4781,1,0,0:0:0:0:
362,228,4910,2,0,P|365:204|356:173,2,45.4299990988312,2|0|0,0:0|0:0|0:0,0:0:0:0:
389,86,5297,6,0,P|434:69|484:89,1,90.8599981976624,2|0,0:0|0:0,0:0:0:0:
512,183,5684,2,0,P|507:205|503:227,1,45.4299990988312,2|0,0:0|0:0,0:0:0:0:
433,334,5942,1,0,0:0:0:0:
447,315,6071,2,0,P|443:292|438:270,1,45.4299990988312,2|0,0:0|0:0,0:0:0:0:
304,293,6329,1,0,0:0:0:0:
288,313,6458,2,0,P|265:321|233:320,2,45.4299990988312,2|0|0,0:0|0:0|0:0,0:0:0:0:
125,288,6845,6,0,P|153:238|156:171,1,90.8599981976624,2|0,0:0|0:0,0:0:0:0:
83,111,7232,2,0,P|106:137|149:148,1,45.4299990988312,2|0,0:0|0:0,0:0:0:0:
214,65,7490,1,0,0:0:0:0:
214,65,7619,2,0,P|245:50|289:58,1,45.4299990988312,2|0,0:0|0:0,0:0:0:0:
334,165,7877,1,0,0:0:0:0:
334,165,8006,2,0,P|276:124|241:124,1,90.8599981976624,2|0,0:0|0:0,0:0:0:0:
183,216,8393,6,0,P|181:189|175:159,1,45.4299990988312,2|0,0:0|0:0,0:0:0:0:
99,68,8651,1,0,0:0:0:0:
99,68,8781,2,0,P|118:85|157:86,1,45.4299990988312,2|0,0:0|0:0,0:0:0:0:
228,29,9039,1,0,0:0:0:0:
228,29,9168,2,0,P|278:9|309:9,1,45.4299990988312,2|0,0:0|0:0,0:0:0:0:
369,68,9426,1,0,0:0:0:0:
369,68,9555,2,0,P|336:116|333:176,1,90.8599981976624,2|0,0:0|0:0,0:0:0:0:
396,254,9942,6,0,P|419:237|454:229,1,45.4299990988312,2|0,0:0|0:0,0:0:0:0:
503,142,10200,1,0,0:0:0:0:
503,142,10329,2,0,P|482:133|464:119,1,45.4299990988312,2|0,0:0|0:0,0:0:0:0:
395,236,10587,1,0,0:0:0:0:
395,236,10716,2,0,P|419:220|454:215,1,45.4299990988312,2|0,0:0|0:0,0:0:0:0:
336,313,10974,1,0,0:0:0:0:
321,291,11103,2,0,P|299:278|269:284,2,45.4299990988312,2|0|0,0:0|0:0|0:0,0:0:0:0:
204,327,11490,6,0,P|160:352|127:352,1,45.4299990988312,2|0,0:0|0:0,0:0:0:0:
45,316,11748,1,0,0:0:0:0:
70,297,11877,2,0,P|79:268|83:232,1,45.4299990988312,2|0,0:0|0:0,0:0:0:0:
133,155,12135,1,0,0:0:0:0:
108,136,12264,2,0,P|99:107|95:71,1,45.4299990988312,2|0,0:0|0:0,0:0:0:0:
203,38,12522,1,0,0:0:0:0:
248,100,12651,1,2,0:0:0:0:
274,117,12781,1,0,0:0:0:0:
319,113,12910,1,0,0:0:0:0:
401,61,13039,6,0,P|361:117|361:170,1,114.460002707108,6|0,1:0|0:0,0:0:0:0:
435,302,13426,2,0,P|460:318|495:318,1,57.2300013535538,10|0,0:0|0:0,0:0:0:0:
370,183,13684,1,0,1:0:0:0:
359,213,13813,2,0,P|337:238|291:252,1,57.2300013535538,2|0,0:0|0:0,0:0:0:0:
170,168,14071,1,0,1:0:0:0:
201,173,14200,2,0,P|230:212|230:295,1,114.460002707108,10|0,0:0|0:0,0:0:0:0:
91,374,14587,6,0,P|119:330|122:263,1,114.460002707108,2|0,1:0|0:0,0:0:0:0:
20,167,14974,2,0,P|0:122|0:85,1,57.2300013535538,10|0,0:0|0:0,0:0:0:0:
125,19,15232,1,0,1:0:0:0:
143,46,15361,2,0,P|127:71|119:101,1,57.2300013535538,2|0,0:0|0:0,0:0:0:0:
233,179,15619,1,0,1:0:0:0:
223,150,15748,2,0,P|136:116|79:118,1,114.460002707108,10|0,0:0|0:0,0:0:0:0:
47,306,16135,6,0,P|100:277|179:277,1,114.460002707108,6|0,1:0|0:0,0:0:0:0:
276,370,16522,2,0,P|258:341|255:305,1,57.2300013535538,10|0,0:0|0:0,0:0:0:0:
408,246,16781,1,0,1:0:0:0:
380,252,16910,2,0,P|364:275|358:303,1,57.2300013535538,2|0,0:0|0:0,0:0:0:0:
219,178,17168,1,0,1:0:0:0:
242,193,17297,2,0,P|264:274|264:326,1,114.460002707108,10|0,0:0|0:0,0:0:0:0:
148,137,17684,6,0,P|215:96|286:135,1,114.460002707108,2|0,1:0|0:0,0:0:0:0:
131,233,18071,2,0,P|102:215|65:210,1,57.2300013535538,10|0,0:0|0:0,0:0:0:0:
10,54,18329,1,0,1:0:0:0:
34,69,18458,2,0,P|61:61|85:46,1,57.2300013535538,2|0,0:0|0:0,0:0:0:0:
258,18,18716,1,0,1:0:0:0:
190,67,18845,1,10,0:0:0:0:
213,103,18974,1,0,0:0:0:0:
227,148,19103,1,8,3:0:0:0:
204,231,19232,6,0,P|288:258|329:230,1,114.460002707108,6|0,1:0|0:0,0:0:0:0:
448,160,19619,2,0,L|436:64,1,57.2300013535538,10|0,0:0|0:0,0:0:0:0:
337,249,19877,1,0,1:0:0:0:
322,224,20006,2,0,L|333:128,1,57.2300013535538,2|0,0:0|0:0,0:0:0:0:
396,6,20264,1,0,1:0:0:0:
412,29,20393,2,0,P|336:6|274:6,1,114.460002707108,10|0,0:0|0:0,0:0:0:0:
227,148,20781,6,0,P|189:187|110:144,1,114.460002707108,2|0,1:0|0:0,0:0:0:0:
78,42,21168,2,0,P|96:66|104:105,1,57.2300013535538,10|0,0:0|0:0,0:0:0:0:
31,234,21426,1,0,1:0:0:0:
14,210,21555,2,0,P|22:182|39:160,1,57.2300013535538,2|0,0:0|0:0,0:0:0:0:
116,302,21813,1,0,1:0:0:0:
128,276,21942,2,0,P|186:248|269:255,1,114.460002707108,10|0,0:0|0:0,0:0:0:0:
337,360,22329,6,0,P|303:314|338:248,1,114.460002707108,6|0,1:0|0:0,0:0:0:0:
454,340,22716,2,0,P|421:333|399:312,1,57.2300013535538,10|0,0:0|0:0,0:0:0:0:
500,193,22974,1,0,1:0:0:0:
512,218,23103,2,0,P|489:235|461:239,1,57.2300013535538,2|0,0:0|0:0,0:0:0:0:
369,99,23361,1,0,1:0:0:0:
347,175,23490,1,10,0:0:0:0:
313,194,23619,1,0,0:0:0:0:
269,197,23748,1,0,0:0:0:0:
195,149,23877,6,0,P|225:92|222:19,1,114.460002707108,2|0,1:0|0:0,0:0:0:0:
107,167,24264,2,0,P|72:167|32:145,1,57.2300013535538,10|0,0:0|0:0,0:0:0:0:
63,4,24522,1,0,1:0:0:0:
87,19,24651,2,0,P|108:48|113:93,1,57.2300013535538,2|0,0:0|0:0,0:0:0:0:
204,186,24910,1,0,1:0:0:0:
230,175,25039,2,0,P|260:118|257:45,1,114.460002707108,10|8,0:0|3:0,0:0:0:0:
356,215,25426,6,0,B|444:215|404:151|508:151,1,136.289997296494,6|8,1:0|0:0,0:0:0:0:
288,0,26071,1,0,1:0:0:0:
305,6,26200,2,0,P|336:60|350:123,1,90.8599981976624,2|0,0:0|1:0,0:0:0:0:
286,230,26587,2,0,P|251:195|191:194,1,90.8599981976624,8|0,0:0|0:0,0:0:0:0:
108,348,26974,6,0,B|201:320|137:289|242:261,1,136.289997296494,2|8,1:0|0:0,0:0:0:0:
431,353,27619,1,0,1:0:0:0:
413,346,27748,2,0,P|387:299|387:236,1,90.8599981976624,2|0,0:0|1:0,0:0:0:0:
436,158,28135,2,0,P|429:202|405:241,1,90.8599981976624,10|0,0:0|0:0,0:0:0:0:
334,376,28522,6,0,P|290:340|214:330,1,136.289997296494,2|8,1:0|0:0,0:0:0:0:
0,355,29168,1,0,1:0:0:0:
17,352,29297,2,0,P|51:307|51:241,1,90.8599981976624,2|0,0:0|1:0,0:0:0:0:
174,153,29684,2,0,P|144:118|134:75,1,90.8599981976624,8|0,0:0|0:0,0:0:0:0:
270,18,30071,5,2,1:0:0:0:
197,249,30458,1,8,0:0:0:0:
321,148,30716,1,0,1:0:0:0:
328,164,30845,2,0,P|352:184|391:184,1,45.4299990988312,10|0,0:0|0:0,0:0:0:0:
459,54,31103,2,0,P|440:79|354:86,1,90.8599981976624,2|0,1:0|0:0,0:0:0:0:
216,21,31490,5,10,0:0:0:0:
199,28,31619,2,0,P|178:70|178:164,1,136.289997296494,6|8,1:0|0:0,0:0:0:0:
390,297,32264,1,0,1:0:0:0:
378,310,32393,2,0,P|355:318|299:323,1,45.4299990988312,2|0,0:0|0:0,0:0:0:0:
205,266,32651,2,0,P|257:287|330:298,1,90.8599981976624,2|0,1:0|0:0,0:0:0:0:
133,338,33039,5,2,0:0:0:0:
117,328,33168,2,0,P|96:274|106:230,1,90.8599981976624,2|0,1:0|0:0,0:0:0:0:
252,172,33555,2,0,P|271:131|268:86,1,90.8599981976624,10|0,0:0|1:0,0:0:0:0:
145,21,33942,1,2,0:0:0:0:
206,236,34200,1,2,1:0:0:0:
189,227,34329,2,0,P|169:186|172:141,1,90.8599981976624,10|0,0:0|0:0,0:0:0:0:
33,34,34716,6,0,P|84:82|90:157,1,136.289997296494,2|8,1:0|0:0,0:0:0:0:
221,349,35361,1,0,1:0:0:0:
431,39,35748,1,0,1:0:0:0:
423,56,35877,2,0,P|437:80|448:138,1,45.4299990988312,8|0,0:0|0:0,0:0:0:0:
392,213,36135,5,2,0:0:0:0:
402,198,36264,2,0,P|355:170|302:211,1,90.8599981976624,0|0,1:0|0:0,0:0:0:0:
247,325,36651,2,0,P|211:351|168:343,1,90.8599981976624,10|0,0:0|1:0,0:0:0:0:
323,165,37039,2,0,P|366:157|402:184,1,90.8599981976624,2|0,0:0|1:0,0:0:0:0:
247,311,37426,2,0,P|218:332|184:325,1,45.4299990988312,10|0,0:0|0:0,0:0:0:0:
84,186,37684,5,8,3:0:0:0:
154,146,37813,2,0,P|111:204|102:296,1,153.990001292336,6|8,1:0|0:0,0:0:0:0:
331,357,38458,1,0,1:0:0:0:
336,337,38587,2,0,P|410:286|442:286,1,102.660000861557,2|0,0:0|1:0,0:0:0:0:
290,161,38974,2,0,P|325:197|373:213,1,102.660000861557,8|0,0:0|0:0,0:0:0:0:
216,106,39361,6,0,P|263:179|263:253,1,153.990001292336,2|8,1:0|0:0,0:0:0:0:
432,47,40006,1,0,1:0:0:0:
412,54,40135,2,0,P|384:93|378:155,1,102.660000861557,2|0,0:0|1:0,0:0:0:0:
240,28,40522,2,0,P|174:34|141:93,1,102.660000861557,10|0,0:0|0:0,0:0:0:0:
66,211,40910,6,0,P|72:128|30:54,1,153.990001292336,2|8,1:0|0:0,0:0:0:0:
195,272,41555,1,0,1:0:0:0:
176,280,41684,2,0,P|218:333|274:333,1,102.660000861557,2|0,0:0|1:0,0:0:0:0:
364,209,42071,2,0,P|316:224|290:267,1,102.660000861557,8|0,0:0|0:0,0:0:0:0:
429,363,42458,6,0,P|388:297|388:183,1,153.990001292336,2|8,1:0|0:0,0:0:0:0:
229,34,43103,1,0,1:0:0:0:
248,39,43232,2,0,P|263:60|263:124,1,51.3300004307785,2|0,0:0|0:0,0:0:0:0:
169,229,43490,2,0,P|188:201|188:116,1,102.660000861557,2|0,1:0|0:0,0:0:0:0:
34,55,43877,5,10,0:0:0:0:
45,72,44006,2,0,P|101:35|197:35,1,153.990001292336,6|8,1:0|0:0,0:0:0:0:
353,214,44651,1,0,1:0:0:0:
370,202,44781,2,0,P|345:182|303:175,1,51.3300004307785,2|0,0:0|0:0,0:0:0:0:
366,329,45039,2,0,P|418:289|467:289,1,102.660000861557,2|0,1:0|0:0,0:0:0:0:
268,237,45426,5,2,0:0:0:0:
249,225,45555,1,2,1:0:0:0:
85,79,45813,1,2,0:0:0:0:
104,67,45942,1,10,0:0:0:0:
117,276,46200,1,0,1:0:0:0:
134,265,46329,2,0,P|157:210|157:146,1,102.660000861557,2|0,0:0|1:0,0:0:0:0:
274,322,46716,2,0,P|251:267|251:203,1,102.660000861557,10|0,0:0|0:0,0:0:0:0:
344,66,47103,6,0,B|437:99|370:138|472:162,1,153.990001292336,2|8,1:0|0:0,0:0:0:0:
230,211,47748,1,0,1:0:0:0:
239,192,47877,2,0,P|287:160|348:151,1,102.660000861557,0|0,0:0|1:0,0:0:0:0:
437,290,48264,2,0,P|397:255|386:186,1,102.660000861557,10|0,0:0|0:0,0:0:0:0:
246,346,48651,6,0,P|286:311|297:242,1,102.660000861557,2|0,1:0|0:0,0:0:0:0:
155,192,49039,1,8,0:0:0:0:
361,67,49297,1,0,1:0:0:0:
277,116,49426,1,8,3:0:0:0:
236,90,49555,1,8,3:0:0:0:
191,78,49684,1,8,3:0:0:0:
115,108,49813,2,0,P|129:128|137:171,1,51.3300004307785,8|0,0:0|0:0,0:0:0:0:
39,289,50071,5,8,0:0:0:0:
52,276,50200,2,0,B|140:276|92:324|188:324,1,136.289997296494,6|0,1:0|0:0,0:0:0:0:
388,288,50845,1,0,1:0:0:0:
373,277,50974,2,0,L|367:225,1,45.4299990988312,2|0,1:0|0:0,0:0:0:0:
448,144,51232,1,0,0:0:0:0:
450,121,51361,1,8,0:0:0:0:
274,251,51619,5,0,0:0:0:0:
289,240,51748,2,0,L|305:99,1,136.289997296494,2|0,1:0|0:0,0:0:0:0:
45,279,52393,1,0,1:0:0:0:
62,293,52522,2,0,L|71:357,1,45.4299990988312,2|0,1:0|0:0,0:0:0:0:
175,241,52781,1,0,0:0:0:0:
173,264,52910,1,8,0:0:0:0:
54,100,53168,5,0,0:0:0:0:
70,115,53297,2,0,P|122:65|209:86,1,136.289997296494,2|0,1:0|0:0,0:0:0:0:
307,178,53942,1,0,1:0:0:0:
291,194,54071,2,0,L|283:259,1,45.4299990988312,2|0,1:0|0:0,0:0:0:0:
181,150,54329,1,0,0:0:0:0:
197,166,54458,1,10,0:0:0:0:
424,51,54716,5,2,0:0:0:0:
406,65,54845,2,0,P|351:34|277:47,1,136.289997296494,0|0,1:0|0:0,0:0:0:0:
460,186,55490,1,0,1:0:0:0:
476,169,55619,2,0,P|457:218|457:275,1,90.8599981976624,2|0,1:0|0:0,0:0:0:0:
356,356,56006,2,0,P|351:310|334:269,1,90.8599981976624,10|0,0:0|0:0,0:0:0:0:
201,182,56393,6,0,B|169:185|105:193|175:233|79:245|48:249,1,136.289997296494,2|0,1:0|0:0,0:0:0:0:
68,49,57039,1,0,1:0:0:0:
86,62,57168,2,0,P|73:89|73:132,1,45.4299990988312,2|0,1:0|0:0,0:0:0:0:
200,269,57555,1,10,0:0:0:0:
332,49,57813,5,2,0:0:0:0:
314,62,57942,2,0,P|341:114|349:214,1,136.289997296494,0|0,1:0|0:0,0:0:0:0:
267,353,58587,1,0,1:0:0:0:
269,330,58716,2,0,P|290:313|326:313,1,45.4299990988312,2|0,1:0|0:0,0:0:0:0:
147,375,58974,1,0,0:0:0:0:
145,352,59103,2,0,P|124:335|88:335,1,45.4299990988312,8|0,0:0|0:0,0:0:0:0:
168,232,59361,5,0,0:0:0:0:
152,214,59490,2,0,P|96:256|0:256,1,136.289997296494,2|0,1:0|0:0,0:0:0:0:
177,58,60135,1,0,1:0:0:0:
189,77,60264,2,0,P|213:99|245:99,1,45.4299990988312,2|0,1:0|0:0,0:0:0:0:
474,73,60651,2,0,P|452:80|438:97,1,45.4299990988312,10|0,0:0|0:0,0:0:0:0:
446,240,60910,5,2,0:0:0:0:
466,230,61039,2,0,P|499:180|488:113,1,90.8599981976624,0|0,1:0|0:0,0:0:0:0:
365,228,61426,2,0,P|371:272|400:308,1,90.8599981976624,10|0,0:0|1:0,0:0:0:0:
375,147,61813,2,0,P|330:153|295:181,1,90.8599981976624,2|0,1:0|3:0,0:0:0:0:
225,325,62200,1,10,0:0:0:0:
218,287,62329,1,0,0:0:0:0:
210,249,62458,1,8,3:0:0:0:
162,186,62587,6,0,P|130:176|89:195,2,45.4299990988312,4|0|0,1:0|0:0|0:0,0:0:0:0:
309,166,62974,1,10,0:0:0:0:
324,138,63103,1,2,0:0:0:0:
326,106,63232,1,2,1:0:0:0:
282,38,63361,2,0,P|331:11|392:37,1,90.8599981976624,2|0,0:0|1:0,0:0:0:0:
437,130,63748,1,10,0:0:0:0:
356,349,64006,5,2,0:0:0:0:
352,323,64135,1,0,1:0:0:0:
135,319,64393,5,2,0:0:0:0:
139,293,64522,1,10,0:0:0:0:
343,243,64781,5,2,1:0:0:0:
339,217,64910,2,0,P|299:181|236:189,1,90.8599981976624,2|0,0:0|1:0,0:0:0:0:
181,225,65297,2,0,P|225:218|256:185,1,90.8599981976624,10|0,0:0|0:0,0:0:0:0:
109,136,65684,6,2,P|150:181|163:250,1,90.8599981976624,2|2,1:0|0:0,0:0:0:0:
0,306,66071,1,10,0:0:0:0:
19,281,66200,1,2,0:0:0:0:
23,249,66329,1,2,1:0:0:0:
7,174,66458,2,0,P|6:117|36:72,1,90.8599981976624,2|0,0:0|1:0,0:0:0:0:
147,42,66845,1,10,0:0:0:0:
254,231,67103,5,2,0:0:0:0:
255,205,67232,2,0,P|305:150|368:145,1,136.289997296494,0|8,1:0|0:0,0:0:0:0:
443,330,67877,1,2,1:0:0:0:
426,310,68006,2,0,P|440:279|440:238,1,45.4299990988312,10|0,0:0|0:0,0:0:0:0:
297,384,68264,1,2,1:0:0:0:
314,364,68393,2,0,P|299:333|299:292,1,45.4299990988312,10|0,0:0|0:0,0:0:0:0:
336,193,68651,5,8,3:0:0:0:
348,215,68781,2,0,P|315:265|237:250,1,136.289997296494,6|8,1:0|0:0,0:0:0:0:
280,61,69426,1,0,1:0:0:0:
290,84,69555,2,0,P|273:123|208:123,1,90.8599981976624,2|0,0:0|1:0,0:0:0:0:
115,28,69942,2,0,P|157:37|175:77,1,90.8599981976624,10|2,0:0|0:0,0:0:0:0:
55,177,70329,6,0,P|38:241|36:325,1,136.289997296494,0|8,1:0|0:0,0:0:0:0:
236,351,70974,1,2,1:0:0:0:
210,351,71103,2,0,P|177:311|161:244,1,90.8599981976624,2|0,0:0|1:0,0:0:0:0:
320,185,71490,2,0,P|290:219|273:261,1,90.8599981976624,10|0,0:0|0:0,0:0:0:0:
239,55,71877,6,0,P|193:24|119:24,1,102.660000861557,2|0,1:0|0:0,0:0:0:0:
309,153,72264,2,0,P|355:122|429:122,1,102.660000861557,10|0,0:0|1:0,0:0:0:0:
239,36,72652,2,0,P|193:5|119:5,1,102.660000861557,2|0,0:0|1:0,0:0:0:0:
318,168,73038,2,0,P|364:137|438:137,1,102.660000861557,10|8,0:0|0:0,0:0:0:0:
179,90,73426,2,0,P|222:152|222:225,1,102.660000861557,2|0,1:0|0:0,0:0:0:0:
36,314,73813,2,0,P|79:252|79:179,1,102.660000861557,10|8,0:0|0:0,0:0:0:0:
55,31,74200,5,10,3:0:0:0:
100,86,74329,1,8,3:0:0:0:
176,91,74458,1,8,3:0:0:0:
236,35,74587,1,10,0:0:0:0:
318,8,74716,1,8,3:0:0:0:
393,61,74845,1,10,3:0:0:0:
413,165,74974,6,0,P|369:232|353:324,1,138.060000526657,6|0,1:0|0:0,0:0:0:0:
236,124,75361,2,0,P|193:93|136:93,1,69.0300002633285,8|0,0:0|0:0,0:0:0:0:
24,191,75619,2,0,B|98:162|86:218|160:189,1,138.060000526657,2|0,1:0|0:0,0:0:0:0:
291,6,76006,1,0,1:0:0:0:
208,13,76135,2,0,P|169:85|169:140,1,138.060000526657,10|0,0:0|0:0,0:0:0:0:
379,176,76522,2,0,P|351:147|311:138,1,69.0300002633285,0|0,1:0|0:0,0:0:0:0:
419,297,76781,1,2,0:0:0:0:
456,230,76910,2,0,P|393:275|309:232,1,138.060000526657,8|0,0:0|1:0,0:0:0:0:
191,148,77297,2,0,P|239:214|246:288,1,138.060000526657,2|0,0:0|1:0,0:0:0:0:
81,289,77684,2,0,P|101:264|165:264,1,90.8599981976624,10|0,0:0|0:0,0:0:0:0:
301,374,78071,6,0,P|384:366|411:295,1,138.060000526657,6|0,1:0|0:0,0:0:0:0:
307,177,78458,2,0,P|287:139|285:100,1,69.0300002633285,8|0,0:0|0:0,0:0:0:0:
438,0,78716,2,0,P|396:46|380:134,1,138.060000526657,2|0,1:0|0:0,0:0:0:0:
433,304,79103,1,0,1:0:0:0:
493,253,79232,2,0,P|467:205|380:205,1,138.060000526657,10|0,0:0|0:0,0:0:0:0:
287,349,79619,2,0,P|243:382|164:346,1,138.060000526657,0|0,1:0|0:0,0:0:0:0:
204,157,80006,1,8,0:0:0:0:
27,374,80264,1,0,1:0:0:0:
96,329,80393,2,0,P|118:257|118:176,1,138.060000526657,8|0,0:0|1:0,0:0:0:0:
29,17,80781,2,0,P|61:39|99:39,1,69.0300002633285,10|0,0:0|0:0,0:0:0:0:
319,13,81039,5,10,3:0:0:0:
290,90,81168,2,0,P|219:43|147:37,1,138.060000526657,6|0,1:0|0:0,0:0:0:0:
376,169,81555,2,0,P|402:128|406:89,1,69.0300002633285,8|0,0:0|0:0,0:0:0:0:
270,239,81813,1,0,1:0:0:0:
244,230,81942,2,0,P|218:189|218:97,1,138.060000526657,0|0,0:0|1:0,0:0:0:0:
363,296,82329,2,0,P|340:322|310:339,1,69.0300002633285,10|0,0:0|0:0,0:0:0:0:
110,290,82587,5,2,0:0:0:0:
127,367,82716,2,0,P|146:300|146:192,1,138.060000526657,6|0,1:0|0:0,0:0:0:0:
60,90,83103,2,0,P|92:120|132:120,1,69.0300002633285,8|0,0:0|0:0,0:0:0:0:
320,45,83361,1,0,1:0:0:0:
286,52,83490,2,0,P|258:96|264:158,1,69.0300002633285
322,286,83748,1,0,1:0:0:0:
347,209,83877,2,0,P|388:186|451:199,1,69.0300002633285,10|0,0:0|0:0,0:0:0:0:
299,366,84135,5,2,0:0:0:0:
242,305,84264,2,0,P|165:270|92:308,1,138.060000526657,6|0,1:0|0:0,0:0:0:0:
275,135,84651,2,0,P|255:165|197:180,1,69.0300002633285,8|0,0:0|0:0,0:0:0:0:
139,0,84910,1,0,1:0:0:0:
120,20,85039,2,0,P|131:78|229:91,1,138.060000526657,0|0,0:0|1:0,0:0:0:0:
383,8,85426,2,0,P|363:38|357:87,1,69.0300002633285,10|0,0:0|0:0,0:0:0:0:
497,204,85684,5,2,0:0:0:0:
495,127,85813,2,0,B|408:136|461:199|321:209,1,138.060000526657,6|2,1:0|0:0,0:0:0:0:
166,166,86200,2,0,P|184:196|187:246,1,69.0300002633285,8|0,0:0|0:0,0:0:0:0:
293,374,86458,1,2,1:0:0:0:
274,353,86587,2,0,P|279:319|297:289,1,69.0300002633285,10|0,0:0|0:0,0:0:0:0:
213,91,86845,1,2,1:0:0:0:
283,120,86974,2,0,P|300:149|306:183,1,69.0300002633285,10|0,0:0|0:0,0:0:0:0:
168,300,87232,1,2,0:0:0:0:
122,236,87361,6,0,P|187:280|271:247,1,171.690004060661,6|10,1:0|0:0,0:0:0:0:
359,34,88006,1,2,1:0:0:0:
326,39,88135,2,0,P|309:66|309:113,1,57.2300013535538,2|0,0:0|0:0,0:0:0:0:
435,221,88393,1,0,1:0:0:0:
459,199,88522,2,0,P|456:132|421:79,1,114.460002707108,10|0,0:0|0:0,0:0:0:0:
297,256,88910,6,0,P|344:208|358:146,1,114.460002707108,2|0,1:0|0:0,0:0:0:0:
193,183,89297,2,0,P|228:180|259:161,1,57.2300013535538,10|0,0:0|0:0,0:0:0:0:
158,13,89555,1,0,1:0:0:0:
155,45,89684,2,0,P|174:74|206:92,1,57.2300013535538,2|0,0:0|0:0,0:0:0:0:
385,56,89942,1,0,1:0:0:0:
355,40,90071,2,0,P|304:53|260:106,1,114.460002707108,10|0,0:0|0:0,0:0:0:0:
178,284,90458,6,0,P|127:271|83:218,1,114.460002707108,6|0,1:0|0:0,0:0:0:0:
22,88,90845,2,0,P|42:115|46:150,1,57.2300013535538,10|0,0:0|0:0,0:0:0:0:
189,203,91103,1,0,1:0:0:0:
175,173,91232,2,0,P|181:145|199:123,1,57.2300013535538,2|0,0:0|0:0,0:0:0:0:
365,52,91490,1,0,1:0:0:0:
350,81,91619,2,0,P|288:32|212:32,1,114.460002707108,10|0,0:0|0:0,0:0:0:0:
348,217,92006,6,0,P|388:177|443:161,1,114.460002707108,2|0,1:0|0:0,0:0:0:0:
294,284,92393,2,0,P|270:253|269:203,1,57.2300013535538,10|0,0:0|0:0,0:0:0:0:
142,126,92651,1,0,1:0:0:0:
154,156,92781,2,0,P|144:182|125:203,1,57.2300013535538,2|0,0:0|0:0,0:0:0:0:
0,283,93039,1,0,1:0:0:0:
29,296,93168,1,10,0:0:0:0:
210,280,93426,5,8,3:0:0:0:
144,322,93555,2,0,P|138:256|179:207,1,114.460002707108,6|0,1:0|0:0,0:0:0:0:
313,330,93942,2,0,P|345:330|377:298,1,57.2300013535538,10|0,0:0|0:0,0:0:0:0:
422,143,94199,1,0,1:0:0:0:
395,162,94329,2,0,P|436:223|436:301,1,114.460002707108,2|0,0:0|1:0,0:0:0:0:
315,65,94716,2,0,P|274:126|274:204,1,114.460002707108,10|0,0:0|0:0,0:0:0:0:
123,35,95103,6,0,P|187:35|219:99,1,114.460002707108,2|0,1:0|0:0,0:0:0:0:
25,119,95490,2,0,P|6:88|6:50,1,57.2300013535538,10|0,0:0|0:0,0:0:0:0:
122,211,95748,1,0,1:0:0:0:
152,198,95877,2,0,P|171:167|171:129,1,57.2300013535538,2|0,0:0|0:0,0:0:0:0:
316,280,96135,1,0,1:0:0:0:
288,263,96264,2,0,P|264:211|264:138,1,114.460002707108,10|0,0:0|0:0,0:0:0:0:
409,32,96651,6,0,P|361:63|293:76,1,114.460002707108,6|0,1:0|0:0,0:0:0:0:
484,161,97039,2,0,P|451:147|406:144,1,57.2300013535538,10|0,0:0|0:0,0:0:0:0:
350,285,97297,1,0,1:0:0:0:
373,308,97426,2,0,P|401:302|426:290,1,57.2300013535538,2|0,0:0|0:0,0:0:0:0:
282,204,97683,1,0,1:0:0:0:
230,268,97813,1,10,0:0:0:0:
192,282,97942,1,0,0:0:0:0:
152,278,98071,1,0,0:0:0:0:
94,221,98200,6,0,P|127:288|128:345,1,114.460002707108,2|0,1:0|0:0,0:0:0:0:
202,147,98587,2,0,P|186:182|186:225,1,57.2300013535538,10|0,0:0|0:0,0:0:0:0:
255,67,98845,1,0,1:0:0:0:
280,86,98974,2,0,P|296:121|296:164,1,57.2300013535538,2|0,0:0|0:0,0:0:0:0:
309,284,99232,1,0,1:0:0:0:
325,312,99361,2,0,P|378:264|448:256,1,114.460002707108,10|0,0:0|0:0,0:0:0:0:
186,260,99748,6,0,P|230:299|249:384,1,136.289997296494,6|8,1:0|0:0,0:0:0:0:
107,188,100393,1,0,1:0:0:0:
114,171,100522,2,0,P|162:135|229:149,1,90.8599981976624,2|0,0:0|1:0,0:0:0:0:
290,197,100910,2,0,P|245:189|212:159,1,90.8599981976624,8|0,0:0|0:0,0:0:0:0:
339,63,101297,6,0,P|311:125|302:200,1,136.289997296494,2|8,1:0|0:0,0:0:0:0:
108,33,101942,1,0,1:0:0:0:
122,43,102071,2,0,P|152:107|154:141,1,90.8599981976624,2|0,0:0|1:0,0:0:0:0:
290,152,102458,2,0,P|299:107|322:68,1,90.8599981976624,10|0,0:0|0:0,0:0:0:0:
477,108,102845,2,0,P|426:162|365:121,1,136.289997296494,2|8,1:0|0:0,0:0:0:0:
493,279,103490,1,0,1:0:0:0:
501,262,103619,2,0,P|462:217|409:212,1,90.8599981976624,2|0,0:0|1:0,0:0:0:0:
355,339,104006,2,0,P|316:362|271:359,1,90.8599981976624,8|0,0:0|0:0,0:0:0:0:
146,243,104393,5,2,1:0:0:0:
342,23,104780,1,8,0:0:0:0:
178,165,105039,1,0,1:0:0:0:
189,151,105168,2,0,L|197:75,1,45.4299990988312,10|0,0:0|0:0,0:0:0:0:
65,197,105426,2,0,L|54:89,1,90.8599981976624,2|2,1:0|0:0,0:0:0:0:
178,23,105813,5,8,0:0:0:0:
196,22,105942,2,0,P|262:54|263:141,1,136.289997296494,6|8,1:0|0:0,0:0:0:0:
156,263,106586,1,0,1:0:0:0:
168,276,106716,2,0,L|238:261,1,45.4299990988312,2|0,0:0|0:0,0:0:0:0:
320,335,106974,2,0,L|408:354,1,90.8599981976624,2|0,1:0|0:0,0:0:0:0:
484,232,107361,5,2,0:0:0:0:
466,238,107490,2,0,P|435:301|435:354,1,90.8599981976624,2|0,1:0|0:0,0:0:0:0:
326,176,107877,2,0,P|357:239|357:292,1,90.8599981976624,10|0,0:0|1:0,0:0:0:0:
423,125,108264,1,2,0:0:0:0:
170,57,108522,1,0,1:0:0:0:
187,47,108651,2,0,P|163:85|153:129,1,90.8599981976624,10|0,0:0|0:0,0:0:0:0:
325,54,109039,6,0,P|404:80|420:155,1,136.289997296494,2|8,1:0|0:0,0:0:0:0:
445,321,109683,1,0,1:0:0:0:
163,157,110071,1,0,1:0:0:0:
172,172,110200,2,0,L|238:190,1,45.4299990988312,8|0,0:0|0:0,0:0:0:0:
102,43,110458,5,2,0:0:0:0:
111,58,110587,2,0,L|228:40,1,90.8599981976624,0|0,1:0|0:0,0:0:0:0:
310,148,110974,2,0,L|399:161,1,90.8599981976624,10|0,0:0|1:0,0:0:0:0:
212,60,111361,2,0,L|122:73,1,90.8599981976624,2|0,0:0|1:0,0:0:0:0:
304,133,111748,2,0,L|371:143,1,45.4299990988312,10|0,0:0|0:0,0:0:0:0:
475,68,112006,5,8,3:0:0:0:
400,55,112135,2,0,P|444:116|422:203,1,153.990001292336,6|8,1:0|0:0,0:0:0:0:
485,340,112781,1,0,1:0:0:0:
495,322,112910,2,0,P|453:269|393:269,1,102.660000861557,2|0,0:0|1:0,0:0:0:0:
293,375,113297,2,0,P|340:358|366:315,1,102.660000861557,8|0,0:0|0:0,0:0:0:0:
263,194,113684,6,0,P|279:102|338:68,1,153.990001292336,2|8,1:0|0:0,0:0:0:0:
186,244,114329,1,0,1:0:0:0:
170,230,114458,2,0,L|92:215,1,51.3300004307785,2|0,0:0|0:0,0:0:0:0:
7,137,114716,1,2,1:0:0:0:
23,123,114845,2,0,L|143:99,1,102.660000861557,10|2,0:0|0:0,0:0:0:0:
265,81,115232,6,0,L|432:104,1,153.990001292336,2|8,1:0|0:0,0:0:0:0:
477,319,115877,1,0,1:0:0:0:
490,303,116006,2,0,P|464:278|384:289,1,102.660000861557,2|0,0:0|1:0,0:0:0:0:
265,365,116393,2,0,P|314:369|354:339,1,102.660000861557,8|0,0:0|0:0,0:0:0:0:
297,180,116781,6,0,P|357:256|377:326,1,153.990001292336,2|8,1:0|0:0,0:0:0:0:
427,75,117426,1,0,1:0:0:0:
422,94,117555,2,0,P|394:114|348:114,1,51.3300004307785,2|0,0:0|0:0,0:0:0:0:
250,8,117813,2,0,P|286:44|373:44,1,102.660000861557,2|0,1:0|0:0,0:0:0:0:
233,152,118200,5,10,0:0:0:0:
247,166,118329,2,0,P|320:126|341:38,1,153.990001292336,6|8,1:0|0:0,0:0:0:0:
98,48,118974,1,0,1:0:0:0:
82,61,119103,2,0,P|82:98|104:137,1,51.3300004307785,2|0,0:0|0:0,0:0:0:0:
222,177,119361,2,0,P|250:224|253:287,1,102.660000861557,2|0,1:0|0:0,0:0:0:0:
129,330,119748,5,2,0:0:0:0:
147,338,119877,1,2,1:0:0:0:
335,376,120135,1,2,0:0:0:0:
352,365,120264,2,0,L|362:289,1,51.3300004307785,10|0,0:0|0:0,0:0:0:0:
442,184,120522,1,0,1:0:0:0:
431,201,120651,2,0,L|448:324,1,102.660000861557,2|0,0:0|1:0,0:0:0:0:
337,199,121039,2,0,L|345:135,1,51.3300004307785,10|0,0:0|0:0,0:0:0:0:
256,28,121297,5,2,0:0:0:0:
268,43,121426,2,0,P|228:112|153:100,1,153.990001292336,2|8,1:0|0:0,0:0:0:0:
29,236,122071,1,0,1:0:0:0:
297,171,122458,1,0,1:0:0:0:
281,184,122587,2,0,P|321:231|321:291,1,102.660000861557,10|0,0:0|0:0,0:0:0:0:
422,136,122974,6,0,P|431:86|466:49,1,102.660000861557,2|0,1:0|0:0,0:0:0:0:
418,247,123361,1,8,0:0:0:0:
239,350,123619,1,0,1:0:0:0:
218,347,123748,1,8,3:0:0:0:
80,215,124006,1,8,3:0:0:0:
101,212,124135,1,8,0:0:0:0:
303,76,124393,5,8,3:0:0:0:
292,90,124522,2,0,B|218:106|280:149|168:169,1,136.289997296494,6|0,1:0|0:0,0:0:0:0:
13,32,125168,1,0,1:0:0:0:
25,44,125297,2,0,P|55:23|105:23,1,45.4299990988312,2|0,1:0|0:0,0:0:0:0:
130,116,125555,1,0,0:0:0:0:
118,128,125684,1,10,0:0:0:0:
206,290,125941,5,2,0:0:0:0:
214,306,126071,2,0,P|280:269|367:278,1,136.289997296494,0|0,1:0|0:0,0:0:0:0:
502,101,126715,1,0,1:0:0:0:
497,118,126845,2,0,P|479:140|439:140,1,45.4299990988312,2|0,1:0|0:0,0:0:0:0:
350,73,127103,1,0,0:0:0:0:
355,90,127232,1,8,0:0:0:0:
403,282,127490,5,0,0:0:0:0:
396,265,127619,2,0,P|340:233|262:233,1,136.289997296494,2|0,1:0|0:0,0:0:0:0:
94,98,128264,1,0,1:0:0:0:
108,109,128393,2,0,P|112:73|124:34,1,45.4299990988312,2|0,1:0|0:0,0:0:0:0:
216,153,128651,1,0,0:0:0:0:
202,164,128781,1,10,0:0:0:0:
352,48,129039,5,2,0:0:0:0:
343,31,129168,2,0,P|407:15|434:102,1,136.289997296494,0|0,1:0|0:0,0:0:0:0:
216,153,129813,1,0,1:0:0:0:
210,135,129942,2,0,P|165:108|94:108,1,90.8599981976624,2|0,1:0|0:0,0:0:0:0:
178,231,130329,2,0,P|239:243|288:206,1,90.8599981976624,10|0,0:0|0:0,0:0:0:0:
354,118,130716,6,0,P|401:204|401:258,1,136.289997296494,2|0,1:0|0:0,0:0:0:0:
473,28,131361,1,0,1:0:0:0:
491,41,131490,2,0,P|478:68|478:111,1,45.4299990988312,2|0,1:0|0:0,0:0:0:0:
232,133,131877,1,10,0:0:0:0:
455,259,132135,5,2,0:0:0:0:
461,242,132264,2,0,P|397:198|326:198,1,136.289997296494,0|0,1:0|0:0,0:0:0:0:
186,61,132909,1,0,1:0:0:0:
200,72,133039,2,0,L|205:134,1,45.4299990988312,0|0,1:0|0:0,0:0:0:0:
150,227,133297,1,0,0:0:0:0:
137,214,133427,2,0,L|140:168,1,45.4299990988312,8|0,0:0|0:0,0:0:0:0:
37,66,133683,5,0,0:0:0:0:
49,78,133813,2,0,L|59:221,1,136.289997296494,2|0,1:0|0:0,0:0:0:0:
227,362,134458,1,0,1:0:0:0:
215,347,134587,2,0,P|231:330|272:317,1,45.4299990988312,2|0,1:0|0:0,0:0:0:0:
504,357,134974,1,10,0:0:0:0:
356,156,135232,5,2,0:0:0:0:
371,165,135361,2,0,L|357:288,1,90.8599981976624,0|0,1:0|0:0,0:0:0:0:
253,125,135748,2,0,L|267:248,1,90.8599981976624,10|0,0:0|1:0,0:0:0:0:
148,94,136135,2,0,L|134:217,1,90.8599981976624,2|0,1:0|3:0,0:0:0:0:
47,63,136522,1,10,0:0:0:0:
257,18,136781,5,8,3:0:0:0:
325,57,136910,2,0,P|356:34|389:34,2,45.4299990988312,4|0|0,1:0|0:0|0:0,0:0:0:0:
360,166,137297,1,10,0:0:0:0:
391,164,137426,1,2,0:0:0:0:
413,141,137555,1,2,1:0:0:0:
475,98,137684,2,0,P|498:140|487:192,1,90.8599981976624,2|0,0:0|1:0,0:0:0:0:
398,255,138071,1,10,0:0:0:0:
294,72,138329,5,2,0:0:0:0:
268,78,138458,1,0,1:0:0:0:
169,232,138716,5,0,0:0:0:0:
143,226,138845,1,8,0:0:0:0:
56,43,139103,5,0,1:0:0:0:
30,49,139232,2,0,L|9:171,1,90.8599981976624,2|0,0:0|1:0,0:0:0:0:
115,220,139619,2,0,L|136:342,1,90.8599981976624,10|0,0:0|0:0,0:0:0:0:
231,154,140006,6,0,P|272:128|320:128,1,90.8599981976624,2|0,1:0|0:0,0:0:0:0:
335,279,140394,1,10,0:0:0:0:
308,261,140523,1,2,0:0:0:0:
296,231,140652,1,2,1:0:0:0:
359,185,140781,2,0,P|403:187|441:212,1,90.8599981976624,2|0,0:0|1:0,0:0:0:0:
402,317,141168,1,10,0:0:0:0:
497,143,141426,5,2,0:0:0:0:
478,125,141555,2,0,P|406:157|348:125,1,136.289997296494,0|10,1:0|0:0,0:0:0:0:
175,8,142200,1,2,1:0:0:0:
154,22,142329,2,0,L|146:94,1,45.4299990988312,10|0,0:0|0:0,0:0:0:0:
39,146,142587,1,2,1:0:0:0:
60,160,142716,2,0,L|68:232,1,45.4299990988312,10|0,0:0|0:0,0:0:0:0:
28,358,142974,5,8,3:0:0:0:
20,333,143103,2,0,P|84:288|145:310,1,136.289997296494,6|8,1:0|0:0,0:0:0:0:
386,307,143748,1,0,1:0:0:0:
364,292,143877,2,0,P|333:298|292:353,1,90.8599981976624,0|0,0:0|1:0,0:0:0:0:
174,229,144264,2,0,P|199:247|216:298,1,45.4299990988312,10|0,0:0|0:0,0:0:0:0:
323,150,144522,5,2,0:0:0:0:
329,175,144651,2,0,P|390:215|469:197,1,136.289997296494,0|8,1:0|0:0,0:0:0:0:
196,197,145297,1,2,1:0:0:0:
221,190,145426,2,0,P|242:138|241:89,1,90.8599981976624,2|2,0:0|1:0,0:0:0:0:
102,186,145813,2,0,P|123:238|122:287,1,90.8599981976624,10|0,0:0|0:0,0:0:0:0:
254,355,146200,6,0,P|303:315|376:315,1,102.660000861557,2|0,1:0|0:0,0:0:0:0:
497,256,146587,2,0,P|447:243|410:209,1,102.660000861557,10|0,0:0|1:0,0:0:0:0:
241,165,146974,2,0,P|290:125|363:125,1,102.660000861557,2|0,0:0|1:0,0:0:0:0:
484,66,147361,2,0,P|434:53|397:19,1,102.660000861557,10|8,0:0|0:0,0:0:0:0:
320,198,147748,2,0,P|306:242|298:319,1,102.660000861557,2|0,1:0|1:0,0:0:0:0:
491,153,148135,2,0,P|506:201|512:252,1,102.660000861557,10|8,0:0|0:0,0:0:0:0:
313,66,148522,5,10,3:0:0:0:
247,95,148651,1,8,3:0:0:0:
206,160,148781,1,8,3:0:0:0:
124,166,148910,1,10,0:0:0:0:
73,95,149039,1,8,3:0:0:0:
113,12,149168,1,10,3:0:0:0:
208,12,149297,6,0,P|161:94|182:215,1,207.090000789986,6|8,1:0|0:0,0:0:0:0:
492,54,149942,2,0,P|428:86|412:182,1,138.060000526657,2|0,1:0|0:0,0:0:0:0:
458,337,150329,1,0,1:0:0:0:
512,274,150458,2,0,P|449:237|367:267,1,138.060000526657,10|0,0:0|0:0,0:0:0:0:
204,378,150845,2,0,P|221:344|223:307,1,69.0300002633285,0|0,1:0|0:0,0:0:0:0:
133,115,151103,1,2,0:0:0:0:
102,190,151232,2,0,P|163:139|229:139,1,138.060000526657,8|0,0:0|1:0,0:0:0:0:
313,318,151619,2,0,P|245:310|196:264,1,138.060000526657,2|0,0:0|1:0,0:0:0:0:
375,201,152006,2,0,P|425:167|440:110,1,90.8599981976624,10|0,0:0|0:0,0:0:0:0:
267,28,152393,6,0,P|335:88|353:195,1,138.060000526657,6|0,1:0|0:0,0:0:0:0:
207,259,152781,2,0,P|171:279|117:269,1,69.0300002633285,8|0,0:0|0:0,0:0:0:0:
59,133,153039,2,0,P|124:143|148:245,1,138.060000526657,2|0,1:0|0:0,0:0:0:0:
271,367,153426,1,0,1:0:0:0:
279,291,153555,2,0,P|321:223|331:153,1,138.060000526657,10|0,0:0|0:0,0:0:0:0:
133,34,153942,2,0,B|205:59|157:91|253:123,1,138.060000526657,0|0,1:0|0:0,0:0:0:0:
390,19,154329,2,0,P|361:53|352:102,1,69.0300002633285,8|0,0:0|0:0,0:0:0:0:
494,217,154587,1,0,1:0:0:0:
501,190,154716,2,0,P|476:166|444:153,1,69.0300002633285
300,308,154974,1,0,1:0:0:0:
376,338,155103,2,0,P|407:325|429:299,1,69.0300002633285,10|0,0:0|0:0,0:0:0:0:
222,146,155361,5,10,3:0:0:0:
297,138,155490,2,0,P|354:218|357:269,1,138.060000526657,6|0,1:0|0:0,0:0:0:0:
195,384,155877,2,0,P|215:349|213:303,1,69.0300002633285,8|0,0:0|0:0,0:0:0:0:
80,151,156135,1,0,1:0:0:0:
95,173,156264,2,0,P|161:124|225:124,1,138.060000526657,0|0,0:0|1:0,0:0:0:0:
286,274,156651,2,0,P|258:244|209:238,1,69.0300002633285,10|0,0:0|0:0,0:0:0:0:
407,125,156910,5,2,0:0:0:0:
361,188,157039,2,0,P|301:128|301:61,1,138.060000526657,6|0,1:0|0:0,0:0:0:0:
447,288,157426,1,8,0:0:0:0:
214,121,157684,1,0,1:0:0:0:
221,147,157813,2,0,P|168:199|93:210,1,138.060000526657,0|0,0:0|1:0,0:0:0:0:
88,9,158200,2,0,P|110:36|120:85,1,69.0300002633285,10|0,0:0|0:0,0:0:0:0:
39,255,158458,5,2,0:0:0:0:
57,332,158587,2,0,P|117:374|188:347,1,138.060000526657,6|0,1:0|0:0,0:0:0:0:
226,166,158974,2,0,P|209:201|214:257,1,69.0300002633285,8|0,0:0|0:0,0:0:0:0:
384,348,159232,1,0,1:0:0:0:
357,339,159361,2,0,P|309:282|284:201,1,138.060000526657,0|0,0:0|1:0,0:0:0:0:
443,108,159748,2,0,P|425:140|371:159,1,69.0300002633285,10|0,0:0|0:0,0:0:0:0:
262,14,160006,5,2,0:0:0:0:
293,83,160135,2,0,P|274:112|267:161,1,69.0300002633285,2|8,1:0|3:0,0:0:0:0:
374,269,160393,1,10,3:0:0:0:
312,218,160522,1,8,0:0:0:0:
235,237,160651,1,8,3:0:0:0:
166,285,160781,1,10,3:0:0:0:
82,261,160910,2,0,P|102:221|102:185,1,69.0300002633285,8|0,0:0|0:0,0:0:0:0:
18,53,161168,1,10,3:0:0:0:
0,141,161297,2,0,P|4:175|21:204,1,69.0300002633285,10|0,0:0|0:0,0:0:0:0:
204,51,161555,5,2,0:0:0:0:
270,113,161684,2,0,B|364:98|307:44|415:29,1,138.060000526657,6|0,1:0|0:0,0:0:0:0:
501,188,162071,2,0,P|479:154|413:135,1,69.0300002633285,8|0,0:0|0:0,0:0:0:0:
369,338,162329,2,0,P|409:276|426:190,1,138.060000526657,2|0,1:0|0:0,0:0:0:0:
235,82,162716,1,0,1:0:0:0:
184,138,162845,2,0,P|224:200|241:286,1,138.060000526657,10|0,0:0|0:0,0:0:0:0:
372,118,163232,5,0,1:0:0:0:
214,358,163490,1,2,0:0:0:0:
168,297,163619,2,0,P|131:286|81:279,1,69.0300002633285,8|0,0:0|0:0,0:0:0:0:
280,115,163877,1,2,1:0:0:0:
234,176,164006,2,0,P|169:191|43:215,1,138.060000526657,2|0,0:0|1:0,0:0:0:0:
332,293,164393,1,10,0:0:0:0:
318,268,164522,2,0,P|277:257|231:250,1,69.0300002633285,2|0,0:0|0:0,0:0:0:0:
445,178,164781,6,0,P|490:103|501:-9,1,138.060000526657,2|0,1:0|0:0,0:0:0:0:
358,188,165168,2,0,P|319:175|271:122,1,69.0300002633285,10|0,0:0|0:0,0:0:0:0:
133,21,165426,2,0,P|177:86|189:186,1,138.060000526657,2|0,1:0|0:0,0:0:0:0:
21,245,165813,1,0,1:0:0:0:
39,168,165942,2,0,P|115:184|193:247,1,138.060000526657,10|0,0:0|0:0,0:0:0:0:
294,370,166329,5,0,1:0:0:0:
398,37,166716,1,8,0:0:0:0:
190,166,166974,1,0,1:0:0:0:
210,147,167103,2,0,B|305:140|245:88|365:79,1,138.060000526657,8|0,0:0|1:0,0:0:0:0:
152,17,167490,2,0,P|189:37|215:71,1,69.0300002633285,10|0,0:0|0:0,0:0:0:0:
357,181,167748,5,10,3:0:0:0:
300,234,167877,2,0,P|347:141|347:56,1,138.060000526657,6|0,1:0|0:0,0:0:0:0:
433,281,168264,1,8,0:0:0:0:
118,114,168522,1,0,1:0:0:0:
137,94,168651,2,0,P|184:187|184:272,1,138.060000526657,0|0,0:0|1:0,0:0:0:0:
382,365,169039,2,0,P|388:324|405:283,1,69.0300002633285,10|0,0:0|0:0,0:0:0:0:
474,92,169297,5,2,0:0:0:0:
445,163,169426,2,0,P|378:175|251:271,1,207.090000789986,6|8,1:0|0:0,0:0:0:0:
81,52,170071,2,0,P|132:61|231:135,1,138.060000526657,2|0,1:0|0:0,0:0:0:0:
159,302,170458,1,0,1:0:0:0:
227,264,170587,2,0,P|246:225|246:176,1,69.0300002633285,10|0,0:0|0:0,0:0:0:0:
363,33,170845,5,2,0:0:0:0:
299,80,170974,2,0,P|369:143|389:293,1,207.090000789986,6|8,1:0|0:0,0:0:0:0:
92,167,171619,1,0,1:0:0:0:
116,154,171748,2,0,P|83:241|83:333,1,138.060000526657,0|0,0:0|1:0,0:0:0:0:
349,179,172135,2,0,P|331:149|306:125,1,69.0300002633285,10|0,0:0|0:0,0:0:0:0:
188,354,172393,5,2,0:0:0:0:
170,276,172522,2,0,P|216:213|327:212,1,138.060000526657,2|2,1:0|0:0,0:0:0:0:
386,336,172910,1,8,0:0:0:0:
218,74,173168,1,2,1:0:0:0:
225,106,173297,2,0,P|292:64|328:66,1,69.0300002633285
377,188,173555,1,2,1:0:0:0:
370,220,173684,2,0,P|303:178|267:180,1,69.0300002633285,10|0,0:0|0:0,0:0:0:0:
158,263,173942,5,2,0:0:0:0:
152,172,174071,2,0,B|259:186|196:255|319:276,1,171.690004060661,6|10,1:0|0:0,0:0:0:0:
510,91,174716,2,0,B|402:105|465:174|342:195,1,171.690004060661,2|0,1:0|1:0,0:0:0:0:
251,90,175232,2,0,P|275:112|303:202,1,114.460002707108,10|0,0:0|0:0,0:0:0:0:
158,263,175619,1,2,1:0:0:0:
58,41,175877,1,0,0:0:0:0:
75,64,176006,2,0,P|49:121|49:173,1,114.460002707108,10|0,0:0|1:0,0:0:0:0:
158,263,176393,1,0,1:0:0:0:
352,169,176651,1,0,1:0:0:0:
375,186,176781,2,0,P|344:251|340:324,1,114.460002707108,10|0,0:0|0:0,0:0:0:0:
182,179,177168,6,0,P|81:224|81:299,1,171.690004060661,6|8,1:0|0:0,0:0:0:0:
378,340,177813,2,0,P|349:262|269:244,1,171.690004060661,2|0,1:0|1:0,0:0:0:0:
141,351,178329,1,10,0:0:0:0:
145,322,178458,1,2,0:0:0:0:
150,293,178587,1,2,0:0:0:0:
151,214,178716,2,0,P|123:193|85:193,1,57.2300013535538,2|0,1:0|0:0,0:0:0:0:
256,269,178974,1,2,0:0:0:0:
269,243,179103,2,0,P|297:222|335:222,1,57.2300013535538,10|0,0:0|0:0,0:0:0:0:
438,198,179361,1,2,1:0:0:0:
431,169,179490,2,0,P|408:141|330:107,1,114.460002707108,2|0,0:0|1:0,0:0:0:0:
206,182,179877,2,0,P|234:150|240:107,1,57.2300013535538,10|8,0:0|3:0,0:0:0:0:
63,86,180135,5,10,3:0:0:0:
136,102,180264,2,0,P|168:170|181:277,1,171.690004060661,6|8,1:0|0:0,0:0:0:0:
413,363,180910,2,0,P|423:278|458:200,1,171.690004060661,2|0,1:0|1:0,0:0:0:0:
307,316,181426,2,0,P|295:260|269:209,1,114.460002707108,8|0,0:0|0:0,0:0:0:0:
264,86,181813,2,0,P|298:86|336:104,1,57.2300013535538,2|0,1:0|0:0,0:0:0:0:
182,71,182071,1,0,0:0:0:0:
181,42,182200,2,0,P|206:18|245:5,1,57.2300013535538,8|0,0:0|0:0,0:0:0:0:
108,82,182458,1,2,1:0:0:0:
86,62,182587,2,0,P|87:27|106:-9,1,57.2300013535538,2|0,1:0|0:0,0:0:0:0:
92,177,182845,1,2,1:0:0:0:
63,181,182974,2,0,P|9:126|9:84,1,114.460002707108,10|0,0:0|0:0,0:0:0:0:
193,165,183361,6,0,P|151:262|151:326,1,171.690004060661,2|8,1:0|0:0,0:0:0:0:
359,274,184006,1,0,1:0:0:0:
344,297,184135,2,0,P|310:279|292:241,1,57.2300013535538,0|0,1:0|0:0,0:0:0:0:
379,125,184393,1,0,1:0:0:0:
406,117,184522,2,0,P|374:183|374:234,1,114.460002707108,8|0,0:0|0:0,0:0:0:0:
282,93,184910,2,0,P|274:124|251:153,1,57.2300013535538,2|0,1:0|0:0,0:0:0:0:
295,244,185168,1,2,0:0:0:0:
276,266,185297,2,0,P|248:266|221:257,1,57.2300013535538,10|0,0:0|0:0,0:0:0:0:
143,328,185555,1,2,1:0:0:0:
117,315,185684,2,0,P|109:283|118:247,1,57.2300013535538,10|0,0:0|0:0,0:0:0:0:
159,115,185942,1,10,3:0:0:0:
170,134,186071,2,0,P|136:176|73:171,1,90.8599981976624,10|8,0:0|3:0,0:0:0:0:
18,68,186458,6,0,P|66:29|104:90,1,114.460002707108,6|0,1:0|0:0,0:0:0:0:
25,190,186845,1,10,0:0:0:0:
185,332,187103,2,0,P|249:290|327:281,1,114.460002707108,2|0,1:0|0:0,0:0:0:0:
477,329,187490,1,0,1:0:0:0:
477,300,187619,2,0,P|413:258|335:249,1,114.460002707108,10|0,0:0|0:0,0:0:0:0:
266,364,188006,1,0,1:0:0:0:
323,140,188264,1,0,0:0:0:0:
341,161,188393,2,0,P|288:217|288:275,1,114.460002707108,10|0,0:0|1:0,0:0:0:0:
449,163,188781,2,0,P|434:108|391:72,1,114.460002707108,2|0,0:0|1:0,0:0:0:0:
372,233,189168,2,0,P|372:310|413:351,1,114.460002707108,10|0,0:0|0:0,0:0:0:0:
263,203,189555,6,0,P|219:163|124:169,1,114.460002707108,2|0,1:0|0:0,0:0:0:0:
138,295,189942,1,8,0:0:0:0:
127,56,190200,2,0,P|83:92|67:146,1,114.460002707108,2|0,1:0|0:0,0:0:0:0:
148,270,190587,1,0,1:0:0:0:
161,244,190716,2,0,P|207:201|289:226,1,114.460002707108,10|0,0:0|0:0,0:0:0:0:
326,324,191103,1,0,1:0:0:0:
483,68,191490,2,0,P|415:53|385:98,1,114.460002707108,10|0,0:0|1:0,0:0:0:0:
342,213,191877,1,2,0:0:0:0:
315,224,192006,1,8,3:0:0:0:
286,220,192135,1,8,3:0:0:0:
222,178,192264,2,0,P|237:145|237:111,1,57.2300013535538,10|0,0:0|0:0,0:0:0:0:
114,31,192522,5,8,3:0:0:0:
60,80,192651,2,0,P|138:107|175:146,1,114.460002707108,6|0,1:0|0:0,0:0:0:0:
153,274,193039,1,8,0:0:0:0:
309,111,193297,2,0,P|300:193|270:237,1,114.460002707108,2|0,1:0|0:0,0:0:0:0:
363,6,193684,1,0,1:0:0:0:
384,12,193813,2,0,P|434:77|443:129,1,114.460002707108,10|0,0:0|0:0,0:0:0:0:
382,278,194200,1,0,1:0:0:0:
222,60,194587,2,0,P|168:99|195:156,1,114.460002707108,10|0,0:0|1:0,0:0:0:0:
296,252,194974,2,0,P|298:197|250:172,1,114.460002707108,2|0,0:0|1:0,0:0:0:0:
199,327,195361,2,0,P|254:272|330:267,1,114.460002707108,10|0,0:0|0:0,0:0:0:0:
73,203,195748,6,0,P|140:256|247:270,1,171.690004060661,2|8,1:0|0:0,0:0:0:0:
356,38,196393,2,0,P|272:54|205:107,1,171.690004060661,2|0,1:0|1:0,0:0:0:0:
354,211,196910,1,10,0:0:0:0:
367,185,197039,1,0,0:0:0:0:
393,173,197168,1,0,0:0:0:0:
424,249,197297,2,0,P|359:204|300:191,1,114.460002707108,2|2,1:0|0:0,0:0:0:0:
168,335,197684,2,0,P|114:315|69:280,1,114.460002707108,10|0,0:0|1:0,0:0:0:0:
107,88,198071,1,2,1:0:0:0:
136,123,198200,1,10,3:0:0:0:
140,157,198329,1,10,3:0:0:0:
132,172,198458,2,0,L|70:178,1,55.4599991537476,10|0,3:0|0:0,0:0:0:0:
4,222,198845,5,6,0:0:0:0:
82,50,209684,6,0,L|85:96,2,33.6299995894775,0|8|8,1:0|3:0|3:0,0:0:0:0:
138,135,210071,2,0,L|135:181,2,33.6299995894775,8|8|8,3:0|3:0|3:0,0:0:0:0:
76,216,210458,2,0,L|79:262,2,33.6299995894775,8|8|8,3:0|3:0|3:0,0:0:0:0:
98,327,210845,2,0,P|128:312|148:286,1,67.2599991789551,10|0,0:0|1:0,0:0:0:0:
301,174,211232,6,0,P|340:268|315:367,1,207.090000789986,6|8,1:0|0:0,0:0:0:0:
236,84,211877,2,0,P|321:57|387:116,1,138.060000526657,2|0,1:0|0:0,0:0:0:0:
185,221,212264,1,2,1:0:0:0:
158,149,212393,2,0,P|73:122|7:181,1,138.060000526657,10|0,0:0|0:0,0:0:0:0:
110,349,212781,2,0,P|138:313|179:297,1,69.0300002633285,0|0,1:0|0:0,0:0:0:0:
337,324,213039,1,2,0:0:0:0:
277,271,213168,2,0,P|314:205|329:113,1,138.060000526657,8|0,0:0|1:0,0:0:0:0:
176,13,213555,2,0,P|210:72|226:139,1,138.060000526657,2|0,0:0|1:0,0:0:0:0:
54,166,213942,2,0,P|91:129|138:121,1,90.8599981976624,10|0,0:0|0:0,0:0:0:0:
197,336,214329,6,0,P|112:293|126:196,1,207.090000789986,2|8,1:0|0:0,0:0:0:0:
401,116,214974,2,0,P|398:187|338:232,1,138.060000526657,2|0,1:0|0:0,0:0:0:0:
233,50,215361,1,0,1:0:0:0:
187,113,215490,2,0,P|226:175|242:256,1,138.060000526657,10|0,0:0|0:0,0:0:0:0:
413,362,215877,2,0,P|356:325|274:312,1,138.060000526657,0|0,1:0|0:0,0:0:0:0:
125,376,216264,2,0,P|154:342|163:293,1,69.0300002633285,8|0,0:0|0:0,0:0:0:0:
7,224,216522,1,0,1:0:0:0:
0,251,216651,2,0,P|25:275|57:288,1,69.0300002633285,8|0,0:0|0:0,0:0:0:0:
176,54,216910,1,0,1:0:0:0:
100,75,217039,2,0,P|80:103|79:138,1,69.0300002633285,10|0,0:0|0:0,0:0:0:0:
290,238,217296,5,10,3:0:0:0:
215,246,217425,2,0,P|158:166|155:115,1,138.060000526657,6|0,1:0|0:0,0:0:0:0:
338,10,217812,2,0,P|318:45|320:91,1,69.0300002633285,8|0,0:0|0:0,0:0:0:0:
442,249,218070,1,0,1:0:0:0:
428,225,218200,2,0,P|357:190|292:189,1,138.060000526657,0|0,0:0|1:0,0:0:0:0:
206,47,218587,2,0,P|223:82|223:131,1,69.0300002633285,10|0,0:0|0:0,0:0:0:0:
105,259,218845,5,2,0:0:0:0:
151,196,218974,2,0,P|211:256|211:323,1,138.060000526657,6|0,1:0|0:0,0:0:0:0:
45,367,219361,1,8,0:0:0:0:
286,260,219619,1,2,1:0:0:0:
306,277,219748,2,0,P|361:228|434:214,1,138.060000526657,0|0,0:0|1:0,0:0:0:0:
437,375,220135,2,0,P|415:348|405:299,1,69.0300002633285,10|0,0:0|0:0,0:0:0:0:
473,129,220393,5,2,0:0:0:0:
455,52,220522,2,0,P|395:10|324:37,1,138.060000526657,6|0,1:0|0:0,0:0:0:0:
286,218,220909,2,0,P|303:183|298:127,1,69.0300002633285,8|0,0:0|0:0,0:0:0:0:
128,36,221167,1,0,1:0:0:0:
155,45,221296,2,0,P|203:102|228:183,1,138.060000526657,0|0,0:0|1:0,0:0:0:0:
368,15,221684,2,0,P|346:42|329:159,1,138.060000526657,10|2,0:0|0:0,0:0:0:0:
457,229,222071,6,0,L|361:217,1,69.0300002633285,6|0,1:0|0:0,0:0:0:0:
277,323,222329,2,0,L|132:335,1,138.060000526657,2|0,0:0|0:0,0:0:0:0:
3,213,222716,2,0,L|181:234,1,138.060000526657,10|0,3:0|0:0,0:0:0:0:
333,130,223103,1,2,0:0:0:0:
359,170,223232,1,10,0:0:0:0:
357,238,223361,1,8,0:0:0:0:
302,300,223490,1,10,0:0:0:0:
224,253,223619,6,0,P|196:168|109:155,1,149.859998856659,4|0,1:0|0:0,0:0:0:0:
154,304,224006,1,8,0:0:0:0:
51,72,224264,2,0,P|116:20|212:64,1,138.060000526657,2|0,1:0|0:0,0:0:0:0:
294,193,224651,1,0,1:0:0:0:
358,151,224781,2,0,P|298:247|308:357,1,207.090000789986,10|0,0:0|1:0,0:0:0:0:
131,110,225426,1,2,0:0:0:0:
97,177,225555,2,0,P|175:124|258:119,1,138.060000526657,8|0,0:0|1:0,0:0:0:0:
270,263,225942,2,0,P|240:238|197:232,1,69.0300002633285,2|0,0:0|0:0,0:0:0:0:
351,328,226200,1,0,1:0:0:0:
406,276,226329,2,0,P|401:237|363:192,1,90.8599981976624,10|0,0:0|0:0,0:0:0:0:
210,95,226716,6,0,P|268:159|262:259,1,138.060000526657,6|0,1:0|0:0,0:0:0:0:
129,340,227103,2,0,P|159:313|207:302,1,69.0300002633285,8|0,0:0|0:0,0:0:0:0:
42,153,227361,2,0,P|104:196|209:217,1,138.060000526657,2|0,1:0|0:0,0:0:0:0:
309,77,227748,1,0,1:0:0:0:
231,70,227877,2,0,P|290:147|301:221,1,138.060000526657,10|0,0:0|0:0,0:0:0:0:
455,24,228264,6,0,P|396:101|385:175,1,138.060000526657,0|0,1:0|0:0,0:0:0:0:
478,325,228651,1,8,0:0:0:0:
273,188,228910,1,0,1:0:0:0:
276,216,229039,2,0,P|217:293|206:367,1,138.060000526657,0|0,0:0|1:0,0:0:0:0:
183,166,229426,2,0,P|153:144|105:147,1,69.0300002633285,10|0,0:0|0:0,0:0:0:0:
11,345,229684,5,10,3:0:0:0:
6,269,229813,2,0,P|101:218|157:213,1,138.060000526657,6|0,1:0|0:0,0:0:0:0:
248,343,230200,2,0,P|285:367|344:367,1,69.0300002633285,8|0,0:0|0:0,0:0:0:0:
409,188,230458,2,0,P|368:260|301:273,1,138.060000526657,2|0,1:0|0:0,0:0:0:0:
286,63,230845,1,0,1:0:0:0:
339,117,230974,2,0,P|326:148|320:198,1,69.0300002633285,10|0,0:0|0:0,0:0:0:0:
171,314,231232,5,0,0:0:0:0:
224,260,231361,2,0,P|211:229|212:108,1,138.060000526657,2|0,1:0|0:0,0:0:0:0:
325,292,231748,2,0,P|363:310|401:308,1,69.0300002633285,8|0,0:0|0:0,0:0:0:0:
471,139,232006,1,0,1:0:0:0:
437,132,232135,2,0,P|479:202|479:277,1,138.060000526657,0|0,0:0|1:0,0:0:0:0:
345,62,232522,2,0,P|381:29|435:23,1,69.0300002633285,10|0,0:0|0:0,0:0:0:0:
307,192,232781,5,2,0:0:0:0:
273,120,232910,2,0,P|208:95|103:95,1,138.060000526657,2|0,1:0|0:0,0:0:0:0:
339,278,233297,2,0,P|323:316|321:363,1,69.0300002633285,8|0,0:0|0:0,0:0:0:0:
152,174,233555,1,0,1:0:0:0:
178,191,233684,2,0,P|196:257|200:329,1,138.060000526657,0|0,0:0|1:0,0:0:0:0:
296,152,234071,2,0,P|333:133|384:145,1,69.0300002633285,10|0,0:0|0:0,0:0:0:0:
477,334,234329,5,2,0:0:0:0:
439,270,234458,2,0,P|464:218|451:152,1,69.0300002633285,6|8,1:0|3:0,0:0:0:0:
292,364,234716,1,10,3:0:0:0:
252,288,234845,1,8,0:0:0:0:
212,264,234974,1,8,3:0:0:0:
168,261,235103,1,10,3:0:0:0:
105,310,235232,2,0,P|126:336|133:381,1,69.0300002633285,8|0,3:0|0:0,0:0:0:0:
20,186,235490,1,10,3:0:0:0:
55,249,235619,2,0,P|34:275|27:320,1,69.0300002633285,10|0,0:0|0:0,0:0:0:0:
179,150,235877,5,10,3:0:0:0:
252,122,236006,2,0,P|220:191|212:277,1,149.859998856659,6|0,1:0|0:0,0:0:0:0:
357,110,236393,1,8,0:0:0:0:
349,371,236651,2,0,P|317:302|309:216,1,138.060000526657,2|0,1:0|0:0,0:0:0:0:
444,105,237038,1,0,1:0:0:0:
478,177,237168,2,0,P|395:133|288:158,1,207.090000789986,10|0,0:0|1:0,0:0:0:0:
414,320,237813,1,2,0:0:0:0:
447,250,237942,2,0,P|405:293|320:305,1,138.060000526657,8|0,0:0|1:0,0:0:0:0:
239,165,238329,2,0,P|269:190|312:196,1,69.0300002633285,2|0,0:0|0:0,0:0:0:0:
158,100,238587,1,0,1:0:0:0:
89,129,238716,2,0,P|88:187|118:279,1,138.060000526657,10|0,0:0|0:0,0:0:0:0:
304,277,239103,6,0,P|246:213|252:113,1,138.060000526657,6|0,1:0|0:0,0:0:0:0:
383,44,239490,2,0,P|353:71|305:82,1,69.0300002633285,8|0,0:0|0:0,0:0:0:0:
470,231,239748,2,0,P|408:188|303:167,1,138.060000526657,2|0,1:0|0:0,0:0:0:0:
203,307,240135,1,0,1:0:0:0:
281,314,240264,2,0,P|222:237|211:163,1,138.060000526657,10|0,0:0|0:0,0:0:0:0:
57,360,240651,6,0,P|116:283|127:209,1,138.060000526657,0|0,1:0|0:0,0:0:0:0:
34,59,241038,1,8,0:0:0:0:
239,196,241297,1,0,1:0:0:0:
236,168,241426,2,0,P|295:91|306:17,1,138.060000526657,0|0,0:0|1:0,0:0:0:0:
396,240,241813,2,0,P|426:262|474:259,1,69.0300002633285,10|0,0:0|0:0,0:0:0:0:
454,69,242071,5,10,3:0:0:0:
380,71,242200,2,0,P|437:150|453:222,1,138.060000526657,6|0,1:0|0:0,0:0:0:0:
280,292,242587,2,0,P|310:254|310:192,1,69.0300002633285,8|0,0:0|0:0,0:0:0:0:
166,142,242845,1,0,1:0:0:0:
196,154,242974,2,0,P|214:185|220:232,1,69.0300002633285
48,302,243232,1,0,1:0:0:0:
117,276,243361,2,0,P|135:245|141:198,1,69.0300002633285,10|0,0:0|0:0,0:0:0:0:
33,51,243619,1,2,0:0:0:0:
0,120,243748,6,0,P|77:129|151:41,1,138.060000526657,6|0,1:0|0:0,0:0:0:0:
287,7,244135,2,0,P|330:14|369:47,1,69.0300002633285,8|0,0:0|0:0,0:0:0:0:
430,194,244393,1,0,1:0:0:0:
453,185,244522,2,0,P|463:104|487:49,1,138.060000526657,0|0,0:0|1:0,0:0:0:0:
294,84,244910,2,0,P|319:108|333:159,1,69.0300002633285,10|0,0:0|0:0,0:0:0:0:
270,343,245168,5,2,0:0:0:0:
343,314,245297,2,0,P|296:256|189:267,1,138.060000526657,6|0,1:0|0:0,0:0:0:0:
81,368,245684,1,8,0:0:0:0:
33,124,245942,1,0,1:0:0:0:
45,153,246071,1,0,0:0:0:0:
255,45,246329,1,0,1:0:0:0:
206,109,246458,2,0,P|189:141|185:194,1,69.0300002633285,10|0,0:0|0:0,0:0:0:0:
347,306,246716,5,2,0:0:0:0:
379,232,246845,2,0,P|416:217|460:210,1,69.0300002633285,6|0,1:0|0:0,0:0:0:0:
291,378,247103,1,2,0:0:0:0:
259,304,247232,2,0,P|222:289|178:282,1,69.0300002633285,8|0,0:0|0:0,0:0:0:0:
367,205,247490,2,0,P|471:177|505:182,1,138.060000526657,2|0,1:0|0:0,0:0:0:0:
321,342,247877,1,2,1:0:0:0:
268,286,248006,2,0,P|231:271|187:264,1,69.0300002633285,10|0,0:0|0:0,0:0:0:0:
14,317,248264,5,2,0:0:0:0:
78,354,248393,2,0,P|44:271|60:200,1,138.060000526657,4|0,1:0|0:0,0:0:0:0:
149,123,248781,1,8,0:0:0:0:
330,366,249039,2,0,P|364:283|348:212,1,138.060000526657,2|0,1:0|0:0,0:0:0:0:
245,115,249426,1,0,1:0:0:0:
310,72,249555,2,0,P|273:175|270:229,1,138.060000526657,10|0,0:0|0:0,0:0:0:0:
162,382,249942,6,0,P|155:337|135:293,1,69.0300002633285,0|0,1:0|0:0,0:0:0:0:
72,154,250200,1,2,0:0:0:0:
134,204,250329,2,0,P|191:156|281:139,1,138.060000526657,8|0,0:0|1:0,0:0:0:0:
379,299,250716,2,0,P|322:251|232:234,1,138.060000526657,2|0,0:0|1:0,0:0:0:0:
119,372,251103,2,0,P|176:324|266:307,1,138.060000526657,10|0,0:0|0:0,0:0:0:0:
437,365,251490,6,0,P|412:261|399:175,1,189.389994220276,6|8,1:0|0:0,0:0:0:0:
206,41,252135,1,2,1:0:0:0:
223,58,252264,2,0,P|218:119|206:194,1,126.259996146851,0|0,0:0|1:0,0:0:0:0:
61,278,252651,2,0,P|56:214|45:152,1,126.259996146851,10|0,0:0|0:0,0:0:0:0:
170,278,253039,6,0,P|265:270|307:175,1,189.389994220276,0|8,1:0|0:0,0:0:0:0:
329,58,253684,1,0,1:0:0:0:
309,41,253813,2,0,P|275:48|246:76,1,63.1299980734254
362,153,254071,1,0,1:0:0:0:
367,128,254200,2,0,P|394:109|436:102,1,63.1299980734254,10|0,0:0|0:0,0:0:0:0:
486,279,254458,5,10,3:0:0:0:
469,262,254587,2,0,P|497:170|497:86,1,171.690004060661,6|8,1:0|0:0,0:0:0:0:
333,220,255232,1,0,1:0:0:0:
353,229,255361,2,0,P|371:259|393:352,1,114.460002707108,0|0,0:0|1:0,0:0:0:0:
227,243,255748,1,10,0:0:0:0:
123,45,256006,5,2,0:0:0:0:
143,54,256135,2,0,P|117:120|117:245,1,171.690004060661,2|8,1:0|0:0,0:0:0:0:
392,16,256781,1,0,1:0:0:0:
372,25,256910,2,0,P|398:91|398:181,1,114.460002707108,0|0,0:0|1:0,0:0:0:0:
337,239,257297,1,10,0:0:0:0:
143,54,257555,5,2,0:0:0:0:
163,63,257684,2,0,P|137:129|137:254,1,153.990001292336,2|8,1:0|0:0,0:0:0:0:
194,336,258329,1,0,1:0:0:0:
200,316,258458,2,0,P|228:297|260:292,1,51.3300004307785
369,244,258716,1,0,1:0:0:0:
375,264,258845,2,0,P|403:283|435:288,1,51.3300004307785,8|0,0:0|0:0,0:0:0:0:
473,129,259103,5,0,0:0:0:0:
456,148,259232,2,0,P|468:170|476:204,2,51.3300004307785,2|8|8,1:0|3:0|3:0,0:0:0:0:
371,138,259619,2,0,P|377:113|389:90,2,51.3300004307785,8|8|8,0:0|3:0|3:0,0:0:0:0:
309,198,260006,2,0,P|297:176|289:142,2,51.3300004307785,8|0|8,0:0|0:0|3:0,0:0:0:0:
401,214,260393,2,0,P|394:238|382:261,2,51.3300004307785,10|0|8,0:0|0:0|3:0,0:0:0:0:
309,312,260781,6,0,P|256:279|173:267,1,136.289997296494,6|8,1:0|0:0,0:0:0:0:
0,204,261426,2,0,P|66:193|124:158,1,136.289997296494,2|0,1:0|1:0,0:0:0:0:
238,121,261942,2,0,P|203:161|219:242,1,136.289997296494,10|0,0:0|1:0,0:0:0:0:
383,137,262716,1,10,0:0:0:0:
286,336,262974,1,0,1:0:0:0:
286,336,263103,2,0,P|313:314|382:300,1,90.8599981976624,2|0,0:0|1:0,0:0:0:0:
458,207,263490,2,0,P|431:185|362:171,1,90.8599981976624,10|0,0:0|0:0,0:0:0:0:
240,223,263877,6,0,P|274:139|274:100,2,100.889998768433,2|8|0,1:0|0:0|0:0,0:0:0:0:
166,84,264910,1,0,1:0:0:0:
166,84,265039,2,0,P|180:114|184:148,1,67.2599991789551,10|0,0:0|0:0,0:0:0:0:
116,254,265426,5,0,1:0:0:0:
288,384,265813,1,8,0:0:0:0:
342,289,266071,1,0,1:0:0:0:
342,289,266200,2,0,P|341:247|361:218,1,67.2599991789551,10|0,0:0|1:0,0:0:0:0:
201,274,266587,2,0,P|229:303|263:311,1,67.2599991789551,8|8,0:0|3:0,0:0:0:0:
267,236,266974,6,0,B|275:170|382:115|382:115|275:170|225:29|225:29|142:153|51:75|51:75|142:153|135:213,1,764.640018667969,6|6,1:0|0:0,0:0:0:0:
