osu file format v14

[General]
AudioFilename: audio.mp3
AudioLeadIn: 0
PreviewTime: 185802
Countdown: 0
SampleSet: Soft
StackLeniency: 0.6
Mode: 0
LetterboxInBreaks: 0
WidescreenStoryboard: 1

[Editor]
Bookmarks: 258520
DistanceSpacing: 0.8
BeatDivisor: 4
GridSize: 32
TimelineZoom: 2.5

[Metadata]
Title:Silent Silence Siren
TitleUnicode:Silent Silence Siren
Artist:Akatsuki Records
ArtistUnicode:暁Records
Creator:Zelq
Version:Rolniczy's Insane
Source:東方Project
Tags:Touhou Sakuya Izayoi Theme Lunar Clock ~ Luna Dial 月時計 ~ ルナ・ダイアル 東方紅魔郷 ~ the Embodiment of Scarlet Devil 謎の人物K TOHO PARTY BOX 02 ACTRock Comiket 90 C90 Female Japanese Vocal Rolniczy
BeatmapID:1824472
BeatmapSetID:866443

[Difficulty]
HPDrainRate:5
CircleSize:4
OverallDifficulty:8
ApproachRate:8.8
SliderMultiplier:1.6
SliderTickRate:1

[Events]
//Background and Video events
0,0,"44808875_p0v2.jpg",0,0
//Break Periods
//Storyboard Layer 0 (Background)
//Storyboard Layer 1 (Fail)
//Storyboard Layer 2 (Pass)
//Storyboard Layer 3 (Foreground)
//Storyboard Sound Samples

[TimingPoints]
384,348.837209302326,4,2,1,40,1,0
384,-100,4,2,1,40,0,0
2477,-100,4,2,1,60,0,0
3174,-111.111111111111,4,2,1,60,0,0
24453,-99.9999999999999,4,2,1,70,0,0
25500,-142.857142857143,4,2,1,45,0,0
29860,-125,4,2,1,60,0,0
31081,-111.111111111111,4,2,1,60,0,0
33523,-100,4,2,1,70,0,0
37709,-100,4,2,1,50,0,0
38058,-83.3333333333333,4,2,1,75,0,1
52011,-71.4285714285714,4,2,1,75,0,1
56197,-100,4,2,1,70,0,0
57070,-100,4,2,1,75,0,0
57593,-90.9090909090909,4,2,1,70,0,0
65965,-125,4,2,1,50,0,0
67360,-100,4,2,1,60,0,0
78523,-90.9090909090909,4,2,1,65,0,0
88639,-83.3333333333333,4,2,1,75,0,0
89686,-125,4,2,1,45,0,0
94046,-111.111111111111,4,2,1,45,0,0
94570,-111.111111111111,4,2,1,60,0,0
95267,-100,4,2,1,60,0,0
97709,-100,4,2,1,70,0,0
101895,-100,4,2,1,50,0,0
102244,-100,4,2,1,70,0,0
103639,-100,4,2,1,60,0,0
103988,-100,4,2,1,65,0,0
104337,-100,4,2,1,70,0,0
105035,-83.3333333333333,4,2,1,75,0,1
118988,-71.4285714285714,4,2,1,75,0,1
123174,-100,4,2,1,70,0,0
124046,-100,4,2,1,75,0,0
124570,-142.857142857143,4,2,1,55,0,0
130151,-142.857142857143,4,2,1,60,0,0
130849,-125,4,2,1,65,0,0
131546,-111.111111111111,4,2,1,75,0,0
132244,-111.111111111111,4,2,1,70,0,0
132942,-100,4,2,1,70,0,0
138523,-90.9090909090909,4,2,1,70,0,0
148988,-83.3333333333333,4,2,1,70,0,0
149686,-76.9230769230769,4,2,1,70,0,0
151081,-90.9090909090909,4,2,1,65,0,0
162244,-90.9090909090909,4,2,1,70,0,0
173407,-100,4,2,1,35,0,0
177767,-200,4,2,1,40,0,0
178639,-142.857142857143,4,2,1,45,0,0
178988,-111.111111111111,4,2,1,60,0,0
180384,-111.111111111111,4,2,1,65,0,0
181430,-100,4,2,1,70,0,0
185616,-100,4,2,1,50,0,0
185965,-83.3333333333333,4,2,1,75,0,1
199918,-71.4285714285714,4,2,1,75,0,1
204104,-100,4,2,1,70,0,0
204628,-100,4,2,1,75,0,0
204977,-100,4,2,1,75,0,0
205500,-90.9090909090909,4,2,1,70,0,0
216663,-90.9090909090909,4,2,1,65,0,0
238988,-90.9090909090909,4,2,1,70,0,0
250151,-83.3333333333333,4,2,1,70,0,0
254337,-100,4,2,1,50,0,0
255645,-192.307692307692,4,2,1,50,0,0
255732,-166.666666666667,4,2,2,50,0,0
256430,-166.666666666667,4,2,2,42,0,0
257128,-166.666666666667,4,2,2,34,0,0
257825,-166.666666666667,4,2,2,26,0,0
258523,-166.666666666667,4,2,2,18,0,0
259046,-166.666666666667,4,2,2,12,0,0
259570,-100,4,2,2,5,0,0

[Colours]
Combo1 : 169,201,254
Combo2 : 112,194,131
Combo3 : 255,255,181
Combo4 : 225,225,225

[HitObjects]
45,280,384,5,0,1:2:0:0:
45,280,732,1,0,1:2:0:0:
45,280,1081,1,0,1:2:0:0:
45,280,1430,1,0,1:2:0:0:
167,155,1779,5,0,1:2:0:0:
166,253,1953,1,2,0:2:0:0:
167,155,2127,1,0,1:2:0:0:
255,207,2302,1,2,0:2:0:0:
166,57,2476,1,8,1:2:0:0:
353,73,2651,1,8,0:2:0:0:
333,77,2738,1,8,0:2:0:0:
313,81,2825,1,8,1:2:0:0:
472,216,3000,1,8,0:2:0:0:
452,212,3087,1,8,0:2:0:0:
432,208,3174,5,6,1:2:0:0:
326,182,3349,1,0,0:0:0:0:
353,73,3523,2,0,P|388:78|417:99,1,71.9999978027344,2|0,1:2|0:0,0:0:0:0:
452,212,3872,5,0,1:2:0:0:
471,307,4046,1,0,0:0:0:0:
363,257,4221,1,0,1:2:0:0:
344,352,4395,1,0,0:0:0:0:
232,224,4570,1,0,1:2:0:0:
251,319,4744,1,0,0:0:0:0:
133,248,4918,1,0,1:2:0:0:
114,343,5092,1,0,0:0:0:0:
50,212,5267,2,0,P|97:165|182:172,1,143.999995605469,0|8,1:2|1:2,0:0:0:0:
170,165,5965,5,2,1:2:0:0:
250,90,6139,1,0,0:0:0:0:
90,126,6314,2,0,P|51:113|15:73,1,71.9999978027344,2|0,1:2|0:0,0:0:0:0:
176,31,6663,5,0,1:2:0:0:
250,90,6837,1,0,0:0:0:0:
360,33,7011,1,0,1:2:0:0:
343,119,7186,1,0,0:0:0:0:
453,166,7360,1,0,1:2:0:0:
372,201,7535,1,0,0:0:0:0:
374,322,7709,1,0,1:2:0:0:
298,275,7884,1,0,0:0:0:0:
177,351,8058,2,0,P|128:377|32:359,1,143.999995605469,0|8,1:2|1:2,0:0:0:0:
42,365,8756,5,2,1:2:0:0:
47,227,8930,1,0,0:0:0:0:
166,281,9104,2,0,P|179:336|171:365,1,71.9999978027344,2|0,1:2|0:0,0:0:0:0:
47,227,9453,5,0,1:2:0:0:
26,143,9628,1,0,0:0:0:0:
136,75,9802,1,0,1:2:0:0:
115,159,9977,1,0,0:0:0:0:
226,235,10151,1,0,1:2:0:0:
205,151,10326,1,0,0:0:0:0:
325,87,10500,1,0,1:2:0:0:
304,171,10675,1,0,0:0:0:0:
380,245,10849,2,0,P|391:206|355:97,1,143.999995605469,0|8,1:2|1:2,0:0:0:0:
364,108,11546,6,0,B|453:103|410:53|510:51,1,143.999995605469,2|0,1:2|1:2,0:0:0:0:
495,145,12070,1,2,0:0:0:0:
374,29,12244,2,0,P|327:11|225:70,1,143.999995605469,2|0,1:2|1:2,0:0:0:0:
181,120,12767,1,0,0:0:0:0:
82,48,12942,5,0,1:2:0:0:
76,190,13116,1,0,0:0:0:0:
186,124,13290,1,0,1:2:0:0:
76,190,13465,1,0,0:0:0:0:
176,245,13639,1,0,1:2:0:0:
76,190,13814,1,0,0:0:0:0:
75,346,13988,1,8,1:2:0:0:
75,346,14337,5,6,1:2:0:0:
176,245,14511,1,0,0:0:0:0:
307,349,14686,2,0,P|311:313|304:278,1,71.9999978027344,2|0,1:2|0:0,0:0:0:0:
176,245,15035,5,0,1:2:0:0:
206,342,15209,1,0,0:0:0:0:
328,210,15384,1,0,1:2:0:0:
209,153,15558,1,0,0:0:0:0:
225,158,15645,1,0,0:0:0:0:
242,165,15732,1,0,1:2:0:0:
325,81,15907,1,0,0:0:0:0:
224,4,16081,1,0,1:2:0:0:
137,120,16256,1,0,0:0:0:0:
19,55,16430,2,0,P|71:10|136:33,1,143.999995605469,0|8,1:2|1:2,0:0:0:0:
135,32,17128,5,2,1:2:0:0:
118,145,17302,1,0,0:0:0:0:
170,256,17477,2,0,P|181:301|159:346,1,71.9999978027344,2|0,1:2|0:0,0:0:0:0:
128,176,17825,5,0,1:2:0:0:
219,136,18000,1,0,0:0:0:0:
271,284,18174,1,0,1:2:0:0:
284,197,18349,1,0,0:0:0:0:
413,243,18523,1,0,1:2:0:0:
370,172,18698,1,0,0:0:0:0:
475,109,18872,1,0,1:2:0:0:
392,91,19046,1,0,0:0:0:0:
485,193,19221,2,0,P|496:262|459:322,1,143.999995605469,0|8,1:2|1:2,0:0:0:0:
458,322,19918,5,2,1:2:0:0:
341,253,20093,1,0,0:0:0:0:
399,155,20267,2,0,P|413:205|410:249,1,71.9999978027344,2|0,1:2|0:0,0:0:0:0:
322,339,20616,5,0,1:2:0:0:
222,312,20790,1,0,0:0:0:0:
136,372,20965,1,0,1:2:0:0:
36,345,21139,1,0,0:0:0:0:
78,238,21314,1,0,1:2:0:0:
41,141,21488,1,0,0:0:0:0:
181,65,21663,1,0,1:2:0:0:
145,163,21837,1,0,0:0:0:0:
12,63,22011,2,0,P|39:18|148:23,1,143.999995605469,0|8,1:2|1:2,0:0:0:0:
124,6,22709,5,2,1:2:0:0:
218,92,22884,1,2,0:0:0:0:
332,42,23058,1,2,1:2:0:0:
419,137,23232,2,0,P|341:133|283:195,2,143.999995605469,2|2|2,0:0|0:0|0:0,0:0:0:0:
439,306,24104,2,0,L|444:228,1,71.9999978027344,2|0,1:2|0:0,0:0:0:0:
217,175,24453,6,0,P|229:249|231:317,1,120,12|8,1:2|0:2,0:0:0:0:
234,332,24802,1,8,1:2:0:0:
344,237,24977,1,0,3:2:0:0:
198,203,25151,1,0,1:2:0:0:
292,112,25325,1,8,0:2:0:0:
272,107,25413,1,8,0:2:0:0:
246,100,25500,6,0,P|306:74|364:89,1,111.999996582031,4|0,1:2|0:0,0:0:0:0:
467,132,26023,2,0,L|480:68,1,55.9999982910157,0|0,1:2|0:0,0:0:0:0:
339,26,26372,2,0,L|350:80,1,55.9999982910157
481,143,26721,2,0,L|494:79,1,55.9999982910157,0|0,0:0|1:2,0:0:0:0:
325,156,27070,2,0,B|266:174|292:207|234:218,1,111.999996582031,0|0,0:0|1:2,0:0:0:0:
73,240,27593,1,0,0:0:0:0:
73,240,27942,2,0,L|128:241,1,55.9999982910157,8|0,0:2|0:0,0:0:0:0:
30,172,28290,6,0,P|-4:225|12:292,1,111.999996582031,4|0,1:2|0:0,0:0:0:0:
137,270,28814,2,0,L|81:268,1,55.9999982910157,0|0,1:2|0:0,0:0:0:0:
196,184,29163,1,0,0:0:0:0:
243,295,29337,1,0,0:0:0:0:
298,197,29511,2,0,P|302:155|293:118,1,55.9999982910157
361,317,29860,6,0,P|418:340|484:321,1,128,4|0,1:2|1:2,0:0:0:0:
298,197,30384,1,8,0:2:0:0:
285,199,30471,1,8,0:2:0:0:
272,201,30558,1,8,0:2:0:0:
419,214,30732,1,10,0:2:0:0:
403,48,30907,2,0,L|367:57,1,32,10|8,0:2|0:2,0:0:0:0:
229,96,31081,5,6,1:2:0:0:
361,151,31256,1,2,0:0:0:0:
244,206,31430,1,2,0:0:0:0:
326,285,31604,1,2,0:0:0:0:
192,355,31779,2,0,L|186:272,2,71.9999978027344,10|0|0,0:2|1:2|3:2,0:0:0:0:
88,192,32302,1,0,3:2:0:0:
105,196,32389,1,0,3:2:0:0:
122,200,32477,5,6,1:2:0:0:
0,280,32651,1,2,0:0:0:0:
146,282,32825,1,2,0:0:0:0:
70,353,33000,1,2,1:2:0:0:
229,361,33174,2,0,P|233:325|232:289,1,71.9999978027344,10|0,0:2|0:0,0:0:0:0:
11,272,33523,1,12,0:2:0:0:
122,200,33697,1,0,0:0:0:0:
31,126,33872,5,10,0:2:0:0:
31,126,34046,1,0,1:2:0:0:
122,276,34221,1,10,0:2:0:0:
227,91,34395,1,2,1:2:0:0:
227,91,34569,1,8,0:2:0:0:
83,192,34744,1,2,1:2:0:0:
83,192,34918,1,8,0:2:0:0:
287,209,35093,1,2,1:2:0:0:
117,58,35267,5,8,0:2:0:0:
307,39,35442,1,8,0:2:0:0:
307,39,35790,1,8,0:2:0:0:
326,229,35965,1,8,0:2:0:0:
326,229,36314,2,0,P|261:225|193:250,1,120,8|0,0:2|0:0,0:0:0:0:
170,260,36663,5,8,0:2:0:0:
367,114,36837,1,8,0:2:0:0:
367,114,37186,1,8,0:2:0:0:
68,71,37360,1,8,0:2:0:0:
68,71,37709,1,0,3:2:0:0:
107,290,38058,6,0,P|48:296|30:262,1,95.9999970703126,6|0,1:2|0:0,0:0:0:0:
195,143,38407,2,0,P|136:137|118:171,1,95.9999970703126,8|0,1:2|0:0,0:0:0:0:
330,271,38756,2,0,P|271:277|253:243,1,95.9999970703126,2|0,1:2|0:0,0:0:0:0:
442,148,39104,1,8,1:2:0:0:
418,150,39192,1,0,0:0:0:0:
395,152,39279,1,0,0:0:0:0:
330,271,39453,6,0,P|271:277|253:243,1,95.9999970703126,2|0,1:2|0:0,0:0:0:0:
195,143,39802,2,0,P|136:137|118:171,1,95.9999970703126,8|0,1:2|0:0,0:0:0:0:
107,290,40151,2,0,P|48:296|30:262,1,95.9999970703126,2|0,1:2|0:0,0:0:0:0:
25,237,40413,1,0,0:0:0:0:
25,237,40500,1,8,1:2:0:0:
195,143,40674,1,0,0:0:0:0:
107,290,40849,6,0,P|48:296|30:262,1,95.9999970703126,2|0,1:2|0:0,0:0:0:0:
195,143,41198,2,0,P|136:137|118:171,1,95.9999970703126,8|0,1:2|0:0,0:0:0:0:
330,271,41547,2,0,P|271:277|253:243,1,95.9999970703126,2|0,1:2|0:0,0:0:0:0:
261,211,41808,1,0,0:0:0:0:
261,211,41895,1,8,1:2:0:0:
346,82,42070,1,0,0:0:0:0:
465,215,42244,5,2,1:2:0:0:
458,114,42418,1,2,0:0:0:0:
300,193,42593,1,10,1:2:0:0:
351,104,42767,1,2,0:0:0:0:
483,222,42942,2,0,P|489:277|481:325,1,95.9999970703126,2|8,1:2|0:2,0:0:0:0:
470,354,43203,1,8,0:2:0:0:
470,354,43290,1,10,1:2:0:0:
280,293,43465,1,8,0:2:0:0:
280,293,43552,1,8,0:2:0:0:
280,293,43639,6,0,P|339:299|357:265,1,95.9999970703126,6|0,1:2|0:0,0:0:0:0:
192,146,43988,2,0,P|251:140|269:174,1,95.9999970703126,8|0,1:2|0:0,0:0:0:0:
57,274,44337,2,0,P|116:280|134:246,1,95.9999970703126,2|0,1:2|0:0,0:0:0:0:
12,136,44686,1,8,1:2:0:0:
40,142,44773,1,0,0:0:0:0:
67,147,44860,1,0,0:0:0:0:
57,274,45035,6,0,P|116:280|134:246,1,95.9999970703126,2|0,1:2|0:0,0:0:0:0:
192,146,45384,2,0,P|251:140|269:174,1,95.9999970703126,8|0,1:2|0:0,0:0:0:0:
280,293,45732,2,0,P|339:299|357:265,1,95.9999970703126,2|0,1:2|0:0,0:0:0:0:
361,229,45994,1,0,0:0:0:0:
361,229,46081,1,8,1:2:0:0:
192,146,46256,1,0,0:0:0:0:
280,293,46430,6,0,P|339:299|357:265,1,95.9999970703126,2|0,1:2|0:0,0:0:0:0:
192,146,46779,2,0,P|251:140|269:174,1,95.9999970703126,8|0,1:2|0:0,0:0:0:0:
57,274,47128,2,0,P|100:287|132:254,1,95.9999970703126,2|0,1:2|0:0,0:0:0:0:
135,211,47389,1,0,0:0:0:0:
135,211,47477,1,8,1:2:0:0:
38,107,47651,1,0,0:0:0:0:
32,257,47825,5,2,1:2:0:0:
192,146,48000,2,0,P|251:140|269:174,1,95.9999970703126,2|8,0:0|1:2,0:0:0:0:
114,193,48349,1,2,0:0:0:0:
280,293,48523,2,0,P|339:299|357:265,1,95.9999970703126,2|0,1:2|0:0,0:0:0:0:
316,99,48872,1,10,1:2:0:0:
457,136,49046,1,10,0:2:0:0:
455,154,49133,1,8,0:2:0:0:
454,173,49221,6,0,L|337:163,1,95.9999970703126,6|0,1:2|0:0,0:0:0:0:
167,301,49570,2,0,L|262:292,1,95.9999970703126,8|0,1:2|0:0,0:0:0:0:
95,115,49918,2,0,P|72:170|86:242,1,95.9999970703126,0|0,1:2|0:0,0:0:0:0:
251,85,50267,1,8,1:2:0:0:
196,211,50442,1,0,0:0:0:0:
358,164,50616,6,0,L|453:172,1,95.9999970703126,2|0,1:2|0:0,0:0:0:0:
262,292,50965,2,0,L|166:300,1,95.9999970703126,8|0,1:2|0:0,0:0:0:0:
331,74,51314,2,0,P|356:127|351:194,1,95.9999970703126,0|0,1:2|0:0,0:0:0:0:
176,29,51663,1,8,1:2:0:0:
270,147,51837,1,0,0:0:0:0:
68,150,52011,6,0,B|13:128|13:128|193:114,1,223.999993164063,2|8,1:2|1:2,0:0:0:0:
367,143,52535,1,0,0:0:0:0:
260,341,52709,2,0,P|174:366|212:274,1,223.999993164063,2|8,1:2|1:2,0:0:0:0:
372,248,53232,1,0,0:0:0:0:
199,275,53407,6,0,L|190:138,2,111.999996582031,2|0|10,1:2|0:0|1:2,0:0:0:0:
271,123,53930,2,0,P|191:78|102:162,1,223.999993164063,2|0,0:2|0:0,0:0:0:0:
285,279,54453,2,0,L|276:142,1,111.999996582031,8|0,1:2|0:0,0:0:0:0:
34,226,54802,5,6,1:2:0:0:
199,275,54977,1,0,0:0:0:0:
199,275,55151,1,8,1:2:0:0:
37,344,55325,1,2,0:0:0:0:
152,370,55500,1,2,1:2:0:0:
16,324,55674,1,2,0:0:0:0:
224,258,55849,1,10,1:2:0:0:
4,203,56023,1,2,0:0:0:0:
274,135,56197,6,0,B|187:126|211:199|112:182,1,160,2|0,1:2|3:2,0:0:0:0:
349,288,56721,2,0,P|384:217|372:139,1,160,4|8,1:2|0:2,0:0:0:0:
355,109,57157,1,8,0:2:0:0:
343,92,57244,1,8,0:2:0:0:
331,75,57331,1,8,0:2:0:0:
319,58,57418,1,8,0:2:0:0:
305,42,57506,1,8,0:2:0:0:
292,22,57593,6,0,P|361:33|394:20,1,88.000002685547,6|0,1:2|0:0,0:0:0:0:
197,176,57942,2,0,P|208:107|195:74,1,88.000002685547,8|0,1:2|0:0,0:0:0:0:
356,271,58290,2,0,P|287:260|254:273,1,88.000002685547,0|0,1:2|0:0,0:0:0:0:
242,276,58552,1,0,0:0:0:0:
214,289,58639,1,8,1:2:0:0:
192,311,58727,1,0,0:0:0:0:
162,319,58814,1,0,0:0:0:0:
27,251,58988,6,0,P|70:244|111:257,1,88.000002685547,2|0,1:2|0:0,0:0:0:0:
203,91,59337,2,0,P|190:132|197:176,1,88.000002685547,8|0,1:2|0:0,0:0:0:0:
103,156,59686,2,0,L|43:86,1,88.000002685547,0|0,1:2|0:0,0:0:0:0:
30,67,59947,1,0,0:0:0:0:
12,46,60035,2,0,P|66:25|122:33,1,88.000002685547,8|0,1:2|0:0,0:0:0:0:
197,176,60384,6,0,P|208:107|195:74,1,88.000002685547,2|0,1:2|0:0,0:0:0:0:
356,271,60732,2,0,P|287:260|254:273,1,88.000002685547,8|0,1:2|0:0,0:0:0:0:
448,114,61081,2,0,P|437:183|450:216,1,88.000002685547,0|0,1:2|0:0,0:0:0:0:
453,222,61343,1,0,0:0:0:0:
463,246,61430,1,8,1:2:0:0:
471,270,61517,1,0,0:0:0:0:
476,300,61604,1,0,0:0:0:0:
472,330,61692,1,0,0:0:0:0:
453,363,61779,6,0,P|384:374|351:361,1,88.000002685547,2|0,1:2|0:0,0:0:0:0:
265,187,62128,2,0,P|254:256|267:289,1,88.000002685547,8|0,1:2|0:0,0:0:0:0:
442,152,62477,2,0,L|375:248,1,88.000002685547,0|0,1:2|0:0,0:0:0:0:
370,251,62738,1,0,0:0:0:0:
348,278,62825,1,8,1:2:0:0:
326,306,62913,1,0,0:0:0:0:
305,334,63000,1,0,0:0:0:0:
183,158,63174,6,0,P|224:144|267:151,1,88.000002685547,2|0,1:2|0:0,0:0:0:0:
98,300,63523,2,0,P|84:258|91:215,1,88.000002685547,8|0,1:2|0:0,0:0:0:0:
270,325,63872,2,0,P|228:338|185:331,1,88.000002685547,0|0,1:2|0:0,0:0:0:0:
158,315,64134,1,0,0:0:0:0:
129,303,64221,1,8,1:2:0:0:
98,300,64308,1,0,0:0:0:0:
69,310,64395,1,0,0:0:0:0:
260,235,64570,6,0,P|274:193|267:150,1,88.000002685547,2|0,1:2|0:0,0:0:0:0:
90,215,64918,2,0,P|84:258|98:300,1,88.000002685547,8|0,1:2|0:0,0:0:0:0:
179,168,65267,2,0,L|173:52,1,88.000002685547,2|0,1:2|0:0,0:0:0:0:
173,37,65529,1,0,0:0:0:0:
170,8,65616,2,0,P|130:33|130:79,1,88.000002685547,8|0,1:2|0:0,0:0:0:0:
260,235,65965,5,2,1:2:0:0:
476,138,67011,2,0,L|459:64,1,64,8|8,0:2|0:2,0:0:0:0:
369,167,67360,5,6,1:2:0:0:
456,245,67535,1,0,0:0:0:0:
369,167,67709,2,0,P|315:157|268:170,1,80,2|0,1:2|0:0,0:0:0:0:
117,248,68058,5,0,1:2:0:0:
172,168,68232,1,0,0:0:0:0:
129,74,68407,1,0,1:2:0:0:
33,67,68581,1,0,0:0:0:0:
12,207,68756,1,0,1:2:0:0:
92,152,68930,1,0,0:0:0:0:
186,195,69105,1,0,1:2:0:0:
193,291,69279,1,0,0:0:0:0:
349,188,69453,2,0,P|301:180|262:190,1,80,0|0,1:2|0:0,0:0:0:0:
367,317,69802,2,0,P|406:323|445:315,1,80,8|0,1:2|0:0,0:0:0:0:
375,93,70151,5,2,1:2:0:0:
265,106,70325,1,0,0:0:0:0:
375,93,70500,2,0,P|424:100|464:122,1,80,2|0,1:2|0:0,0:0:0:0:
284,254,70849,5,0,1:2:0:0:
248,341,71023,1,0,0:0:0:0:
183,276,71197,1,0,1:2:0:0:
219,189,71371,1,0,0:0:0:0:
349,319,71546,1,0,1:2:0:0:
436,283,71720,1,0,0:0:0:0:
371,218,71895,1,0,1:2:0:0:
284,254,72070,1,0,0:0:0:0:
126,200,72244,2,0,P|114:144|130:92,1,80,0|0,1:2|0:0,0:0:0:0:
296,36,72593,2,0,P|307:74|304:113,1,80,8|0,1:2|0:0,0:0:0:0:
215,200,72942,5,2,1:2:0:0:
206,85,73116,1,0,0:0:0:0:
215,200,73290,2,0,P|210:258|194:308,1,80,2|0,1:2|0:0,0:0:0:0:
37,233,73639,5,0,1:2:0:0:
18,138,73814,1,0,0:0:0:0:
196,190,73988,1,0,1:2:0:0:
116,134,74163,1,0,0:0:0:0:
310,81,74337,1,0,1:2:0:0:
213,96,74512,1,0,0:0:0:0:
389,194,74686,1,0,1:2:0:0:
292,179,74861,1,0,0:0:0:0:
469,113,75035,2,0,P|482:165|481:219,1,80,0|0,1:2|0:0,0:0:0:0:
267,282,75384,2,0,P|270:242|281:203,1,80,8|0,1:2|0:0,0:0:0:0:
432,335,75732,6,0,B|334:338|379:289|272:295,1,160,2|0,1:2|1:2,0:0:0:0:
418,260,76256,1,2,0:0:0:0:
294,373,76430,2,0,P|234:381|142:328,1,160,2|0,1:2|1:2,0:0:0:0:
68,258,76953,1,0,0:0:0:0:
202,93,77128,5,0,1:2:0:0:
77,140,77302,1,0,0:0:0:0:
202,93,77477,1,0,1:2:0:0:
94,0,77651,1,0,0:0:0:0:
202,93,77825,1,8,1:2:0:0:
237,96,77913,1,8,0:2:0:0:
273,95,78000,1,8,0:2:0:0:
307,88,78087,1,8,0:2:0:0:
340,74,78174,1,0,1:2:0:0:
368,207,78349,1,0,1:2:0:0:
368,207,78436,1,0,1:2:0:0:
368,207,78523,6,0,P|423:190|460:198,1,88.000002685547,6|0,1:2|0:0,0:0:0:0:
328,356,78872,2,0,P|284:359|244:343,1,88.000002685547,2|0,1:2|0:0,0:0:0:0:
95,273,79221,5,0,1:2:0:0:
104,369,79395,1,0,0:0:0:0:
128,181,79570,1,0,1:2:0:0:
119,277,79744,1,0,0:0:0:0:
91,89,79918,1,0,1:2:0:0:
100,185,80092,1,0,0:0:0:0:
127,0,80267,1,0,1:2:0:0:
118,96,80441,1,0,0:0:0:0:
264,37,80616,2,0,P|310:26|367:43,1,88.000002685547,0|0,1:2|0:0,0:0:0:0:
350,162,80965,2,0,P|306:169|264:158,1,88.000002685547,0|0,1:2|1:2,0:0:0:0:
487,67,81314,6,0,L|499:180,1,88.000002685547,2|0,1:2|0:0,0:0:0:0:
354,346,81663,2,0,L|363:258,1,88.000002685547,2|0,1:2|0:0,0:0:0:0:
290,75,82011,5,0,1:2:0:0:
350,162,82186,1,0,0:0:0:0:
186,34,82360,1,0,1:2:0:0:
289,53,82535,1,0,0:0:0:0:
86,83,82709,1,0,1:2:0:0:
172,23,82884,1,0,0:0:0:0:
50,185,83058,1,0,1:2:0:0:
68,81,83233,1,0,0:0:0:0:
168,194,83407,2,0,P|210:204|253:196,1,88.000002685547,0|0,1:2|0:0,0:0:0:0:
353,122,83756,1,0,1:2:0:0:
160,106,83930,1,8,0:2:0:0:
286,278,84104,6,0,P|321:252|344:215,1,88.000002685547,2|0,1:2|0:0,0:0:0:0:
87,160,84453,2,0,P|76:202|83:245,1,88.000002685547,2|0,1:2|0:0,0:0:0:0:
244,155,84802,5,0,1:2:0:0:
204,262,84977,1,0,0:0:0:0:
317,212,85151,1,0,1:2:0:0:
365,319,85326,1,0,0:0:0:0:
378,105,85500,1,0,1:2:0:0:
330,212,85675,1,0,0:0:0:0:
209,46,85849,1,0,1:2:0:0:
257,153,86024,1,0,0:0:0:0:
100,110,86197,2,0,P|35:104|5:116,1,88.000002685547,0|0,1:2|0:0,0:0:0:0:
227,243,86546,2,0,P|270:252|313:243,1,88.000002685547,8|0,1:2|0:0,0:0:0:0:
33,249,86895,5,2,1:2:0:0:
191,227,87070,1,2,0:0:0:0:
97,142,87244,1,2,1:2:0:0:
122,303,87418,2,0,P|184:331|279:278,2,176.000005371094,2|2|2,0:0|0:0|0:0,0:0:0:0:
196,147,88290,2,0,P|252:145|293:158,1,88.000002685547,2|0,1:2|0:0,0:0:0:0:
429,301,88639,6,0,L|442:127,1,143.999995605469,12|8,1:2|0:2,0:0:0:0:
443,113,88988,1,8,0:2:0:0:
305,17,89163,1,0,3:2:0:0:
196,147,89337,1,8,0:2:0:0:
220,132,89424,1,8,0:2:0:0:
253,124,89511,1,8,0:2:0:0:
290,129,89599,1,8,0:2:0:0:
324,139,89686,6,0,L|342:282,1,128,4|0,1:2|0:0,0:0:0:0:
236,287,90209,2,0,L|248:206,1,64,0|0,1:2|0:0,0:0:0:0:
133,223,90558,1,0,0:0:0:0:
149,311,90732,1,0,0:0:0:0:
57,350,90907,2,0,L|68:269,1,64,0|0,0:0|1:2,0:0:0:0:
125,209,91256,2,0,B|68:166|54:198|6:163,1,128,0|0,0:0|1:2,0:0:0:0:
79,50,91779,1,0,0:0:0:0:
79,50,92128,1,8,0:2:0:0:
13,121,92302,1,0,0:0:0:0:
178,47,92477,6,0,P|224:47|275:110,1,128,4|0,1:2|0:0,0:0:0:0:
135,199,93000,2,0,L|150:118,1,64,0|0,1:2|0:0,0:0:0:0:
220,258,93349,1,0,0:0:0:0:
143,317,93523,1,0,0:0:0:0:
241,355,93697,2,0,P|270:362|322:353,1,64,0|0,0:0|0:0,0:0:0:0:
99,235,94046,6,0,P|60:286|66:371,1,143.999995605469,4|0,1:2|1:2,0:0:0:0:
223,164,94570,1,12,0:2:0:0:
72,130,94744,1,8,0:2:0:0:
85,125,94831,1,8,0:2:0:0:
98,120,94918,1,10,1:2:0:0:
242,61,95093,2,0,L|182:51,1,35.9999989013672,10|8,0:2|0:2,0:0:0:0:
85,29,95267,5,6,1:2:0:0:
56,136,95442,1,2,0:0:0:0:
200,212,95616,1,2,0:0:0:0:
183,126,95790,1,2,0:0:0:0:
65,254,95965,2,0,P|55:292|62:331,2,80,10|0|0,1:2|1:2|3:2,0:0:0:0:
189,157,96488,1,0,3:2:0:0:
192,170,96575,1,0,3:2:0:0:
196,185,96663,5,6,1:2:0:0:
303,215,96838,1,2,0:0:0:0:
362,79,97012,1,2,0:0:0:0:
267,97,97186,1,2,1:2:0:0:
401,166,97360,2,0,P|445:130|459:91,1,80,10|0,1:2|0:0,0:0:0:0:
271,108,97709,1,12,0:2:0:0:
412,13,97884,1,0,0:0:0:0:
224,9,98058,5,10,0:2:0:0:
224,9,98232,1,0,1:2:0:0:
302,190,98407,1,10,0:2:0:0:
108,114,98581,1,2,1:2:0:0:
108,114,98756,1,8,0:2:0:0:
77,274,98930,1,2,1:2:0:0:
77,274,99105,1,8,0:2:0:0:
234,128,99279,1,2,1:2:0:0:
221,340,99453,5,8,0:2:0:0:
163,173,99628,1,8,0:2:0:0:
163,173,99977,1,8,0:2:0:0:
224,9,100151,1,8,0:2:0:0:
224,9,100500,2,0,P|286:32|366:31,1,120,8|0,0:2|0:0,0:0:0:0:
377,34,100849,5,8,0:2:0:0:
250,204,101023,1,8,0:2:0:0:
250,204,101372,1,8,0:2:0:0:
46,124,101546,1,8,0:2:0:0:
46,124,101895,1,0,3:2:0:0:
46,124,102244,5,2,1:2:0:0:
143,296,102418,1,2,1:2:0:0:
152,168,102593,1,0,1:2:0:0:
153,156,102680,1,0,1:2:0:0:
154,140,102767,1,10,0:2:0:0:
56,241,102942,2,0,P|50:280|55:320,1,80,10|0,0:2|1:2,0:0:0:0:
298,292,103290,2,0,P|302:252|297:212,1,80,8|0,0:2|1:2,0:0:0:0:
286,175,103552,1,0,1:2:0:0:
286,175,103639,5,10,0:2:0:0:
215,288,103814,1,2,0:0:0:0:
174,167,103988,1,6,1:2:0:0:
115,239,104163,1,2,0:0:0:0:
75,164,104337,1,6,1:2:0:0:
71,148,104424,1,0,0:0:0:0:
68,132,104511,1,0,0:0:0:0:
68,115,104599,1,0,0:0:0:0:
71,99,104686,1,8,0:2:0:0:
106,99,104773,1,8,0:2:0:0:
142,95,104860,1,8,0:2:0:0:
176,83,104947,1,8,0:2:0:0:
209,66,105035,6,0,P|176:29|116:20,1,95.9999970703126,6|0,1:2|0:0,0:0:0:0:
318,175,105384,2,0,P|366:164|404:117,1,95.9999970703126,8|0,1:2|0:0,0:0:0:0:
169,214,105732,2,0,P|153:261|175:317,1,95.9999970703126,2|0,1:2|0:0,0:0:0:0:
324,96,106081,1,8,1:2:0:0:
314,75,106168,1,0,0:0:0:0:
304,53,106256,1,0,0:0:0:0:
169,214,106430,6,0,P|153:261|175:317,1,95.9999970703126,2|0,1:2|0:0,0:0:0:0:
209,66,106779,2,0,P|176:29|116:20,1,95.9999970703126,8|0,1:2|0:0,0:0:0:0:
318,175,107128,2,0,P|366:164|404:117,1,95.9999970703126,2|0,1:2|0:0,0:0:0:0:
415,89,107389,1,0,0:0:0:0:
415,89,107477,1,8,1:2:0:0:
275,13,107651,1,0,0:0:0:0:
318,175,107825,6,0,P|366:164|404:117,1,95.9999970703126,2|0,1:2|0:0,0:0:0:0:
169,214,108174,2,0,P|153:261|175:317,1,95.9999970703126,8|0,1:2|0:0,0:0:0:0:
209,66,108523,2,0,P|176:29|116:20,1,95.9999970703126,2|0,1:2|0:0,0:0:0:0:
90,26,108785,1,0,0:0:0:0:
90,26,108872,1,8,1:2:0:0:
230,151,109046,1,0,0:0:0:0:
209,66,109221,5,2,1:2:0:0:
169,214,109395,1,2,0:0:0:0:
318,175,109570,1,10,1:2:0:0:
352,311,109744,1,2,0:0:0:0:
169,214,109918,2,0,P|122:204|74:210,1,95.9999970703126,2|8,1:2|0:2,0:0:0:0:
37,224,110180,1,8,0:2:0:0:
37,224,110267,1,10,1:2:0:0:
132,17,110442,1,8,0:2:0:0:
132,17,110529,1,8,0:2:0:0:
132,17,110616,6,0,P|178:30|209:66,1,95.9999970703126,6|0,1:2|0:0,0:0:0:0:
165,304,110965,2,0,P|152:258|168:213,1,95.9999970703126,8|0,1:2|0:0,0:0:0:0:
397,131,111314,2,0,P|364:164|318:175,1,95.9999970703126,2|0,1:2|0:0,0:0:0:0:
130,134,111663,1,8,1:2:0:0:
153,135,111750,1,0,0:0:0:0:
177,136,111838,1,0,0:0:0:0:
397,131,112011,6,0,P|364:164|318:175,1,95.9999970703126,2|0,1:2|0:0,0:0:0:0:
132,17,112360,2,0,P|178:30|209:66,1,95.9999970703126,8|0,1:2|0:0,0:0:0:0:
165,304,112709,2,0,P|152:258|168:213,1,95.9999970703126,2|0,1:2|0:0,0:0:0:0:
198,186,112971,1,0,0:0:0:0:
198,186,113058,1,8,1:2:0:0:
343,254,113232,1,0,0:0:0:0:
165,304,113407,6,0,P|152:258|168:213,1,95.9999970703126,2|0,1:2|0:0,0:0:0:0:
397,131,113756,2,0,P|364:164|318:175,1,95.9999970703126,8|0,1:2|0:0,0:0:0:0:
132,17,114104,2,0,P|178:30|209:66,1,95.9999970703126,2|0,1:2|0:0,0:0:0:0:
217,106,114366,1,0,0:0:0:0:
217,106,114453,1,8,1:2:0:0:
345,34,114628,1,0,0:0:0:0:
127,109,114802,5,2,1:2:0:0:
397,131,114977,2,0,P|364:164|318:175,1,95.9999970703126,2|8,0:0|1:2,0:0:0:0:
217,106,115325,1,2,0:0:0:0:
165,304,115500,2,0,P|152:258|168:213,1,95.9999970703126,2|0,1:2|0:0,0:0:0:0:
307,83,115849,1,10,1:2:0:0:
361,251,116023,1,2,0:0:0:0:
167,213,116197,6,0,L|284:203,1,95.9999970703126,6|0,1:2|0:0,0:0:0:0:
454,341,116546,2,0,L|359:332,1,95.9999970703126,8|0,1:2|0:0,0:0:0:0:
418,132,116895,2,0,P|446:166|455:215,1,95.9999970703126,0|0,1:2|0:0,0:0:0:0:
232,93,117243,1,8,1:2:0:0:
365,221,117418,1,0,0:0:0:0:
167,213,117592,6,0,L|72:221,1,95.9999970703126,2|0,1:2|0:0,0:0:0:0:
262,323,117941,2,0,L|358:331,1,95.9999970703126,8|0,1:2|0:0,0:0:0:0:
98,131,118290,2,0,P|73:184|78:251,1,95.9999970703126,0|0,1:2|0:0,0:0:0:0:
276,80,118639,1,8,1:2:0:0:
164,265,118813,1,0,0:0:0:0:
385,241,118988,6,0,B|441:247|446:183|352:154|346:264|247:220,1,223.999993164063,2|8,1:2|1:2,0:0:0:0:
113,150,119511,1,0,0:0:0:0:
296,26,119686,2,0,P|321:112|222:57,1,223.999993164063,2|8,1:2|1:2,0:0:0:0:
426,17,120208,1,0,0:0:0:0:
215,213,120383,6,0,L|224:76,1,111.999996582031,2|0,1:2|0:0,0:0:0:0:
130,296,120732,1,10,1:2:0:0:
376,253,120907,2,0,B|275:211|279:334|162:281,1,223.999993164063,2|0,0:2|0:0,0:0:0:0:
21,180,121429,2,0,L|158:171,1,111.999996582031,8|0,1:2|0:0,0:0:0:0:
327,88,121778,5,6,1:2:0:0:
376,253,121953,1,0,0:0:0:0:
376,253,122127,1,8,1:2:0:0:
445,91,122301,1,2,0:0:0:0:
471,206,122476,1,2,1:2:0:0:
425,70,122650,1,2,0:0:0:0:
359,278,122825,1,10,1:2:0:0:
304,58,122999,1,2,0:0:0:0:
224,304,123174,6,0,P|255:249|344:266,1,160,0|0,1:2|3:2,0:0:0:0:
177,104,123697,2,0,P|121:141|34:112,1,160,4|8,1:2|0:2,0:0:0:0:
31,96,124134,1,8,0:2:0:0:
25,77,124221,1,8,0:2:0:0:
19,58,124308,1,8,0:2:0:0:
13,39,124395,1,8,0:2:0:0:
7,20,124482,1,8,0:2:0:0:
1,0,124570,5,10,0:2:0:0:
486,228,125616,2,0,L|470:362,1,111.999996582031,2|10,3:2|0:2,0:0:0:0:
38,264,127011,2,0,L|25:153,1,111.999996582031,2|10,3:2|0:2,0:0:0:0:
512,0,128407,2,0,L|496:134,1,111.999996582031,2|10,3:2|0:2,0:0:0:0:
230,378,129802,1,10,0:2:0:0:
115,328,129977,1,8,0:2:0:0:
96,324,130064,1,8,0:2:0:0:
77,320,130151,6,0,L|261:279,1,167.999994873047,4|0,1:2|0:0,0:0:0:0:
451,225,130849,2,0,B|416:223|386:253|386:253|357:213|278:208,1,192,4|0,1:2|0:0,0:0:0:0:
30,153,131546,2,0,B|105:134|105:134|150:158|150:158|235:137,1,215.999993408203,4|0,1:2|0:0,0:0:0:0:
356,28,132244,2,0,B|321:119|424:130|378:249,1,215.999993408203,4|8,1:2|0:2,0:0:0:0:
375,271,132854,1,8,0:2:0:0:
375,271,132942,5,6,1:2:0:0:
245,315,133116,1,0,0:0:0:0:
159,178,133290,1,8,1:2:0:0:
269,219,133465,1,0,0:0:0:0:
342,106,133639,1,2,1:2:0:0:
241,137,133814,1,0,0:0:0:0:
156,24,133988,1,8,1:2:0:0:
276,56,134163,1,0,0:0:0:0:
81,67,134337,6,0,P|29:106|16:154,1,80,2|0,1:2|0:0,0:0:0:0:
183,209,134686,2,0,L|87:229,1,80,8|0,1:2|0:0,0:0:0:0:
280,353,135035,2,0,P|231:332|179:338,1,80,2|0,1:2|0:0,0:0:0:0:
386,252,135384,1,8,1:2:0:0:
386,252,135732,5,2,1:2:0:0:
296,319,135907,1,0,0:0:0:0:
159,193,136081,1,8,1:2:0:0:
225,257,136256,1,0,0:0:0:0:
345,120,136430,1,2,1:2:0:0:
252,151,136604,1,0,0:0:0:0:
245,125,136691,1,0,0:0:0:0:
238,97,136779,1,8,1:2:0:0:
344,14,136953,1,0,0:0:0:0:
161,72,137128,6,0,L|246:99,1,80,2|0,1:2|0:0,0:0:0:0:
15,190,137477,2,0,P|63:176|117:185,1,80,10|0,1:2|0:0,0:0:0:0:
135,189,137738,1,0,0:0:0:0:
135,189,137825,1,2,1:2:0:0:
61,96,138000,1,0,0:0:0:0:
39,296,138174,1,8,1:2:0:0:
67,274,138261,1,8,0:0:0:0:
102,268,138349,1,8,0:2:0:0:
137,273,138436,1,8,0:2:0:0:
168,288,138523,6,0,P|226:292|261:272,1,88.000002685547,4|0,1:2|0:0,0:0:0:0:
276,104,138872,2,0,P|287:192|295:213,1,88.000002685547,8|0,1:2|0:0,0:0:0:0:
142,87,139221,1,2,1:2:0:0:
178,183,139395,1,2,0:0:0:0:
292,228,139570,1,10,1:2:0:0:
412,161,139744,1,2,0:0:0:0:
363,11,139918,6,0,P|355:64|381:100,1,88.000002685547,0|0,1:2|0:0,0:0:0:0:
488,243,140267,2,0,P|491:192|507:137,1,88.000002685547,8|0,1:2|0:0,0:0:0:0:
380,255,140616,1,2,1:2:0:0:
344,159,140790,1,2,0:0:0:0:
230,114,140965,1,10,1:2:0:0:
110,181,141139,1,2,0:0:0:0:
106,355,141314,6,0,P|131:312|131:270,1,88.000002685547,0|0,1:2|0:0,0:0:0:0:
14,190,141663,1,8,1:2:0:0:
147,101,141837,2,0,L|59:88,2,88.000002685547,0|0|0,0:0|1:2|0:0,0:0:0:0:
321,33,142360,1,8,1:2:0:0:
321,33,142709,6,0,B|285:116|354:111|325:220,1,176.000005371094,2|8,1:2|1:2,0:0:0:0:
243,322,143232,1,2,0:0:0:0:
160,186,143407,2,0,B|244:156|249:242|337:199,1,176.000005371094,2|8,1:2|1:2,0:0:0:0:
327,203,144104,5,0,1:2:0:0:
299,303,144279,1,0,0:0:0:0:
320,98,144453,1,8,1:2:0:0:
348,198,144628,1,0,0:0:0:0:
153,70,144802,1,2,1:2:0:0:
242,113,144977,1,2,0:0:0:0:
203,227,145151,1,10,1:2:0:0:
299,303,145326,1,2,0:0:0:0:
414,160,145500,6,0,P|392:219|401:251,1,88.000002685547,0|0,1:2|0:0,0:0:0:0:
498,106,145849,2,0,P|498:62|489:19,1,88.000002685547,8|0,1:2|0:0,0:0:0:0:
273,99,146197,1,2,1:2:0:0:
439,160,146372,1,2,0:0:0:0:
286,213,146546,1,10,1:2:0:0:
373,261,146721,1,2,0:0:0:0:
373,261,146808,1,0,0:0:0:0:
373,261,146895,6,0,P|294:235|217:310,1,176.000005371094,0|8,1:2|1:2,0:0:0:0:
163,364,147418,1,0,0:0:0:0:
80,226,147593,1,0,1:2:0:0:
57,308,147767,1,0,0:0:0:0:
101,148,147942,2,0,P|155:126|205:121,1,88.000002685547,8|0,1:2|0:0,0:0:0:0:
319,229,148290,6,0,L|333:63,1,132.00000402832,2|0,1:2|0:0,0:0:0:0:
333,63,148639,2,0,P|276:46|237:67,1,88.000002685547,8|0,1:2|0:0,0:0:0:0:
318,250,148988,6,0,L|485:216,1,143.999995605469,2|0,1:2|0:0,0:0:0:0:
483,180,149337,2,0,P|446:122|415:124,1,95.9999970703126,8|0,1:2|0:0,0:0:0:0:
212,293,149686,6,0,L|385:370,1,155.999992858887,2|0,1:2|0:0,0:0:0:0:
395,366,150035,2,0,P|428:308|423:260,1,103.999995239258,8|0,1:2|0:0,0:0:0:0:
215,145,150384,1,8,1:2:0:0:
184,177,150471,1,8,0:2:0:0:
170,217,150558,1,8,0:2:0:0:
179,261,150645,1,8,0:2:0:0:
212,293,150732,1,0,1:2:0:0:
191,296,150820,1,0,1:2:0:0:
170,298,150907,1,0,1:2:0:0:
149,301,150994,1,0,1:2:0:0:
129,304,151081,6,0,P|176:331|209:373,1,88.000002685547,6|0,1:2|0:0,0:0:0:0:
290,175,151430,2,0,P|294:228|279:280,1,88.000002685547,8|0,1:2|0:0,0:0:0:0:
448,299,151779,2,0,P|406:333|355:350,1,88.000002685547,0|0,1:2|0:0,0:0:0:0:
345,349,152040,1,0,0:0:0:0:
314,344,152128,1,8,1:2:0:0:
283,339,152215,1,0,0:0:0:0:
252,334,152302,1,0,0:0:0:0:
429,215,152477,6,0,P|382:242|349:284,1,88.000002685547,2|0,1:2|0:0,0:0:0:0:
268,86,152826,2,0,P|264:139|279:191,1,88.000002685547,8|0,1:2|0:0,0:0:0:0:
110,210,153175,2,0,P|152:244|203:261,1,88.000002685547,0|0,1:2|0:0,0:0:0:0:
213,253,153436,1,0,0:0:0:0:
243,249,153523,2,0,P|205:276|193:337,1,88.000002685547,8|0,1:2|0:0,0:0:0:0:
117,116,153872,6,0,P|164:143|197:185,1,88.000002685547,2|0,1:2|0:0,0:0:0:0:
293,6,154221,2,0,P|297:59|282:111,1,88.000002685547,8|0,1:2|0:0,0:0:0:0:
447,139,154570,2,0,P|405:173|354:190,1,88.000002685547,0|0,1:2|0:0,0:0:0:0:
343,182,154831,1,0,0:0:0:0:
312,179,154918,2,0,L|205:168,1,88.000002685547,8|0,1:2|0:0,0:0:0:0:
432,50,155267,6,0,P|385:77|352:119,1,88.000002685547,2|0,1:2|0:0,0:0:0:0:
230,0,155616,2,0,P|226:53|241:105,1,88.000002685547,8|0,1:2|0:0,0:0:0:0:
66,136,155965,2,0,P|108:170|159:187,1,88.000002685547,0|0,1:2|0:0,0:0:0:0:
170,186,156227,1,0,0:0:0:0:
200,189,156314,1,8,1:2:0:0:
230,192,156401,1,0,0:0:0:0:
260,195,156488,1,0,0:0:0:0:
187,70,156663,6,0,P|145:54|102:51,1,88.000002685547,2|0,1:2|0:0,0:0:0:0:
230,192,157012,2,0,P|193:216|166:250,1,88.000002685547,8|0,1:2|0:0,0:0:0:0:
341,265,157361,2,0,P|340:308|353:350,1,88.000002685547,0|0,1:2|0:0,0:0:0:0:
383,355,157622,1,0,0:0:0:0:
413,360,157709,1,8,1:2:0:0:
443,365,157796,1,0,0:0:0:0:
473,370,157884,1,0,0:0:0:0:
390,183,158058,6,0,P|426:208|453:242,1,88.000002685547,2|0,1:2|0:0,0:0:0:0:
264,215,158407,2,0,P|264:259|251:300,1,88.000002685547,8|0,1:2|0:0,0:0:0:0:
142,164,158756,2,0,P|106:188|64:201,1,88.000002685547,0|0,1:2|0:0,0:0:0:0:
33,198,159017,1,0,0:0:0:0:
3,191,159104,2,0,P|24:248|24:288,1,88.000002685547,8|0,1:2|0:0,0:0:0:0:
129,288,159453,6,0,P|121:331|126:374,1,88.000002685547,2|0,1:2|0:0,0:0:0:0:
241,222,159802,2,0,P|272:253|310:272,1,88.000002685547,8|0,1:2|0:0,0:0:0:0:
291,99,160151,2,0,P|333:90|372:70,1,88.000002685547,0|0,1:2|0:0,0:0:0:0:
396,48,160413,1,0,0:0:0:0:
416,25,160500,2,0,L|422:116,1,88.000002685547,8|0,1:2|0:0,0:0:0:0:
402,301,160849,6,0,P|445:300|487:287,1,88.000002685547,2|0,1:2|0:0,0:0:0:0:
335,214,161198,2,0,P|359:177|371:136,1,88.000002685547,8|0,1:2|0:0,0:0:0:0:
221,211,161547,2,0,P|204:170|177:136,1,88.000002685547,0|0,1:2|0:0,0:0:0:0:
156,113,161808,1,0,0:0:0:0:
128,126,161895,1,8,1:2:0:0:
104,138,161982,1,0,0:0:0:0:
81,152,162070,1,0,0:0:0:0:
202,343,162244,6,0,P|133:332|100:345,1,88.000002685547,6|0,1:2|0:0,0:0:0:0:
300,202,162593,2,0,P|289:271|302:304,1,88.000002685547,8|0,1:2|0:0,0:0:0:0:
156,113,162941,2,0,P|225:124|258:111,1,88.000002685547,0|0,1:2|0:0,0:0:0:0:
270,108,163203,1,0,0:0:0:0:
298,95,163290,1,8,1:2:0:0:
320,73,163378,1,0,0:0:0:0:
350,65,163465,1,0,0:0:0:0:
485,133,163639,6,0,P|442:140|401:127,1,88.000002685547,2|0,1:2|0:0,0:0:0:0:
309,293,163988,2,0,P|322:252|315:208,1,88.000002685547,8|0,1:2|0:0,0:0:0:0:
409,228,164337,2,0,L|469:298,1,88.000002685547,0|0,1:2|0:0,0:0:0:0:
482,317,164598,1,0,0:0:0:0:
500,338,164686,2,0,P|446:359|390:351,1,88.000002685547,8|0,1:2|0:0,0:0:0:0:
315,208,165035,6,0,P|304:277|317:310,1,88.000002685547,2|0,1:2|0:0,0:0:0:0:
156,113,165383,2,0,P|225:124|258:111,1,88.000002685547,8|0,1:2|0:0,0:0:0:0:
64,270,165732,2,0,P|75:201|62:168,1,88.000002685547,0|0,1:2|0:0,0:0:0:0:
59,162,165994,1,0,0:0:0:0:
49,138,166081,1,8,1:2:0:0:
41,114,166168,1,0,0:0:0:0:
36,84,166255,1,0,0:0:0:0:
40,54,166343,1,0,0:0:0:0:
59,21,166430,6,0,P|128:10|161:23,1,88.000002685547,2|0,1:2|0:0,0:0:0:0:
247,197,166779,2,0,P|258:128|245:95,1,88.000002685547,8|0,1:2|0:0,0:0:0:0:
70,232,167128,2,0,L|137:136,1,88.000002685547,0|0,1:2|0:0,0:0:0:0:
142,133,167389,1,0,0:0:0:0:
164,106,167476,1,8,1:2:0:0:
186,78,167564,1,0,0:0:0:0:
207,50,167651,1,0,0:0:0:0:
329,226,167825,6,0,P|288:240|245:233,1,88.000002685547,2|0,1:2|0:0,0:0:0:0:
414,84,168174,2,0,P|428:126|421:169,1,88.000002685547,8|0,1:2|0:0,0:0:0:0:
242,59,168523,2,0,P|284:46|327:53,1,88.000002685547,0|0,1:2|0:0,0:0:0:0:
354,69,168785,1,0,0:0:0:0:
383,81,168872,1,8,1:2:0:0:
414,84,168959,1,0,0:0:0:0:
443,74,169046,1,0,0:0:0:0:
252,149,169221,6,0,P|238:191|245:234,1,88.000002685547,2|0,1:2|0:0,0:0:0:0:
422,169,169569,2,0,P|428:126|414:84,1,88.000002685547,8|0,1:2|0:0,0:0:0:0:
334,224,169918,2,0,L|340:340,1,88.000002685547,0|0,1:2|0:0,0:0:0:0:
340,355,170180,1,0,0:0:0:0:
343,384,170267,2,0,P|383:359|383:313,1,88.000002685547,8|0,1:2|0:0,0:0:0:0:
252,149,170616,6,0,P|210:139|155:163,1,88.000002685547,2|0,1:2|0:0,0:0:0:0:
364,219,170965,2,0,L|359:131,1,88.000002685547,8|0,1:2|0:0,0:0:0:0:
172,249,171314,2,0,P|241:260|274:247,1,88.000002685547,2|0,1:2|0:0,0:0:0:0:
286,242,171576,1,0,0:0:0:0:
310,232,171663,1,8,1:2:0:0:
334,224,171750,1,0,0:0:0:0:
364,219,171837,1,0,0:0:0:0:
394,223,171925,1,0,0:0:0:0:
427,240,172012,6,0,P|438:309|425:342,1,88.000002685547,2|0,1:2|0:0,0:0:0:0:
229,343,172360,2,0,L|339:334,1,88.000002685547,8|0,1:2|0:0,0:0:0:0:
200,203,172709,1,2,1:2:0:0:
133,335,172884,1,2,0:0:0:0:
97,210,173058,1,10,1:2:0:0:
42,292,173232,1,2,0:0:0:0:
27,244,173407,5,2,0:2:0:0:
484,114,176197,1,2,0:2:0:0:
143,98,177767,2,0,B|243:86|187:151|296:138,1,160,2|0,0:2|0:0,0:0:0:0:
332,135,178552,1,0,0:0:0:0:
332,135,178639,2,0,L|341:209,1,55.9999982910157,2|2,0:2|0:0,0:0:0:0:
354,324,178988,5,6,1:2:0:0:
250,366,179163,1,2,0:0:0:0:
166,234,179337,1,2,0:0:0:0:
250,276,179511,1,2,0:0:0:0:
94,355,179686,1,6,1:2:0:0:
94,355,180384,5,6,1:2:0:0:
250,276,180559,1,2,0:0:0:0:
69,254,180733,1,2,0:0:0:0:
184,198,180907,1,2,1:2:0:0:
92,152,181082,1,10,1:2:0:0:
92,152,181430,2,0,P|142:163|180:154,1,80,12|0,0:2|0:0,0:0:0:0:
347,53,181779,5,10,0:2:0:0:
347,53,181953,1,0,1:2:0:0:
282,238,182128,1,10,0:2:0:0:
205,52,182302,1,2,1:2:0:0:
205,52,182477,1,8,0:2:0:0:
383,161,182651,1,2,1:2:0:0:
383,161,182825,1,8,0:2:0:0:
137,207,183000,1,2,1:2:0:0:
292,129,183174,5,8,0:2:0:0:
89,76,183349,1,8,0:2:0:0:
89,76,183697,1,8,0:2:0:0:
280,14,183872,1,8,0:2:0:0:
280,14,184221,2,0,P|251:56|256:129,1,120,8|0,0:2|0:0,0:0:0:0:
271,156,184570,5,8,0:2:0:0:
406,47,184744,1,8,0:2:0:0:
406,47,185093,1,8,0:2:0:0:
106,47,185267,1,8,0:2:0:0:
106,47,185616,1,0,3:2:0:0:
256,352,185965,6,0,L|256:256,1,95.9999970703126,6|0,1:2|0:0,0:0:0:0:
84,246,186314,2,0,P|127:228|159:192,1,95.9999970703126,8|0,1:2|0:0,0:0:0:0:
426,247,186663,2,0,P|382:228|351:191,1,95.9999970703126,2|0,1:2|0:0,0:0:0:0:
256,96,187012,1,8,1:2:0:0:
256,112,187099,1,0,0:0:0:0:
256,128,187186,1,0,0:0:0:0:
256,256,187360,6,0,L|256:352,1,95.9999970703126,2|0,1:2|0:0,0:0:0:0:
352,192,187709,2,0,P|382:228|426:247,1,95.9999970703126,8|0,1:2|0:0,0:0:0:0:
159,192,188058,2,0,P|127:228|84:246,1,95.9999970703126,2|0,1:2|0:0,0:0:0:0:
47,255,188320,1,0,0:0:0:0:
47,255,188407,1,8,1:2:0:0:
256,160,188581,1,0,0:0:0:0:
256,352,188756,6,0,L|256:256,1,95.9999970703126,2|0,1:2|0:0,0:0:0:0:
84,246,189104,2,0,P|127:228|159:192,1,95.9999970703126,8|0,1:2|0:0,0:0:0:0:
426,247,189453,2,0,P|382:228|352:192,1,95.9999970703126,2|0,1:2|0:0,0:0:0:0:
339,155,189715,1,0,0:0:0:0:
339,155,189802,1,8,1:2:0:0:
474,159,189977,1,0,0:0:0:0:
312,259,190151,5,2,1:2:0:0:
375,83,190325,1,2,0:0:0:0:
221,188,190500,1,10,1:2:0:0:
407,194,190674,1,2,0:0:0:0:
260,79,190849,2,0,P|190:69|141:93,1,95.9999970703126,2|8,1:2|0:2,0:0:0:0:
137,91,191110,1,8,0:2:0:0:
137,91,191197,1,10,1:2:0:0:
256,352,191372,1,8,0:2:0:0:
256,336,191459,1,8,0:2:0:0:
256,320,191546,6,0,L|256:224,1,95.9999970703126,6|0,1:2|0:0,0:0:0:0:
84,214,191895,2,0,P|127:196|159:160,1,95.9999970703126,8|0,1:2|0:0,0:0:0:0:
426,215,192244,2,0,P|382:196|351:159,1,95.9999970703126,2|0,1:2|0:0,0:0:0:0:
256,64,192593,1,8,1:2:0:0:
256,80,192680,1,0,0:0:0:0:
256,96,192767,1,0,0:0:0:0:
256,224,192941,6,0,L|256:320,1,95.9999970703126,2|0,1:2|0:0,0:0:0:0:
352,160,193290,2,0,P|382:196|426:215,1,95.9999970703126,8|0,1:2|0:0,0:0:0:0:
159,160,193639,2,0,P|127:196|84:214,1,95.9999970703126,2|0,1:2|0:0,0:0:0:0:
47,223,193901,1,0,0:0:0:0:
47,223,193988,1,8,1:2:0:0:
256,128,194162,1,0,0:0:0:0:
256,320,194337,6,0,L|256:224,1,95.9999970703126,2|0,1:2|0:0,0:0:0:0:
84,214,194685,2,0,P|127:196|159:160,1,95.9999970703126,8|0,1:2|0:0,0:0:0:0:
426,215,195034,2,0,P|382:196|352:160,1,95.9999970703126,2|0,1:2|0:0,0:0:0:0:
339,123,195296,1,0,0:0:0:0:
339,123,195383,1,8,1:2:0:0:
256,256,195558,1,0,0:0:0:0:
192,51,195732,5,2,1:2:0:0:
84,214,195907,2,0,P|127:196|159:160,1,95.9999970703126,2|8,0:0|1:2,0:0:0:0:
320,51,196255,1,2,0:0:0:0:
428,214,196430,2,0,P|385:196|353:160,1,95.9999970703126,2|0,1:2|0:0,0:0:0:0:
256,0,196779,1,10,1:2:0:0:
256,192,196953,1,2,0:0:0:0:
90,99,197128,6,0,P|165:122|198:108,1,95.9999970703126,6|0,1:2|0:0,0:0:0:0:
408,70,197477,2,0,P|333:47|300:61,1,95.9999970703126,8|0,1:2|0:0,0:0:0:0:
481,209,197825,2,0,L|488:113,1,95.9999970703126,0|0,1:2|0:0,0:0:0:0:
332,251,198174,1,8,1:2:0:0:
486,336,198349,1,0,0:0:0:0:
392,190,198523,6,0,P|350:167|303:170,1,95.9999970703126,2|0,1:2|0:0,0:0:0:0:
74,219,198872,2,0,P|115:241|162:238,1,95.9999970703126,8|0,1:2|0:0,0:0:0:0:
27,60,199221,2,0,L|20:155,1,95.9999970703126,0|0,1:2|0:0,0:0:0:0:
272,34,199570,1,8,1:2:0:0:
116,131,199744,1,0,0:0:0:0:
335,188,199918,6,0,B|415:-8|244:38|336:113,1,223.999993164063,2|8,1:2|1:2,0:0:0:0:
400,235,200442,1,0,0:0:0:0:
202,136,200616,2,0,P|142:196|253:223,1,223.999993164063,2|8,1:2|1:2,0:0:0:0:
354,124,201139,1,0,0:0:0:0:
209,43,201314,6,0,L|65:65,2,111.999996582031,2|0|10,1:2|0:0|1:2,0:0:0:0:
403,68,201837,2,0,P|309:62|301:175,1,223.999993164063,2|0,0:2|0:0,0:0:0:0:
490,276,202360,2,0,L|346:254,1,111.999996582031,8|0,1:2|0:0,0:0:0:0:
117,222,202709,5,6,1:2:0:0:
297,171,202884,1,0,0:0:0:0:
297,171,203058,1,8,1:2:0:0:
179,300,203232,1,2,0:0:0:0:
303,267,203407,1,2,1:2:0:0:
124,235,203581,1,2,0:0:0:0:
302,184,203756,1,10,1:2:0:0:
74,145,203930,1,2,0:0:0:0:
315,58,204104,6,0,P|242:101|153:55,1,160,2|0,1:2|3:2,0:0:0:0:
16,281,204628,2,0,P|89:238|178:284,1,160,4|8,1:2|0:2,0:0:0:0:
179,281,205064,1,8,0:2:0:0:
212,302,205151,1,8,0:2:0:0:
249,314,205238,1,8,0:2:0:0:
288,312,205325,1,8,0:2:0:0:
323,293,205413,1,8,0:2:0:0:
349,263,205500,6,0,L|243:243,1,88.000002685547,6|0,1:2|0:0,0:0:0:0:
311,75,205849,2,0,L|397:91,1,88.000002685547,8|0,1:2|0:0,0:0:0:0:
481,198,206197,2,0,L|394:181,1,88.000002685547,0|0,1:2|0:0,0:0:0:0:
364,175,206459,1,0,0:0:0:0:
333,168,206546,1,8,1:2:0:0:
302,161,206634,1,0,0:0:0:0:
271,154,206721,1,0,0:0:0:0:
133,265,206895,6,0,L|239:245,1,88.000002685547,2|0,1:2|0:0,0:0:0:0:
171,77,207244,2,0,L|84:93,1,88.000002685547,8|0,1:2|0:0,0:0:0:0:
12,201,207592,2,0,L|98:184,1,88.000002685547,0|0,1:2|0:0,0:0:0:0:
129,178,207854,1,0,0:0:0:0:
154,162,207942,2,0,P|169:119|170:75,1,88.000002685547,8|0,1:2|0:0,0:0:0:0:
303,34,208290,6,0,P|304:77|319:119,1,88.000002685547,2|0,1:2|0:0,0:0:0:0:
496,235,208639,2,0,P|510:193|512:149,1,88.000002685547,8|0,1:2|0:0,0:0:0:0:
315,231,208988,2,0,L|425:210,1,88.000002685547,0|0,1:2|0:0,0:0:0:0:
424,193,209250,1,0,0:0:0:0:
430,163,209337,1,8,1:2:0:0:
422,132,209424,1,0,0:0:0:0:
393,107,209511,1,0,0:0:0:0:
357,105,209599,1,0,0:0:0:0:
320,120,209686,6,0,P|253:138|221:127,1,88.000002685547,2|0,1:2|0:0,0:0:0:0:
87,233,210035,2,0,P|130:229|170:247,1,88.000002685547,8|0,1:2|0:0,0:0:0:0:
310,378,210384,2,0,L|321:256,1,88.000002685547,0|0,1:2|0:0,0:0:0:0:
321,259,210645,1,0,0:0:0:0:
324,228,210732,1,8,1:2:0:0:
327,197,210820,1,0,0:0:0:0:
330,166,210907,1,0,0:0:0:0:
134,42,211081,6,0,L|150:167,1,88.000002685547,2|0,1:2|0:0,0:0:0:0:
340,61,211430,2,0,P|297:43|252:49,1,88.000002685547,8|0,1:2|0:0,0:0:0:0:
327,197,211779,2,0,P|391:204|427:183,1,88.000002685547,0|0,1:2|0:0,0:0:0:0:
435,176,212040,1,0,0:0:0:0:
446,147,212128,1,8,1:2:0:0:
457,118,212215,1,0,0:0:0:0:
468,89,212302,1,0,0:0:0:0:
256,47,212477,6,0,P|243:88|254:131,1,88.000002685547,2|0,1:2|0:0,0:0:0:0:
244,301,212825,2,0,P|236:258|209:224,1,88.000002685547,8|0,1:2|0:0,0:0:0:0:
83,358,213174,2,0,L|203:377,1,88.000002685547,2|0,1:2|0:0,0:0:0:0:
200,377,213436,1,0,0:0:0:0:
230,380,213523,2,0,L|350:361,1,88.000002685547,8|0,1:2|0:0,0:0:0:0:
459,211,213872,6,0,L|372:224,1,88.000002685547,2|0,1:2|0:0,0:0:0:0:
253,130,214221,2,0,P|242:88|256:47,1,88.000002685547,8|0,1:2|0:0,0:0:0:0:
262,230,214570,2,0,P|196:235|156:223,1,88.000002685547,2|0,1:2|0:0,0:0:0:0:
140,216,214831,1,0,0:0:0:0:
108,213,214918,1,8,1:2:0:0:
80,226,215006,1,0,0:0:0:0:
71,256,215093,1,0,0:0:0:0:
77,295,215180,1,0,0:0:0:0:
88,339,215267,6,0,P|139:350|196:328,1,88.000002685547,2|0,1:2|0:0,0:0:0:0:
315,221,215616,2,0,L|305:308,1,88.000002685547,8|0,1:2|0:0,0:0:0:0:
428,195,215965,2,0,P|416:146|381:114,1,88.000002685547,0|0,1:2|0:0,0:0:0:0:
356,111,216227,1,0,0:0:0:0:
320,112,216314,1,8,1:2:0:0:
288,127,216401,1,8,1:2:0:0:
261,149,216488,1,8,0:2:0:0:
245,180,216575,1,8,0:2:0:0:
240,215,216663,5,6,1:2:0:0:
208,332,216837,1,0,0:0:0:0:
240,215,217011,2,0,P|243:157|220:99,1,88.000002685547,10|0,1:2|0:0,0:0:0:0:
25,197,217360,5,0,1:2:0:0:
47,310,217535,1,0,0:0:0:0:
161,108,217709,1,8,1:2:0:0:
123,224,217884,1,0,0:0:0:0:
0,73,218058,1,0,1:2:0:0:
41,191,218233,1,0,0:0:0:0:
171,5,218407,1,8,1:2:0:0:
134,126,218581,1,0,0:0:0:0:
292,31,218756,2,0,P|333:18|391:46,1,88.000002685547,0|0,1:2|0:0,0:0:0:0:
337,187,219104,2,0,P|295:199|254:187,1,88.000002685547,8|0,1:2|0:0,0:0:0:0:
464,103,219453,5,2,1:2:0:0:
308,112,219628,1,0,0:0:0:0:
464,103,219802,2,0,P|484:56|487:-4,1,88.000002685547,10|0,1:2|0:0,0:0:0:0:
363,182,220151,5,0,1:2:0:0:
344,31,220325,1,0,0:0:0:0:
272,244,220500,1,8,1:2:0:0:
334,149,220674,1,0,0:0:0:0:
146,259,220849,1,0,1:2:0:0:
260,221,221023,1,0,0:0:0:0:
45,185,221197,1,8,1:2:0:0:
130,281,221371,1,0,0:0:0:0:
89,95,221546,2,0,P|31:91|-10:106,1,88.000002685547,0|0,1:2|0:0,0:0:0:0:
17,324,221895,2,0,P|74:327|116:312,1,88.000002685547,8|0,1:2|0:0,0:0:0:0:
193,155,222244,5,2,1:2:0:0:
57,228,222418,1,0,0:0:0:0:
193,155,222593,2,0,P|192:106|170:66,1,88.000002685547,10|0,1:2|0:0,0:0:0:0:
168,303,222942,5,0,1:2:0:0:
153,172,223116,1,0,0:0:0:0:
348,289,223290,1,8,1:2:0:0:
239,234,223465,1,0,0:0:0:0:
393,133,223639,1,0,1:2:0:0:
273,152,223814,1,0,0:0:0:0:
479,238,223988,1,8,1:2:0:0:
352,203,224163,1,0,0:0:0:0:
504,80,224337,2,0,P|512:140|507:192,1,88.000002685547,0|0,1:2|0:0,0:0:0:0:
267,124,224686,2,0,P|266:80|273:36,1,88.000002685547,8|0,1:2|0:0,0:0:0:0:
407,278,225035,6,0,P|338:313|217:261,1,176.000005371094,2|8,1:2|1:2,0:0:0:0:
137,164,225558,1,2,0:0:0:0:
47,319,225732,2,0,P|116:284|237:336,1,176.000005371094,2|8,1:2|1:2,0:0:0:0:
321,219,226256,1,0,0:0:0:0:
86,95,226430,6,0,P|106:167|104:215,1,88.000002685547,2|0,1:2|0:0,0:0:0:0:
349,145,226779,2,0,P|354:102|370:61,1,88.000002685547,10|0,1:2|0:0,0:0:0:0:
153,254,227128,2,0,P|173:326|171:374,1,88.000002685547,2|0,1:2|0:0,0:0:0:0:
323,343,227477,2,0,P|328:299|343:258,1,88.000002685547,10|0,1:2|0:0,0:0:0:0:
185,95,227825,5,6,1:2:0:0:
244,222,228000,1,0,0:0:0:0:
185,95,228174,2,0,P|137:68|94:64,1,88.000002685547,10|0,1:2|0:0,0:0:0:0:
244,194,228523,5,0,1:2:0:0:
260,69,228697,1,0,0:0:0:0:
113,156,228872,1,8,1:2:0:0:
166,304,229046,1,0,0:0:0:0:
158,283,229134,1,0,0:0:0:0:
150,262,229221,1,0,1:2:0:0:
65,356,229395,1,0,0:0:0:0:
20,242,229570,1,8,1:2:0:0:
113,156,229744,1,0,0:0:0:0:
35,32,229918,2,0,P|94:17|128:31,1,88.000002685547,0|0,1:2|0:0,0:0:0:0:
309,131,230267,2,0,P|268:146|225:138,1,88.000002685547,8|0,1:2|0:0,0:0:0:0:
410,27,230616,5,2,1:2:0:0:
267,26,230790,1,0,0:0:0:0:
410,27,230965,2,0,P|430:71|429:126,1,88.000002685547,10|0,1:2|0:0,0:0:0:0:
336,313,231314,5,0,1:2:0:0:
457,257,231488,1,0,0:0:0:0:
242,176,231663,1,8,1:2:0:0:
363,232,231837,1,0,0:0:0:0:
159,301,232011,1,0,1:2:0:0:
280,245,232185,1,0,0:0:0:0:
78,181,232360,1,8,1:2:0:0:
199,237,232534,1,0,0:0:0:0:
44,285,232709,2,0,P|27:342|42:382,1,88.000002685547,0|0,1:2|0:0,0:0:0:0:
287,235,233058,2,0,P|293:192|276:151,1,88.000002685547,8|0,1:2|0:0,0:0:0:0:
110,82,233407,5,2,1:2:0:0:
269,67,233581,1,0,0:0:0:0:
110,82,233756,2,0,P|65:106|34:149,1,88.000002685547,10|0,1:2|0:0,0:0:0:0:
158,326,234104,5,0,1:2:0:0:
189,209,234279,1,0,0:0:0:0:
40,167,234453,1,8,1:2:0:0:
66,276,234628,1,0,0:0:0:0:
208,213,234802,1,0,1:2:0:0:
241,98,234977,1,0,0:0:0:0:
40,55,235151,1,8,1:2:0:0:
72,164,235325,1,0,0:0:0:0:
263,84,235500,2,0,P|235:22|184:5,1,88.000002685547,0|0,1:2|0:0,0:0:0:0:
361,170,235849,2,0,P|427:179|469:146,1,88.000002685547,8|0,1:2|0:0,0:0:0:0:
232,214,236197,5,2,1:2:0:0:
153,333,236372,1,0,0:0:0:0:
232,214,236546,2,0,P|237:166|217:116,1,88.000002685547,10|0,1:2|0:0,0:0:0:0:
21,198,236895,5,2,1:2:0:0:
124,238,237070,1,0,0:0:0:0:
225,114,237244,1,10,1:2:0:0:
122,154,237419,1,0,0:0:0:0:
13,39,237593,1,2,1:2:0:0:
145,72,237768,1,2,0:0:0:0:
282,0,237942,1,10,1:2:0:0:
455,48,238116,1,2,0:0:0:0:
239,124,238290,1,10,1:2:0:0:
449,192,238465,1,10,0:2:0:0:
454,162,238552,1,8,0:2:0:0:
459,134,238639,2,0,L|467:82,1,44.0000013427735,2|0,1:2|0:0,0:0:0:0:
306,204,238814,1,8,0:2:0:0:
311,243,238901,1,8,0:2:0:0:
314,276,238988,6,0,P|366:286|430:272,1,88.000002685547,6|0,1:2|0:0,0:0:0:0:
160,151,239337,2,0,P|146:216|157:245,1,88.000002685547,10|0,1:2|0:0,0:0:0:0:
318,45,239686,2,0,P|277:29|234:36,1,88.000002685547,2|0,1:2|0:0,0:0:0:0:
201,50,239947,1,0,0:0:0:0:
166,60,240035,1,8,1:2:0:0:
130,59,240122,1,0,0:0:0:0:
95,50,240209,1,0,0:0:0:0:
46,234,240384,6,0,P|122:217|150:228,1,88.000002685547,2|0,1:2|0:0,0:0:0:0:
314,343,240732,2,0,P|238:360|210:349,1,88.000002685547,10|0,1:2|0:0,0:0:0:0:
287,182,241081,2,0,L|407:160,1,88.000002685547,2|0,1:2|0:0,0:0:0:0:
408,162,241343,1,0,0:0:0:0:
442,156,241430,2,0,P|445:112|425:73,1,88.000002685547,8|0,1:2|0:0,0:0:0:0:
287,182,241779,6,0,L|310:297,1,88.000002685547,2|0,1:2|0:0,0:0:0:0:
160,103,242128,2,0,L|183:218,1,88.000002685547,10|0,1:2|0:0,0:0:0:0:
382,35,242477,2,0,L|359:150,1,88.000002685547,2|0,1:2|0:0,0:0:0:0:
355,158,242738,1,0,0:0:0:0:
352,192,242825,1,8,1:2:0:0:
359,226,242913,1,0,0:0:0:0:
368,263,243000,1,0,0:0:0:0:
358,307,243087,1,0,0:0:0:0:
325,333,243174,6,0,L|209:311,1,88.000002685547,2|0,1:2|0:0,0:0:0:0:
445,242,243523,2,0,L|329:220,1,88.000002685547,10|0,1:2|0:0,0:0:0:0:
512,91,243872,2,0,L|396:113,1,88.000002685547,2|0,1:2|0:0,0:0:0:0:
385,107,244134,1,0,0:0:0:0:
354,107,244221,1,8,1:2:0:0:
323,107,244308,1,0,0:0:0:0:
292,107,244395,1,0,0:0:0:0:
153,172,244570,6,0,P|157:97|143:60,1,88.000002685547,2|0,1:2|0:0,0:0:0:0:
16,193,244918,2,0,P|9:236|16:279,1,88.000002685547,10|0,1:2|0:0,0:0:0:0:
277,285,245267,2,0,L|147:277,1,88.000002685547,2|0,1:2|0:0,0:0:0:0:
158,284,245529,1,0,0:0:0:0:
129,294,245616,1,8,1:2:0:0:
102,310,245703,1,0,0:0:0:0:
72,317,245790,1,0,0:0:0:0:
244,191,245965,6,0,P|299:178|343:194,1,88.000002685547,2|0,1:2|0:0,0:0:0:0:
315,372,246314,2,0,P|272:379|230:366,1,88.000002685547,10|0,1:2|0:0,0:0:0:0:
419,207,246663,2,0,L|410:324,1,88.000002685547,2|0,1:2|0:0,0:0:0:0:
377,301,246924,1,0,0:0:0:0:
347,294,247011,1,8,1:2:0:0:
317,288,247099,1,0,0:0:0:0:
287,281,247186,1,0,0:0:0:0:
140,95,247360,6,0,L|151:215,1,88.000002685547,2|0,1:2|0:0,0:0:0:0:
419,207,247709,2,0,L|425:119,1,88.000002685547,10|0,1:2|0:0,0:0:0:0:
148,182,248058,2,0,L|159:302,1,88.000002685547,2|0,1:2|0:0,0:0:0:0:
160,300,248320,1,0,0:0:0:0:
177,325,248407,1,8,1:2:0:0:
207,341,248494,1,0,0:0:0:0:
241,345,248581,1,0,0:0:0:0:
286,331,248668,1,0,0:0:0:0:
321,304,248756,6,0,P|361:288|416:307,1,88.000002685547,2|0,1:2|0:0,0:0:0:0:
148,182,249104,2,0,P|188:198|243:179,1,88.000002685547,10|0,1:2|0:0,0:0:0:0:
51,350,249453,2,0,L|37:239,1,88.000002685547,2|0,1:2|0:0,0:0:0:0:
33,227,249715,1,0,0:0:0:0:
41,193,249802,1,8,1:2:0:0:
50,159,249889,1,0,0:0:0:0:
59,124,249977,1,0,0:0:0:0:
300,49,250151,6,0,L|180:68,1,95.9999970703126,2|0,1:2|0:0,0:0:0:0:
367,285,250500,2,0,L|247:266,1,95.9999970703126,8|0,1:2|0:0,0:0:0:0:
477,119,250849,2,0,L|357:138,1,95.9999970703126,2|0,1:2|0:0,0:0:0:0:
344,140,251110,1,0,0:0:0:0:
309,157,251197,1,8,1:2:0:0:
282,185,251285,1,0,0:0:0:0:
266,219,251372,1,0,0:0:0:0:
79,311,251546,6,0,L|63:200,1,95.9999970703126,2|0,1:2|0:0,0:0:0:0:
295,89,251895,2,0,L|281:184,1,95.9999970703126,8|0,1:2|0:0,0:0:0:0:
175,341,252244,2,0,L|161:245,1,95.9999970703126,2|0,1:2|0:0,0:0:0:0:
156,217,252506,1,0,0:0:0:0:
153,188,252593,2,0,L|166:92,1,95.9999970703126,8|0,1:2|0:0,0:0:0:0:
390,81,252942,6,0,P|310:96|284:82,1,95.9999970703126,2|0,1:2|0:0,0:0:0:0:
9,49,253290,2,0,P|55:41|99:59,1,95.9999970703126,8|0,1:2|0:0,0:0:0:0:
248,290,253639,2,0,P|263:235|245:184,1,95.9999970703126,8|8,1:2|0:2,0:0:0:0:
226,189,253901,1,8,0:2:0:0:
192,193,253988,1,8,1:2:0:0:
153,196,254075,1,8,0:2:0:0:
109,202,254163,1,8,0:2:0:0:
62,208,254250,1,8,0:2:0:0:
13,216,254337,5,0,1:2:0:0:
250,89,255645,6,0,B|258:45|207:8|207:8|133:46|125:113|150:201|240:209|302:223|334:141|346:119|354:78|354:78|324:181|396:246|396:246|317:268|269:354|336:414|377:361|358:306,1,935.999994287109,4|0,1:2|0:0,0:0:0:0:
