osu file format v14

[General]
AudioFilename: audio.mp3
AudioLeadIn: 0
PreviewTime: 17443
Countdown: 0
SampleSet: Soft
StackLeniency: 0.7
Mode: 0
LetterboxInBreaks: 0
WidescreenStoryboard: 0

[Editor]
Bookmarks: 15717
DistanceSpacing: 0.4
BeatDivisor: 8
GridSize: 32
TimelineZoom: 1

[Metadata]
Title:Sci-Fi ROMANCE TRAVELER
TitleUnicode:Sci-Fi ROMANCE TRAVELER
Artist:Akatsuki Records
ArtistUnicode:暁Records
Creator:Hailie
Version:Lunatic
Source:東方Project
Tags:Touhou ZUN C92 Comiket 92 Stack Bros カフウ様 原之様 Sharusen 様 衛星カフェテラス
BeatmapID:1791709
BeatmapSetID:857507

[Difficulty]
HPDrainRate:6
CircleSize:3
OverallDifficulty:8.6
ApproachRate:8.7
SliderMultiplier:1.7
SliderTickRate:1

[Events]
//Background and Video events
Video,0,"Video.avi"
0,0,"background.jpg",0,0
//Break Periods
//Storyboard Layer 0 (Background)
//Storyboard Layer 1 (Fail)
//Storyboard Layer 2 (Pass)
//Storyboard Layer 3 (Foreground)
//Storyboard Sound Samples

[TimingPoints]
3631,431.654676258993,4,2,1,30,1,0
3631,-200,4,2,1,30,0,0
15717,-200,4,2,1,40,0,0
16580,-200,4,2,1,50,0,0
17443,-100,4,2,1,60,0,0
31256,-125,4,2,1,40,0,0
45069,-100,4,2,1,50,0,0
58882,-111.111111111111,4,2,1,55,0,0
72695,-76.9230769230769,4,2,1,75,0,0
100321,-100,4,2,1,50,0,0
114134,-111.111111111111,4,2,1,55,0,0
127947,-76.9230769230769,4,2,1,75,0,0
155573,-111.111111111111,4,2,1,55,0,0
183199,-142.857142857143,4,2,1,35,0,0
190105,-142.857142857143,4,2,1,45,0,0
197012,-71.4285714285715,4,2,1,75,0,0
210825,-71.4285714285715,4,2,1,85,0,0
238451,-71.4285714285715,4,2,1,25,0,0
238488,431.654676258993,4,2,1,25,1,0
241992,431.654676258993,4,2,1,25,1,0
243776,447.761194029851,4,2,1,25,1,0
245664,447.761194029851,4,2,1,25,1,0
249246,454.545454545455,4,2,1,25,1,0
250382,545.454545454546,4,2,1,25,1,0
250927,-166.666666666667,4,2,1,25,0,0
251077,-166.666666666667,4,2,1,10,0,0
251200,545.454545454546,4,2,1,10,1,0
253019,-166.666666666667,4,2,1,25,0,0

[Colours]
Combo1 : 255,128,192
Combo2 : 255,255,0
Combo3 : 0,128,192
Combo4 : 128,0,128

[HitObjects]
33,107,3631,6,0,B|161:91|166:209|277:163,1,255,2|0,0:0|0:0,0:0:0:0:
270,165,5789,1,2,0:0:0:0:
322,98,6220,1,2,0:0:0:0:
417,63,6652,5,2,0:0:0:0:
364,138,6868,1,2,0:0:0:0:
336,218,7084,2,0,L|317:304,1,85,2|0,0:0|0:0,0:0:0:0:
236,365,7947,2,0,P|220:336|203:288,1,85,2|2,0:0|0:0,0:0:0:0:
169,202,8810,2,0,P|137:243|117:273,1,85,2|0,0:0|0:0,0:0:0:0:
83,150,9458,2,0,L|111:114,1,42.5,2|2,0:0|0:0,0:0:0:0:
208,49,10105,1,2,0:0:0:0:
208,49,10537,2,0,B|267:64|318:134|318:134|228:223|128:172,1,340,2|0,0:0|0:0,0:0:0:0:
72,108,13343,1,0,0:0:0:0:
72,108,13990,6,0,P|184:104|246:115,1,170,2|2,0:0|0:0,0:0:0:0:
439,107,15717,5,2,0:0:0:0:
238,114,15933,1,8,0:0:0:0:
382,222,16148,5,8,0:0:0:0:
375,7,16364,1,8,1:2:0:0:
224,256,16580,5,8,1:2:0:0:
208,17,16796,1,8,1:2:0:0:
84,321,17012,5,8,1:2:0:0:
50,34,17228,1,8,1:2:0:0:
60,55,17336,1,0,0:0:0:0:
69,81,17443,6,0,P|131:89|227:97,1,127.5,4|0,1:0|0:0,0:0:0:0:
326,114,17875,1,4,0:3:0:0:
437,258,18091,1,4,0:3:0:0:
195,94,18307,1,2,3:2:0:0:
192,271,18523,1,4,0:3:0:0:
0,241,18738,2,0,L|152:178,1,127.5,8|0,1:2|0:0,0:0:0:0:
232,166,19170,2,0,P|149:204|95:230,1,127.5,2|0,1:2|0:0,0:0:0:0:
87,320,19602,1,4,0:3:0:0:
83,149,19818,1,4,0:3:0:0:
280,138,20033,1,4,0:3:0:0:
450,52,20249,2,0,L|388:80,1,42.5,8|0,1:2|0:0,0:0:0:0:
295,231,20465,2,0,L|281:217|277:213|273:209|269:205|265:201|261:197|257:193|253:189|249:185|244:180|240:176|236:172|232:168|228:164|239:121,1,42.5,8|0,1:2|0:0,0:0:0:0:
196,42,20681,1,2,0:0:0:0:
295,231,20897,6,0,P|389:272|424:258,1,127.5,4|0,3:0|0:0,0:0:0:0:
446,138,21328,2,0,P|407:146|381:159,1,42.5,4|0,0:3|0:0,0:0:0:0:
407,266,21544,1,4,0:3:0:0:
195,169,21760,2,0,L|196:31,1,127.5,2|0,3:2|0:0,0:0:0:0:
154,125,22192,2,0,P|157:199|157:280,1,127.5,8|0,1:2|0:0,0:0:0:0:
156,359,22623,2,0,B|141:273|96:280|86:169,1,170,2|4,1:2|0:3,0:0:0:0:
193,58,23271,1,4,0:3:0:0:
366,91,23487,1,4,0:3:0:0:
437,284,23702,1,0,1:2:0:0:
266,128,23918,2,0,L|298:0,1,127.5,0|0,1:2|0:0,0:0:0:0:
304,217,24350,6,0,P|244:215|174:162,1,127.5,4|0,3:0|0:0,0:0:0:0:
171,297,24782,2,0,P|210:321|265:322,1,85,4|4,0:3|0:3,0:0:0:0:
488,207,25213,2,0,P|491:141|420:143,1,127.5,2|0,3:2|0:0,0:0:0:0:
315,148,25645,1,8,1:2:0:0:
284,316,25861,1,0,0:0:0:0:
81,177,26077,2,0,P|101:111|127:37,1,127.5,2|0,1:2|0:0,0:0:0:0:
168,195,26508,2,0,P|137:277|119:329,1,127.5,4|0,0:3|0:0,0:0:0:0:
292,377,26940,1,4,0:3:0:0:
390,175,27156,2,0,L|367:225,1,42.5,8|0,1:2|0:0,0:0:0:0:
211,264,27372,2,0,L|281:275,1,42.5,8|0,1:2|0:0,0:0:0:0:
381,373,27587,1,2,0:0:0:0:
490,148,27803,6,0,P|461:97|366:90,1,127.5,4|0,3:0|0:0,0:0:0:0:
291,123,28235,2,0,P|295:87|311:52,1,42.5,4|0,0:3|0:0,0:0:0:0:
147,30,28451,1,4,0:3:0:0:
64,216,28666,2,0,P|144:218|181:171,1,127.5,2|0,3:2|0:0,0:0:0:0:
296,81,29098,1,8,1:2:0:0:
300,291,29314,1,8,1:2:0:0:
53,190,29530,2,0,L|54:49,1,127.5,2|0,1:2|0:0,0:0:0:0:
125,36,29961,2,0,L|114:115,1,42.5,4|0,0:3|0:0,0:0:0:0:
144,29,30177,2,0,L|135:94,1,42.5,4|0,0:3|0:0,0:0:0:0:
104,236,30393,2,0,L|100:171,1,42.5,4|0,0:3|0:0,0:0:0:0:
142,264,30609,1,8,1:2:0:0:
303,43,30825,1,8,1:2:0:0:
339,39,30933,1,0,1:0:0:0:
376,35,31041,1,2,1:2:0:0:
485,70,31256,6,0,P|439:77|326:94,1,136,6|4,0:0|0:3,0:0:0:0:
241,170,31904,2,0,P|214:114|240:31,1,136,2|4,0:0|0:3,0:0:0:0:
350,90,32551,1,8,0:0:0:0:
241,170,32767,1,0,0:0:0:0:
1,76,32983,2,0,P|49:77|159:61,1,136,4|4,0:3|0:3,0:0:0:0:
241,170,33631,1,0,3:0:0:0:
143,42,33846,6,0,L|118:125,1,68,4|4,0:3|0:3,0:0:0:0:
241,170,34278,1,8,0:0:0:0:
167,68,34494,1,2,0:0:0:0:
136,288,34710,2,0,P|182:258|221:239,1,68,4|0,0:3|0:0,0:0:0:0:
352,360,35141,1,4,0:3:0:0:
104,310,35357,2,0,P|58:252|20:193,1,136,2|4,0:0|0:3,0:0:0:0:
109,34,36005,1,8,0:0:0:0:
292,27,36220,1,2,0:0:0:0:
315,33,36328,1,2,0:0:0:0:
353,44,36436,2,0,L|339:113,1,68,4|0,0:3|0:0,0:0:0:0:
390,179,36760,2,0,L|404:293,1,102,2|0,0:0|3:0,0:0:0:0:
469,134,37300,5,4,0:3:0:0:
449,297,37515,1,4,0:3:0:0:
286,270,37731,1,8,0:0:0:0:
303,116,37947,1,2,0:0:0:0:
86,175,38163,2,0,L|234:187,1,136,4|4,0:3|0:3,0:0:0:0:
466,68,38810,2,0,P|402:89|277:121,1,170,2|0,0:0|0:0,0:0:0:0:
221,185,39458,1,8,0:0:0:0:
49,40,39674,1,2,0:0:0:0:
4,236,39889,2,0,L|114:130,1,136,4|4,0:3|0:3,0:0:0:0:
250,2,40537,1,0,3:0:0:0:
101,141,40753,6,0,L|156:171,1,34,4|0,0:3|0:3,0:0:0:0:
205,207,40969,1,4,0:3:0:0:
205,207,41077,2,0,L|207:278,1,68,2|0,0:0|0:0,0:0:0:0:
345,346,41400,1,2,0:0:0:0:
451,188,41616,2,0,P|448:140|447:117,1,68,4|0,0:3|0:0,0:0:0:0:
371,63,41940,2,0,P|317:77|296:88,1,68,2|0,0:0|0:0,0:0:0:0:
254,198,42264,1,2,0:0:0:0:
90,118,42479,2,0,L|84:27,1,68,4|4,0:3|0:3,0:0:0:0:
9,110,42803,2,0,L|12:199,1,68,2|0,0:0|0:0,0:0:0:0:
18,314,43127,1,2,0:0:0:0:
217,163,43343,2,0,L|285:154,1,68,4|2,0:3|0:0,0:0:0:0:
396,163,43666,2,0,P|355:153|336:133,1,68,0|0,0:0|0:0,0:0:0:0:
263,17,43990,1,0,3:0:0:0:
485,156,44206,2,0,L|486:252,1,68,4|4,0:3|0:3,0:0:0:0:
298,348,44638,2,0,L|312:301,1,34,8|0,1:2|0:0,0:0:0:0:
284,154,44854,2,0,L|302:194,1,34,8|0,1:2|0:0,0:0:0:0:
157,226,45069,6,0,P|237:241|303:152,1,170,4|4,1:2|0:3,0:0:0:0:
53,254,45717,2,0,L|61:82,1,170,2|4,0:0|0:3,0:0:0:0:
274,53,46364,1,8,1:2:0:0:
157,226,46580,1,0,0:0:0:0:
363,252,46796,2,0,P|373:205|300:138,1,127.5,4|0,0:3|0:0,0:0:0:0:
198,145,47228,1,4,1:3:0:0:
194,311,47443,1,0,3:0:0:0:
399,277,47659,6,0,L|366:188,1,85,4|4,0:3|0:3,0:0:0:0:
331,112,47983,2,0,P|337:50|349:23,1,85,2|0,0:0|0:0,0:0:0:0:
502,58,48307,1,2,0:0:0:0:
399,277,48523,2,0,P|337:294|312:273,1,85,4|0,1:2|0:0,0:0:0:0:
98,372,48954,1,4,0:3:0:0:
136,88,49170,2,0,L|193:256,1,170,2|4,0:0|0:3,0:0:0:0:
100,102,49818,1,8,1:2:0:0:
349,50,50033,1,2,0:0:0:0:
336,67,50141,1,2,0:0:0:0:
311,97,50249,2,0,P|312:143|317:205,1,85,4|0,0:3|0:0,0:0:0:0:
398,331,50681,1,4,1:3:0:0:
217,267,50897,1,0,3:0:0:0:
404,170,51113,6,0,P|450:159|487:145,1,85,4|4,0:3|0:3,0:0:0:0:
255,97,51544,1,8,1:2:0:0:
324,260,51760,1,2,0:0:0:0:
158,108,51976,2,0,P|164:47|267:-6,1,170,4|4,1:3|0:3,0:0:0:0:
409,103,52623,2,0,P|410:218|411:283,1,170,2|4,0:0|0:3,0:0:0:0:
256,361,53271,1,8,1:2:0:0:
328,217,53487,1,2,0:0:0:0:
129,163,53702,2,0,P|72:127|65:59,1,127.5,4|0,0:3|0:0,0:0:0:0:
159,16,54134,1,4,1:3:0:0:
133,197,54350,1,0,3:0:0:0:
31,70,54566,6,0,L|144:32,1,85,4|4,0:3|0:3,0:0:0:0:
231,148,54997,1,8,1:2:0:0:
90,186,55213,1,2,0:0:0:0:
329,168,55429,2,0,P|323:104|298:60,1,85,4|0,1:2|0:0,0:0:0:0:
231,148,55753,2,0,P|230:202|247:251,1,85,2|0,0:0|0:0,0:0:0:0:
321,323,56077,1,2,0:0:0:0:
138,223,56292,2,0,P|91:214|60:185,1,85,4|4,0:3|0:3,0:0:0:0:
88,63,56616,2,0,P|121:100|131:147,1,85,2|0,0:0|0:0,0:0:0:0:
84,305,56940,1,2,0:0:0:0:
327,308,57156,2,0,L|446:280,1,85,4|0,0:3|0:0,0:0:0:0:
505,260,57479,2,0,L|412:257,1,85,2|0,0:0|0:0,0:0:0:0:
381,232,57803,1,0,3:0:0:0:
348,212,57911,1,0,1:0:0:0:
315,204,58019,2,0,L|217:224,1,85,4|4,0:3|0:3,0:0:0:0:
126,207,58343,2,0,L|235:203,1,85,0|0,0:0|0:0,0:0:0:0:
382,155,58666,1,2,0:0:0:0:
144,132,58882,6,0,P|124:214|121:237,1,76.4999976654053,14|4,3:2|3:0,0:0:0:0:
241,349,59314,1,8,1:2:0:0:
27,186,59530,1,4,3:0:0:0:
27,186,59961,1,4,0:3:0:0:
27,186,60393,2,0,P|87:235|181:239,1,152.999995330811,8|4,1:2|0:3,0:0:0:0:
255,131,61041,2,0,L|245:40,1,76.4999976654053,8|0,1:2|0:0,0:0:0:0:
430,38,61472,1,4,3:0:0:0:
430,38,61688,1,4,3:0:0:0:
246,54,61904,2,0,L|120:68,1,114.749996498108,8|0,1:2|0:0,0:0:0:0:
86,85,62336,6,0,P|79:152|98:181,1,76.4999976654053,4|4,3:0|3:0,0:0:0:0:
280,54,62767,1,8,1:2:0:0:
475,189,62983,1,4,3:0:0:0:
475,189,63415,1,4,0:3:0:0:
475,189,63846,2,0,B|390:231|434:258|351:284,1,152.999995330811,8|4,1:2|0:3,0:0:0:0:
229,230,64494,2,0,P|233:181|243:140,1,76.4999976654053,8|0,1:2|0:0,0:0:0:0:
306,51,64925,1,4,3:0:0:0:
306,51,65141,1,4,3:0:0:0:
229,230,65357,1,8,1:2:0:0:
42,149,65573,1,8,1:2:0:0:
250,282,65789,6,0,P|296:274|336:245,1,76.4999976654053,14|4,3:2|3:0,0:0:0:0:
443,119,66220,1,8,1:2:0:0:
214,84,66436,1,4,3:0:0:0:
214,84,66868,1,4,0:3:0:0:
214,84,67300,2,0,L|44:106,1,152.999995330811,8|4,1:2|0:3,0:0:0:0:
27,270,67947,2,0,P|22:229|27:167,1,76.4999976654053,8|0,1:2|0:0,0:0:0:0:
175,53,68379,1,4,3:0:0:0:
206,246,68595,1,4,3:0:0:0:
62,103,68810,2,0,L|96:24,1,76.4999976654053,8|0,1:2|0:0,0:0:0:0:
316,74,69242,5,4,3:0:0:0:
171,160,69458,1,4,3:0:0:0:
356,302,69674,2,0,L|462:252,1,114.749996498108,8|0,1:2|0:0,0:0:0:0:
333,333,70105,2,0,P|290:327|241:327,1,76.4999976654053,4|4,3:0|0:3,0:0:0:0:
51,363,70537,1,8,1:2:0:0:
310,184,70969,5,4,0:3:0:0:
88,247,71184,1,4,0:3:0:0:
154,79,71400,5,8,1:2:0:0:
207,288,71616,1,8,1:2:0:0:
275,52,71832,5,4,3:0:0:0:
30,112,72048,1,12,3:3:0:0:
215,332,72264,5,10,1:2:0:0:
142,31,72479,1,10,1:2:0:0:
383,120,72695,2,0,P|279:133|228:223,1,165.749992412568,14|0,1:2|0:0,0:0:0:0:
447,141,73127,5,8,1:2:0:0:
261,76,73343,1,12,0:3:0:0:
65,301,73559,5,4,0:3:0:0:
122,83,73774,1,12,0:3:0:0:
305,203,73990,5,8,1:2:0:0:
28,173,74206,1,2,0:0:0:0:
182,347,74422,5,12,1:2:0:0:
301,97,74638,2,0,P|345:143|301:257,1,165.749992412568,2|0,0:0|0:0,0:0:0:0:
150,183,75069,1,12,0:3:0:0:
416,268,75285,1,4,0:3:0:0:
111,235,75501,2,0,L|94:140,1,55.2499974708558,8|0,1:2|0:0,0:0:0:0:
208,22,75717,2,0,L|189:87,1,55.2499974708558,8|0,1:2|0:0,0:0:0:0:
392,18,75933,1,2,0:0:0:0:
416,268,76148,6,0,P|367:224|391:110,1,165.749992412568,14|0,1:2|0:0,0:0:0:0:
443,298,76580,5,8,1:2:0:0:
211,158,76796,1,12,0:3:0:0:
37,308,77012,5,4,0:3:0:0:
286,228,77228,1,12,0:3:0:0:
62,61,77443,5,8,1:2:0:0:
135,326,77659,1,2,0:0:0:0:
258,96,77875,2,0,L|367:47,1,110.499994941712,12|2,1:2|0:0,0:0:0:0:
244,213,78307,1,8,1:2:0:0:
18,90,78523,1,12,0:3:0:0:
111,309,78738,1,4,0:3:0:0:
161,56,78954,1,0,1:0:0:0:
273,248,79170,2,0,L|204:223,1,55.2499974708558,8|0,1:2|0:0,0:0:0:0:
161,56,79386,2,0,L|181:143,1,55.2499974708558,12|0,0:3|0:0,0:0:0:0:
60,333,79602,6,0,P|111:287|87:181,1,165.749992412568,14|0,1:2|0:0,0:0:0:0:
177,0,80033,5,8,1:2:0:0:
67,209,80249,1,12,0:3:0:0:
332,115,80465,5,4,0:3:0:0:
59,87,80681,1,12,0:3:0:0:
180,263,80897,5,8,1:2:0:0:
287,23,81113,1,2,0:0:0:0:
467,194,81328,5,12,1:2:0:0:
229,85,81544,2,0,B|153:90|167:149|39:141,1,165.749992412568,2|0,0:0|0:0,0:0:0:0:
101,287,81976,1,12,0:3:0:0:
263,71,82192,1,4,0:3:0:0:
301,296,82407,2,0,L|276:227,1,55.2499974708558,8|0,1:2|0:0,0:0:0:0:
291,23,82623,2,0,L|255:82,1,55.2499974708558,8|0,1:2|0:0,0:0:0:0:
62,163,82839,1,2,0:0:0:0:
301,296,83055,6,0,P|343:247|448:246,1,165.749992412568,14|0,1:2|0:0,0:0:0:0:
271,350,83487,1,8,1:2:0:0:
254,152,83702,1,12,0:3:0:0:
49,65,83918,1,4,0:3:0:0:
130,274,84134,1,12,0:3:0:0:
248,52,84350,1,8,1:2:0:0:
45,189,84566,1,8,1:2:0:0:
345,193,84782,5,12,1:2:0:0:
165,55,84997,1,0,1:0:0:0:
79,281,85213,5,8,1:2:0:0:
162,18,85429,1,12,0:3:0:0:
345,193,85645,6,0,L|275:200,1,55.2499974708558,4|0,1:3|0:0,0:0:0:0:
79,281,85861,2,0,L|140:242,1,55.2499974708558,8|0,1:2|0:0,0:0:0:0:
221,27,86077,6,0,L|201:100,1,55.2499974708558,8|0,1:2|0:0,0:0:0:0:
233,327,86292,2,0,L|208:242,1,55.2499974708558,8|0,1:2|0:0,0:0:0:0:
407,178,86508,2,0,P|427:106|372:32,1,165.749992412568,14|0,1:2|0:0,0:0:0:0:
444,224,86940,5,8,1:2:0:0:
273,70,87156,1,12,0:3:0:0:
106,230,87372,5,4,0:3:0:0:
353,177,87587,2,0,L|283:178,1,55.2499974708558,12|0,0:3|0:0,0:0:0:0:
121,65,87803,5,8,1:2:0:0:
222,291,88019,1,2,0:0:0:0:
374,59,88235,5,12,1:2:0:0:
383,320,88451,2,0,B|310:287|290:318|200:283,1,165.749992412568,2|0,0:0|0:0,0:0:0:0:
16,153,88882,1,12,0:3:0:0:
297,190,89098,1,4,0:3:0:0:
158,15,89314,2,0,L|167:84,1,55.2499974708558,8|0,1:2|0:0,0:0:0:0:
95,267,89530,2,0,L|128:196,1,55.2499974708558,8|0,1:2|0:0,0:0:0:0:
323,92,89746,1,2,0:0:0:0:
350,289,89961,6,0,P|277:303|210:245,1,165.749992412568,14|0,1:2|0:0,0:0:0:0:
323,92,90393,5,8,1:2:0:0:
364,331,90609,1,12,0:3:0:0:
191,164,90825,5,4,0:3:0:0:
455,131,91041,1,12,0:3:0:0:
138,34,91256,6,0,L|139:105,1,55.2499974708558,8|0,1:2|0:0,0:0:0:0:
7,252,91472,1,2,0:0:0:0:
236,143,91688,2,0,P|295:141|372:137,1,110.499994941712,12|2,1:2|0:0,0:0:0:0:
425,288,92120,1,8,1:2:0:0:
316,51,92336,1,12,0:3:0:0:
171,207,92551,1,4,0:3:0:0:
386,196,92767,1,0,1:0:0:0:
124,219,92983,2,0,L|106:299,1,55.2499974708558,8|0,1:2|0:0,0:0:0:0:
120,95,93199,2,0,L|89:25,1,55.2499974708558,12|0,0:3|0:0,0:0:0:0:
356,143,93415,6,0,B|269:128|284:182|149:147,1,165.749992412568,14|0,1:2|0:0,0:0:0:0:
391,186,93846,5,8,1:2:0:0:
190,27,94062,1,12,0:3:0:0:
173,269,94278,5,4,0:3:0:0:
276,55,94494,2,0,L|265:130,1,55.2499974708558,12|0,0:3|0:0,0:0:0:0:
365,293,94710,5,8,1:2:0:0:
142,174,94925,1,2,0:0:0:0:
259,384,95141,5,12,1:2:0:0:
448,217,95357,2,0,P|382:188|382:97,1,165.749992412568,2|0,0:0|0:0,0:0:0:0:
168,71,95789,1,12,0:3:0:0:
271,267,96005,1,4,0:3:0:0:
430,84,96220,2,0,L|365:108,1,55.2499974708558,8|0,1:2|0:0,0:0:0:0:
128,32,96436,2,0,L|188:90,1,55.2499974708558,8|0,1:2|0:0,0:0:0:0:
47,243,96652,1,2,0:0:0:0:
271,267,96868,6,0,L|245:79,1,165.749992412568,14|0,1:2|0:0,0:0:0:0:
395,88,97300,1,8,1:2:0:0:
130,113,97515,1,12,0:3:0:0:
325,317,97731,1,4,0:3:0:0:
231,98,97947,1,12,0:3:0:0:
129,309,98163,2,0,L|172:253,1,55.2499974708558,8|0,1:2|0:0,0:0:0:0:
231,98,98379,2,0,L|220:191,1,55.2499974708558,8|0,1:2|0:0,0:0:0:0:
436,261,98595,1,12,1:2:0:0:
436,261,99026,5,8,1:2:0:0:
349,39,99242,1,12,0:3:0:0:
266,261,99458,1,4,1:3:0:0:
475,147,99674,1,8,1:2:0:0:
238,135,99889,1,8,1:2:0:0:
238,135,99997,1,0,0:0:0:0:
238,135,100105,1,8,1:2:0:0:
102,307,100321,6,0,P|52:223|9:148,1,170,4|4,1:2|0:3,0:0:0:0:
255,15,100969,2,0,P|295:60|231:134,1,170,2|4,0:0|0:3,0:0:0:0:
71,119,101616,1,8,1:2:0:0:
164,299,101832,1,0,0:0:0:0:
314,185,102048,2,0,P|375:182|454:180,1,127.5,4|0,0:3|0:0,0:0:0:0:
491,276,102479,1,4,1:3:0:0:
412,96,102695,1,0,3:0:0:0:
203,48,102911,6,0,P|167:96|144:125,1,85,4|4,0:3|0:3,0:0:0:0:
82,189,103235,2,0,P|76:243|82:292,1,85,2|0,0:0|0:0,0:0:0:0:
196,384,103559,1,2,0:0:0:0:
376,195,103774,2,0,P|336:269|376:345,1,170,4|4,1:2|0:3,0:0:0:0:
473,186,104422,2,0,B|471:102|430:107|436:2,1,170,2|4,0:0|0:3,0:0:0:0:
230,0,105069,1,8,1:2:0:0:
127,140,105284,1,2,0:0:0:0:
144,158,105392,1,2,0:0:0:0:
180,180,105501,2,0,P|225:184|289:188,1,85,4|0,0:3|0:0,0:0:0:0:
357,226,105825,2,0,P|361:153|307:98,1,127.5,2|4,0:0|0:3,0:0:0:0:
195,276,106364,6,0,P|155:289|113:300,1,85,4|4,0:3|0:3,0:0:0:0:
21,201,106795,1,8,1:2:0:0:
30,360,107011,1,2,0:0:0:0:
227,232,107227,2,0,B|296:258|319:210|404:231,1,170,4|4,1:3|0:3,0:0:0:0:
496,64,107875,2,0,P|479:39|339:41,1,170,2|0,0:0|0:0,0:0:0:0:
225,146,108522,1,8,1:2:0:0:
221,11,108738,1,2,0:0:0:0:
361,133,108954,2,0,P|360:211|360:275,1,127.5,4|0,0:3|0:0,0:0:0:0:
490,364,109386,1,4,1:3:0:0:
343,235,109602,1,0,3:0:0:0:
164,254,109817,6,0,P|109:259|71:273,1,85,4|4,0:3|0:3,0:0:0:0:
4,350,110248,1,8,1:2:0:0:
53,174,110464,1,2,0:0:0:0:
233,268,110681,2,0,P|229:319|240:389,1,85,4|0,1:2|0:0,0:0:0:0:
316,277,111004,2,0,P|314:235|299:186,1,85,2|0,0:0|0:0,0:0:0:0:
163,115,111328,1,2,0:0:0:0:
363,107,111544,2,0,P|405:107|457:88,1,85,4|0,0:3|0:0,0:0:0:0:
368,19,111868,2,0,P|313:18|269:36,1,85,2|0,0:0|0:0,0:0:0:0:
156,6,112191,1,2,0:0:0:0:
43,115,112407,2,0,L|55:211,1,85,4|0,0:3|0:0,0:0:0:0:
84,309,112731,2,0,L|105:227,1,85,2|0,0:0|0:0,0:0:0:0:
155,188,113054,1,0,0:0:0:0:
181,204,113162,1,0,1:0:0:0:
222,221,113271,2,0,L|311:203,1,85,4|4,0:3|0:3,0:0:0:0:
491,161,113702,1,8,1:2:0:0:
219,69,113918,1,2,0:0:0:0:
287,251,114134,6,0,L|249:348,1,76.4999976654053,14|4,3:2|3:0,0:0:0:0:
335,148,114566,1,8,1:2:0:0:
503,303,114781,1,4,3:0:0:0:
503,303,115212,1,4,0:3:0:0:
369,196,115429,1,2,0:0:0:0:
369,196,115645,2,0,B|313:227|276:187|202:218,1,152.999995330811,8|4,1:2|0:3,0:0:0:0:
44,152,116292,2,0,P|39:111|40:59,1,76.4999976654053,8|0,1:2|0:0,0:0:0:0:
199,11,116723,1,4,3:0:0:0:
199,11,116939,1,4,3:0:0:0:
298,168,117155,2,0,L|293:298,1,114.749996498108,8|0,1:2|0:0,0:0:0:0:
294,335,117587,6,0,P|321:340|379:330,1,76.4999976654053,4|4,3:0|3:0,0:0:0:0:
453,153,118018,1,8,1:2:0:0:
244,40,118234,1,4,0:3:0:0:
244,40,118666,1,4,0:3:0:0:
135,131,118882,1,2,0:0:0:0:
135,131,119098,2,0,P|203:162|293:140,1,152.999995330811,8|4,1:2|0:3,0:0:0:0:
429,78,119745,2,0,P|461:42|502:9,1,76.4999976654053,8|0,1:2|0:0,0:0:0:0:
427,213,120176,1,4,0:3:0:0:
427,213,120392,1,4,0:3:0:0:
285,59,120609,1,8,1:2:0:0:
149,220,120824,1,8,1:2:0:0:
33,79,121040,6,0,P|79:71|143:57,1,76.4999976654053,14|4,3:2|3:0,0:0:0:0:
396,98,121471,1,8,1:2:0:0:
162,58,121688,1,4,0:3:0:0:
162,58,122119,1,4,0:3:0:0:
162,58,122551,2,0,L|139:230,1,152.999995330811,8|4,1:2|0:3,0:0:0:0:
41,332,123199,2,0,L|39:237,1,76.4999976654053,8|0,1:2|0:0,0:0:0:0:
201,309,123630,1,4,3:0:0:0:
142,134,123846,1,4,3:0:0:0:
374,102,124062,2,0,L|435:164,1,76.4999976654053,8|0,1:2|0:0,0:0:0:0:
367,0,124493,5,4,3:0:0:0:
263,162,124709,1,4,3:0:0:0:
69,110,124925,2,0,P|47:56|20:6,1,114.749996498108,8|0,1:2|0:0,0:0:0:0:
46,159,125357,2,0,P|77:183|102:232,1,76.4999976654053,4|4,3:0|0:3,0:0:0:0:
192,0,125789,1,8,1:2:0:0:
306,247,126220,5,4,0:3:0:0:
90,217,126435,1,4,0:3:0:0:
227,61,126651,5,8,1:2:0:0:
191,304,126867,1,8,1:2:0:0:
88,108,127083,5,4,3:0:0:0:
348,147,127299,1,12,3:3:0:0:
190,338,127515,5,10,1:2:0:0:
229,18,127730,1,10,1:2:0:0:
419,141,127947,2,0,P|349:106|267:144,1,165.749992412568,14|0,1:2|0:0,0:0:0:0:
452,107,128379,5,8,1:2:0:0:
220,89,128595,1,12,0:3:0:0:
327,296,128811,5,4,0:3:0:0:
333,35,129026,1,12,0:3:0:0:
199,233,129242,5,8,1:2:0:0:
454,226,129458,1,2,0:0:0:0:
256,384,129674,5,12,1:2:0:0:
64,245,129890,2,0,P|56:191|36:73,1,165.749992412568,2|0,0:0|0:0,0:0:0:0:
292,65,130321,1,12,0:3:0:0:
101,28,130537,1,4,0:3:0:0:
64,245,130753,2,0,L|116:198,1,55.2499974708558,8|0,1:2|0:0,0:0:0:0:
208,22,130969,2,0,P|201:87|278:159,1,165.749992412568,8|0,1:2|0:0,0:0:0:0:
479,196,131400,6,0,B|419:175|394:233|275:190,1,165.749992412568,14|0,1:2|0:0,0:0:0:0:
462,283,131832,5,8,1:2:0:0:
347,72,132048,1,12,0:3:0:0:
466,90,132264,5,4,0:3:0:0:
310,293,132480,1,12,0:3:0:0:
223,110,132695,5,8,1:2:0:0:
409,187,132911,1,2,0:0:0:0:
177,264,133127,2,0,P|135:292|76:327,1,110.499994941712,12|2,1:2|0:0,0:0:0:0:
338,291,133559,1,8,1:2:0:0:
223,110,133775,1,12,0:3:0:0:
83,322,133990,1,4,0:3:0:0:
22,99,134206,1,0,1:0:0:0:
248,75,134422,2,0,L|292:20,1,55.2499974708558,8|0,1:2|0:0,0:0:0:0:
177,264,134638,2,0,L|190:334,1,55.2499974708558,12|0,0:3|0:0,0:0:0:0:
312,187,134854,6,0,B|390:142|409:217|499:133,1,165.749992412568,14|0,1:2|0:0,0:0:0:0:
348,294,135285,5,8,1:2:0:0:
248,75,135501,1,12,0:3:0:0:
51,151,135717,5,4,0:3:0:0:
308,170,135933,1,12,0:3:0:0:
140,304,136149,5,8,1:2:0:0:
100,52,136365,1,2,0:0:0:0:
364,85,136580,5,12,1:2:0:0:
187,268,136796,2,0,B|115:287|87:227|7:265,1,165.749992412568,2|0,0:0|0:0,0:0:0:0:
226,304,137228,1,12,0:3:0:0:
123,113,137444,1,4,0:3:0:0:
362,143,137659,2,0,L|273:170,1,55.2499974708558,8|0,1:2|0:0,0:0:0:0:
127,21,137875,2,0,P|176:92|188:198,1,165.749992412568,8|0,1:2|0:0,0:0:0:0:
408,242,138307,6,0,B|344:233|311:275|240:256,1,165.749992412568,14|0,1:2|0:0,0:0:0:0:
424,308,138739,1,8,1:2:0:0:
295,136,138954,1,12,0:3:0:0:
183,323,139170,1,4,0:3:0:0:
349,223,139386,1,12,0:3:0:0:
129,148,139602,1,8,1:2:0:0:
169,362,139818,1,8,1:2:0:0:
163,104,140034,5,12,1:2:0:0:
397,155,140249,1,0,1:0:0:0:
239,295,140465,5,8,1:2:0:0:
292,24,140681,1,12,0:3:0:0:
451,149,140897,6,0,L|381:156,1,55.2499974708558,4|0,1:3|0:0,0:0:0:0:
163,103,141113,2,0,L|238:121,1,55.2499974708558,8|0,1:2|0:0,0:0:0:0:
314,313,141329,6,0,L|295:239,1,55.2499974708558,8|0,1:2|0:0,0:0:0:0:
292,24,141544,2,0,L|295:95,1,55.2499974708558,8|0,1:2|0:0,0:0:0:0:
123,209,141760,2,0,B|183:168|225:232|308:170,1,165.749992412568,14|0,1:2|0:0,0:0:0:0:
402,339,142192,5,8,1:2:0:0:
345,125,142408,1,12,0:3:0:0:
512,267,142624,5,4,0:3:0:0:
344,124,142839,2,0,L|356:67,1,55.2499974708558,12|0,0:3|0:0,0:0:0:0:
512,9,143055,5,8,1:2:0:0:
390,209,143271,1,2,0:0:0:0:
275,19,143487,5,12,1:2:0:0:
142,192,143703,2,0,B|205:230|230:188|303:221,1,165.749992412568,2|0,0:0|0:0,0:0:0:0:
482,305,144134,1,12,0:3:0:0:
402,118,144350,1,4,0:3:0:0:
260,256,144566,2,0,L|302:220,1,55.2499974708558,8|0,1:2|0:0,0:0:0:0:
191,357,144782,2,0,B|139:313|149:251|81:194,1,165.749992412568,8|0,1:2|0:0,0:0:0:0:
180,38,145213,6,0,P|128:114|34:149,1,165.749992412568,14|0,1:2|0:0,0:0:0:0:
281,52,145645,5,8,1:2:0:0:
63,145,145861,1,12,0:3:0:0:
240,249,146077,5,4,0:3:0:0:
138,34,146293,1,12,0:3:0:0:
36,282,146508,6,0,L|126:251,1,55.2499974708558,8|0,1:2|0:0,0:0:0:0:
262,350,146724,1,2,0:0:0:0:
225,133,146940,2,0,P|257:95|320:64,1,110.499994941712,12|2,1:2|0:0,0:0:0:0:
492,134,147372,1,8,1:2:0:0:
310,66,147588,1,12,0:3:0:0:
403,276,147803,1,4,0:3:0:0:
407,49,148019,1,0,1:0:0:0:
229,183,148235,2,0,L|309:183,1,55.2499974708558,8|0,1:2|0:0,0:0:0:0:
146,94,148451,2,0,L|134:19,1,55.2499974708558,12|0,0:3|0:0,0:0:0:0:
96,181,148667,6,0,B|63:267|115:249|70:385,1,165.749992412568,14|0,1:2|0:0,0:0:0:0:
323,329,149098,5,8,1:2:0:0:
131,201,149314,1,12,0:3:0:0:
442,134,149530,5,4,0:3:0:0:
156,64,149746,2,0,L|201:142,1,55.2499974708558,12|0,0:3|0:0,0:0:0:0:
377,288,149962,5,8,1:2:0:0:
300,52,150177,2,0,L|290:137,1,55.2499974708558,2|0,0:0|0:0,0:0:0:0:
211,287,150393,5,12,1:2:0:0:
440,132,150609,2,0,B|376:69|356:117|297:49,1,165.749992412568,2|0,0:0|0:0,0:0:0:0:
133,142,151041,1,12,0:3:0:0:
360,60,151257,1,4,0:3:0:0:
211,287,151472,2,0,L|240:202,1,55.2499974708558,8|0,1:2|0:0,0:0:0:0:
360,60,151688,2,0,P|346:96|337:133,1,55.2499974708558,8|0,1:2|0:0,0:0:0:0:
467,291,151904,1,2,0:0:0:0:
228,234,152120,6,0,P|221:163|236:67,1,165.749992412568,14|0,1:2|0:0,0:0:0:0:
378,46,152552,1,8,1:2:0:0:
114,86,152767,1,12,0:3:0:0:
339,217,152983,1,4,0:3:0:0:
225,10,153199,1,12,0:3:0:0:
114,267,153415,2,0,L|171:227,1,55.2499974708558,8|0,1:2|0:0,0:0:0:0:
276,80,153631,2,0,L|260:172,1,55.2499974708558,8|0,1:2|0:0,0:0:0:0:
406,329,153847,1,12,1:2:0:0:
406,329,154278,5,8,1:2:0:0:
336,163,154494,1,12,0:3:0:0:
186,307,154710,1,4,1:3:0:0:
116,105,154926,1,8,1:2:0:0:
357,128,155141,1,8,1:2:0:0:
366,111,155249,1,0,1:0:0:0:
374,94,155357,1,8,1:2:0:0:
299,235,155573,5,14,3:2:0:0:
357,128,155789,1,4,3:0:0:0:
416,21,156005,1,8,1:2:0:0:
205,50,156220,1,4,3:0:0:0:
205,50,156436,1,4,0:3:0:0:
105,206,156652,2,0,L|20:165,1,76.4999976654053,4|4,0:3|0:3,0:0:0:0:
7,366,157084,2,0,L|129:325,1,114.749996498108,8|0,1:2|0:0,0:0:0:0:
133,340,157515,6,0,P|172:338|216:337,1,76.4999976654053,4|8,0:3|1:2,0:0:0:0:
311,359,157947,1,2,0:0:0:0:
352,274,158163,1,4,3:0:0:0:
256,236,158379,1,4,3:0:0:0:
151,110,158595,2,0,P|152:65|168:20,1,76.4999976654053,8|2,1:2|0:0,0:0:0:0:
262,92,159026,5,4,3:0:0:0:
151,110,159242,1,4,3:0:0:0:
52,66,159458,1,8,1:2:0:0:
144,253,159674,1,4,3:0:0:0:
144,253,159889,1,4,0:3:0:0:
335,273,160105,2,0,P|353:318|380:368,1,76.4999976654053,4|4,0:3|0:3,0:0:0:0:
462,218,160537,2,0,P|462:166|459:86,1,114.749996498108,8|0,1:2|0:0,0:0:0:0:
455,62,160969,6,0,P|412:66|373:68,1,76.4999976654053,4|8,0:3|1:2,0:0:0:0:
274,73,161400,1,2,0:0:0:0:
228,156,161616,1,4,3:0:0:0:
138,108,161832,1,4,3:0:0:0:
74,278,162048,2,0,L|55:336,1,38.2499988327027,8|0,1:2|0:0,0:0:0:0:
64,190,162264,2,0,L|40:149,1,38.2499988327027,8|0,1:2|0:0,0:0:0:0:
31,32,162479,2,0,B|93:23|89:70|164:41,1,114.749996498108,14|0,3:2|0:0,0:0:0:0:
214,138,162911,5,8,1:2:0:0:
142,47,163127,1,4,3:0:0:0:
53,123,163343,1,4,0:3:0:0:
126,256,163559,2,0,L|202:305,1,76.4999976654053,4|4,0:3|0:3,0:0:0:0:
301,346,163990,2,0,P|293:276|248:218,1,114.749996498108,8|0,1:2|0:0,0:0:0:0:
237,214,164422,5,4,0:3:0:0:
297,139,164638,1,8,1:2:0:0:
371,216,164854,1,2,0:0:0:0:
446,70,165069,2,0,P|396:41|373:28,1,76.4999976654053,4|4,3:0|3:0,0:0:0:0:
264,29,165501,1,8,1:2:0:0:
297,139,165717,1,2,0:0:0:0:
127,189,165933,6,0,P|64:149|-24:88,1,152.999995330811,4|8,3:0|1:2,0:0:0:0:
37,280,166580,1,4,0:3:0:0:
205,217,166796,2,0,P|257:196|364:152,1,152.999995330811,4|4,3:0|0:3,0:0:0:0:
462,40,167443,1,8,1:2:0:0:
414,257,167659,2,0,P|339:215|353:149,1,152.999995330811,4|8,0:3|1:2,0:0:0:0:
217,71,168307,1,8,0:3:0:0:
71,217,168523,2,0,P|114:185|101:77,1,152.999995330811,4|10,3:0|1:2,0:0:0:0:
24,229,169170,1,10,1:2:0:0:
217,71,169386,2,0,P|301:66|359:59,1,114.749996498108,14|0,3:2|0:0,0:0:0:0:
453,130,169818,5,8,1:2:0:0:
283,32,170033,1,4,3:0:0:0:
283,32,170249,1,4,0:3:0:0:
279,210,170465,2,0,P|241:255|215:284,1,76.4999976654053,4|4,0:3|0:3,0:0:0:0:
167,366,170897,2,0,P|139:341|116:291,1,76.4999976654053,8|4,1:2|0:3,0:0:0:0:
102,180,171328,5,4,0:3:0:0:
145,88,171544,1,8,1:2:0:0:
25,114,171760,1,2,0:0:0:0:
116,222,171976,2,0,L|240:183,1,114.749996498108,4|0,3:0|0:0,0:0:0:0:
299,144,172407,2,0,P|272:223|275:259,1,114.749996498108,8|0,1:2|0:0,0:0:0:0:
281,329,172839,6,0,L|272:243,1,76.4999976654053,4|4,3:0|3:0,0:0:0:0:
299,144,173271,1,8,1:2:0:0:
457,68,173487,2,0,L|360:80,1,76.4999976654053,4|4,3:0|0:3,0:0:0:0:
204,98,173918,1,4,0:3:0:0:
309,235,174134,1,4,0:3:0:0:
381,77,174350,1,8,1:2:0:0:
381,77,174566,1,4,0:3:0:0:
432,185,174782,5,4,0:3:0:0:
278,133,174997,1,8,1:2:0:0:
302,297,175213,1,2,0:0:0:0:
153,321,175429,2,0,P|87:328|56:329,1,76.4999976654053,4|4,3:0|3:0,0:0:0:0:
40,298,175753,2,0,P|77:277|118:253,1,76.4999976654053,2|0,0:0|0:0,0:0:0:0:
94,141,176077,1,8,1:2:0:0:
262,0,176292,2,0,L|236:93,1,76.4999976654053,14|4,3:2|3:0,0:0:0:0:
277,212,176724,5,8,1:2:0:0:
440,175,176940,1,4,3:0:0:0:
440,175,177156,1,4,0:3:0:0:
315,54,177372,2,0,P|256:67|224:74,1,76.4999976654053,4|4,0:3|0:3,0:0:0:0:
160,185,177803,2,0,L|180:144,1,38.2499988327027,8|0,1:2|0:0,0:0:0:0:
121,268,178019,1,4,0:3:0:0:
194,139,178235,1,4,0:3:0:0:
59,39,178451,2,0,P|50:110|86:141,1,114.749996498108,8|0,1:2|0:0,0:0:0:0:
194,139,178882,2,0,P|233:159|269:242,1,114.749996498108,4|0,3:0|0:0,0:0:0:0:
363,348,179314,1,8,1:2:0:0:
363,348,179530,1,2,0:0:0:0:
453,196,179746,6,0,B|437:158|431:87|417:52,1,114.749996498108,4|0,3:0|0:0,0:0:0:0:
310,32,180177,1,8,1:2:0:0:
486,107,180393,1,2,0:0:0:0:
251,139,180609,2,0,B|222:134|167:147|132:139,1,114.749996498108,4|0,3:0|0:0,0:0:0:0:
47,240,181041,1,8,1:2:0:0:
167,94,181256,1,2,0:0:0:0:
381,268,181472,5,4,0:3:0:0:
251,139,181688,1,4,0:3:0:0:
249,285,181904,5,8,1:2:0:0:
360,126,182120,1,8,1:2:0:0:
131,78,182336,6,0,L|67:90,1,38.2499988327027,4|0,3:0|0:0,0:0:0:0:
296,32,182551,2,0,L|365:19,1,38.2499988327027,12|0,3:3|0:0,0:0:0:0:
138,197,182767,6,0,L|89:208,1,38.2499988327027,10|0,1:2|0:0,0:0:0:0:
342,138,182983,2,0,L|406:121,1,38.2499988327027,2|0,0:2|0:0,0:0:0:0:
265,257,183199,6,0,L|234:163,1,89.2499972763062,6|0,2:0|0:0,0:0:0:0:
205,68,183631,5,2,0:0:0:0:
237,172,183846,1,2,0:0:0:0:
313,99,184062,5,2,0:0:0:0:
216,126,184278,1,2,0:0:0:0:
342,198,184494,5,2,0:0:0:0:
313,99,184710,1,2,0:0:0:0:
434,130,184925,5,2,3:2:0:0:
381,289,185141,2,0,P|323:295|254:234,1,148.74999546051,2|0,0:0|0:0,0:0:0:0:
218,214,185789,2,0,B|163:226|156:267|90:262,1,118.999996368408,2|0,0:0|0:0,0:0:0:0:
110,262,186652,6,0,P|108:210|119:155,1,89.2499972763062,6|0,2:0|0:0,0:0:0:0:
193,77,187084,5,2,0:0:0:0:
93,91,187300,1,2,0:0:0:0:
156,193,187515,5,2,0:0:0:0:
193,77,187731,1,2,0:0:0:0:
341,93,187947,5,2,0:0:0:0:
258,173,188163,1,2,0:0:0:0:
302,267,188379,2,0,P|332:308|390:328,1,89.2499972763062,2|0,3:2|0:0,0:0:0:0:
317,257,188810,2,0,P|277:257|224:285,1,89.2499972763062,2|0,0:0|0:0,0:0:0:0:
169,364,189242,2,0,P|139:322|142:238,1,118.999996368408,2|0,0:0|0:0,0:0:0:0:
135,256,190105,6,0,L|143:162,1,89.2499972763062,6|0,2:0|0:0,0:0:0:0:
197,63,190537,5,2,0:0:0:0:
142,167,190753,1,2,0:0:0:0:
300,124,190969,5,2,0:0:0:0:
197,63,191184,1,2,0:0:0:0:
241,223,191400,5,2,0:0:0:0:
300,124,191616,1,2,0:0:0:0:
148,172,191832,5,2,3:2:0:0:
94,328,192048,2,0,B|147:304|140:301|191:276|191:276|240:286,1,148.74999546051,2|0,0:0|0:0,0:0:0:0:
382,341,192695,1,2,0:0:0:0:
261,176,192911,2,0,L|206:222,1,59.4999981842042,2|0,0:0|0:0,0:0:0:0:
345,114,193343,5,2,0:0:0:0:
149,122,193559,1,6,2:0:0:0:
245,14,193774,1,2,0:0:0:0:
387,152,193990,5,2,0:0:0:0:
241,104,194206,1,2,0:0:0:0:
264,260,194422,1,2,0:0:0:0:
304,172,194638,1,2,0:0:0:0:
295,360,194854,5,2,0:0:0:0:
157,283,195069,1,2,0:0:0:0:
304,172,195285,2,0,L|335:106,1,59.4999981842042,2|2,3:2|0:0,0:0:0:0:
407,61,195609,1,2,0:0:0:0:
368,27,195717,2,0,B|328:21|317:42|259:38,1,89.2499972763062,2|0,0:0|0:0,0:0:0:0:
100,68,196148,5,2,0:0:0:0:
280,38,196364,1,2,3:2:0:0:
154,266,196580,5,2,3:2:0:0:
100,68,196796,2,0,L|135:59,1,29.7499990921021,2|0,3:2|0:0,0:0:0:0:
359,80,197012,2,0,P|368:170|458:188,1,178.499994552612,14|0,1:2|0:0,0:0:0:0:
474,285,197443,5,8,1:2:0:0:
319,99,197659,1,12,0:3:0:0:
154,266,197875,5,4,0:3:0:0:
406,198,198091,1,12,0:3:0:0:
131,133,198307,5,8,1:2:0:0:
183,369,198523,1,2,0:0:0:0:
437,292,198738,5,12,1:2:0:0:
242,124,198954,2,0,P|163:203|159:298,1,178.499994552612,2|0,0:0|0:0,0:0:0:0:
345,260,199386,1,12,0:3:0:0:
49,271,199602,1,4,0:3:0:0:
217,69,199818,2,0,L|258:159,1,59.4999981842042,8|0,1:2|0:0,0:0:0:0:
348,320,200033,2,0,L|334:306|330:302|326:298|322:294|318:290|314:286|310:282|306:278|302:274|297:269|293:265|289:261|285:257|281:253|278:184,1,59.4999981842042,8|0,1:2|0:0,0:0:0:0:
478,111,200249,1,2,0:0:0:0:
348,320,200465,6,0,B|270:301|240:362|145:333,1,178.499994552612,14|0,1:2|0:0,0:0:0:0:
120,151,200897,5,8,1:2:0:0:
331,275,201113,1,12,0:3:0:0:
333,53,201328,5,4,0:3:0:0:
196,236,201544,1,12,0:3:0:0:
89,56,201760,5,8,1:2:0:0:
348,155,201976,1,2,0:0:0:0:
105,329,202192,6,0,P|45:278|50:148,1,178.499994552612,12|0,1:2|0:0,0:0:0:0:
189,62,202623,1,8,1:2:0:0:
309,249,202839,1,12,0:3:0:0:
383,42,203055,2,0,L|288:76,1,59.4999981842042,4|0,0:3|0:0,0:0:0:0:
201,151,203271,2,0,L|277:125,1,59.4999981842042,0|0,1:0|0:0,0:0:0:0:
446,178,203487,2,0,L|420:232,1,59.4999981842042,8|0,1:2|0:0,0:0:0:0:
222,206,203702,2,0,L|199:146,1,59.4999981842042,12|0,0:3|0:0,0:0:0:0:
124,306,203918,6,0,P|214:296|289:365,1,178.499994552612,14|0,1:2|0:0,0:0:0:0:
91,290,204350,5,8,1:2:0:0:
261,148,204566,1,12,0:3:0:0:
485,86,204782,5,4,0:3:0:0:
181,97,204997,1,12,0:3:0:0:
354,273,205213,5,8,1:2:0:0:
256,39,205429,1,2,0:0:0:0:
31,198,205645,5,12,1:2:0:0:
278,182,205861,2,0,P|311:107|219:35,1,178.499994552612,2|0,0:0|0:0,0:0:0:0:
211,244,206292,1,12,0:3:0:0:
438,137,206508,1,4,0:3:0:0:
209,1,206724,2,0,L|277:55,1,59.4999981842042,8|0,1:2|0:0,0:0:0:0:
497,139,206940,2,0,L|425:136,1,59.4999981842042,8|0,1:2|0:0,0:0:0:0:
250,266,207156,1,2,0:0:0:0:
362,51,207372,6,0,P|333:108|313:147,1,59.4999981842042,14|0,1:2|0:0,0:0:0:0:
250,266,207587,1,0,0:0:0:0:
211,78,207803,1,8,1:2:0:0:
426,186,208019,1,12,0:3:0:0:
227,309,208235,5,4,0:3:0:0:
147,119,208451,1,12,0:3:0:0:
0,312,208666,2,0,L|76:276,1,59.4999981842042,8|0,1:2|0:0,0:0:0:0:
143,59,208882,2,0,L|147:136,1,59.4999981842042,8|0,1:2|0:0,0:0:0:0:
227,309,209098,2,0,B|319:281|336:336|426:274,1,178.499994552612,12|0,1:2|0:0,0:0:0:0:
499,73,209530,5,8,1:2:0:0:
408,327,209746,1,12,0:3:0:0:
270,114,209961,5,4,1:3:0:0:
512,200,210177,1,8,1:2:0:0:
174,76,210393,5,8,1:2:0:0:
179,129,210501,1,0,1:0:0:0:
162,172,210609,1,8,1:2:0:0:
124,201,210717,1,2,0:0:0:0:
42,197,210825,6,0,P|113:229|141:326,1,178.499994552612,14|0,1:2|0:0,0:0:0:0:
68,139,211256,5,8,1:2:0:0:
161,322,211472,1,12,0:3:0:0:
209,80,211688,5,4,0:3:0:0:
175,285,211904,1,12,0:3:0:0:
410,180,212120,5,8,1:2:0:0:
199,327,212336,1,2,0:0:0:0:
199,327,212443,1,0,0:0:0:0:
215,353,212551,5,12,1:2:0:0:
291,111,212767,1,2,0:0:0:0:
476,318,212983,5,8,1:2:0:0:
250,240,213199,1,12,0:3:0:0:
431,74,213415,5,4,0:3:0:0:
250,240,213631,2,0,L|315:182,1,59.4999981842042,8|0,1:2|0:0,0:0:0:0:
441,15,213846,2,0,L|429:83,1,59.4999981842042,12|0,1:2|0:0,0:0:0:0:
474,288,214062,1,2,0:0:0:0:
291,111,214278,6,0,B|219:97|199:165|99:124,1,178.499994552612,14|0,1:2|0:0,0:0:0:0:
105,314,214710,5,8,1:2:0:0:
51,71,214925,1,12,0:3:0:0:
271,173,215141,5,4,0:3:0:0:
17,204,215357,1,12,0:3:0:0:
230,330,215573,5,8,1:2:0:0:
295,81,215789,2,0,L|247:18,1,59.4999981842042,2|0,0:0|0:0,0:0:0:0:
381,69,216005,6,0,P|365:137|267:172,1,178.499994552612,12|0,1:2|0:0,0:0:0:0:
125,253,216436,2,0,P|185:188|285:175,1,178.499994552612,8|0,1:2|0:0,0:0:0:0:
356,306,216868,5,4,0:3:0:0:
253,79,217084,1,0,1:0:0:0:
66,264,217300,6,0,L|164:245,1,59.4999981842042,8|0,1:2|0:0,0:0:0:0:
262,20,217515,2,0,L|247:114,1,59.4999981842042,12|0,0:3|0:0,0:0:0:0:
356,306,217731,6,0,B|410:262|386:202|466:143,1,178.499994552612,14|0,1:2|0:0,0:0:0:0:
208,158,218163,5,8,1:2:0:0:
464,119,218379,1,12,0:3:0:0:
266,273,218595,5,4,0:3:0:0:
262,20,218810,1,12,0:3:0:0:
100,194,219026,5,8,1:2:0:0:
371,251,219242,1,2,0:0:0:0:
89,371,219458,5,12,1:2:0:0:
195,159,219674,2,0,P|136:55|65:32,1,178.499994552612,2|0,0:0|0:0,0:0:0:0:
301,59,220105,5,12,0:3:0:0:
18,92,220321,1,4,0:3:0:0:
188,218,220537,6,0,L|199:135,1,59.4999981842042,8|0,1:2|0:0,0:0:0:0:
341,15,220753,2,0,L|286:73,1,59.4999981842042,8|0,1:2|0:0,0:0:0:0:
502,150,220969,1,2,0:0:0:0:
308,334,221184,6,0,P|221:286|185:205,1,178.499994552612,14|0,1:2|0:0,0:0:0:0:
322,54,221616,5,8,1:2:0:0:
83,189,221832,1,12,0:3:0:0:
222,250,222048,5,4,0:3:0:0:
133,20,222264,1,12,0:3:0:0:
394,142,222479,6,0,L|293:153,1,59.4999981842042,8|0,1:2|0:0,0:0:0:0:
173,284,222695,2,0,L|233:241,1,59.4999981842042,8|0,1:2|0:0,0:0:0:0:
24,183,222911,6,0,L|122:192,1,59.4999981842042,12|0,1:2|0:0,0:0:0:0:
280,251,223127,2,0,L|213:249,1,59.4999981842042,0|0,1:0|0:0,0:0:0:0:
304,97,223343,6,0,L|345:167,1,59.4999981842042,8|0,1:2|0:0,0:0:0:0:
358,312,223559,2,0,L|370:250,1,59.4999981842042,12|0,0:3|0:0,0:0:0:0:
501,96,223774,6,0,L|444:180,1,59.4999981842042,8|0,1:2|0:0,0:0:0:0:
300,326,223990,2,0,L|372:308,1,59.4999981842042,8|0,1:2|0:0,0:0:0:0:
203,75,224206,6,0,L|228:161,1,59.4999981842042,8|0,1:2|0:0,0:0:0:0:
161,356,224422,2,0,L|193:284,1,59.4999981842042,8|0,1:2|0:0,0:0:0:0:
411,206,224638,6,0,B|336:180|324:252|222:217,1,178.499994552612,14|0,1:2|0:0,0:0:0:0:
53,81,225069,5,8,1:2:0:0:
281,258,225285,1,12,0:3:0:0:
144,51,225501,5,4,0:3:0:0:
172,266,225717,1,12,0:3:0:0:
277,30,225933,6,0,L|227:104,1,59.4999981842042,8|0,1:2|0:0,0:0:0:0:
172,266,226148,2,0,L|179:177,1,59.4999981842042,2|0,0:0|0:0,0:0:0:0:
362,90,226364,5,12,1:2:0:0:
332,337,226580,2,0,B|289:287|235:315|159:257,1,178.499994552612,2|0,0:0|0:0,0:0:0:0:
369,313,227012,5,12,0:3:0:0:
114,352,227228,1,4,0:3:0:0:
219,90,227443,6,0,L|224:176,1,59.4999981842042,8|0,1:2|0:0,0:0:0:0:
369,313,227659,2,0,L|293:294,1,59.4999981842042,12|0,1:2|0:0,0:0:0:0:
114,352,227875,1,2,0:0:0:0:
123,101,228091,6,0,P|158:22|263:9,1,178.499994552612,14|0,1:2|0:0,0:0:0:0:
295,209,228523,5,8,1:2:0:0:
78,68,228738,1,12,0:3:0:0:
114,298,228954,5,4,0:3:0:0:
331,129,229170,1,12,0:3:0:0:
470,304,229386,6,0,L|366:288,1,59.4999981842042,8|0,1:2|0:0,0:0:0:0:
304,75,229602,2,0,L|335:138,1,59.4999981842042,2|0,0:0|0:0,0:0:0:0:
202,328,229818,6,0,L|236:117,1,178.499994552612,12|0,1:2|0:0,0:0:0:0:
125,85,230249,5,8,1:2:0:0:
336,225,230465,1,12,0:3:0:0:
58,252,230681,6,0,L|127:227,1,59.4999981842042,4|0,0:3|0:0,0:0:0:0:
329,125,230897,1,0,1:0:0:0:
77,48,231113,6,0,L|144:100,1,59.4999981842042,8|0,1:2|0:0,0:0:0:0:
385,107,231328,2,0,L|303:133,1,59.4999981842042,12|0,0:3|0:0,0:0:0:0:
174,297,231544,6,0,B|217:217|160:214|209:112,1,178.499994552612,14|0,1:2|0:0,0:0:0:0:
265,294,231976,5,8,1:2:0:0:
124,84,232192,1,12,0:3:0:0:
385,107,232407,5,4,0:3:0:0:
162,244,232623,1,12,0:3:0:0:
242,0,232839,6,0,L|254:82,1,59.4999981842042,8|0,1:2|0:0,0:0:0:0:
415,220,233055,2,0,L|317:205,1,59.4999981842042,2|0,0:0|0:0,0:0:0:0:
124,84,233271,5,12,1:2:0:0:
94,334,233487,2,0,B|166:292|202:340|275:288,1,178.499994552612,2|0,0:0|0:0,0:0:0:0:
436,164,233918,5,12,0:3:0:0:
306,375,234134,1,4,0:3:0:0:
155,141,234350,6,0,L|253:169,1,59.4999981842042,8|0,1:2|0:0,0:0:0:0:
490,139,234566,2,0,L|427:168,1,59.4999981842042,8|0,1:2|0:0,0:0:0:0:
306,375,234782,5,2,0:0:0:0:
155,141,234997,2,0,P|78:158|4:258,1,178.499994552612,14|0,1:2|0:0,0:0:0:0:
170,73,235429,5,8,1:2:0:0:
77,308,235645,1,12,0:3:0:0:
226,260,235861,5,4,0:3:0:0:
82,53,236077,1,12,0:3:0:0:
372,45,236292,6,0,L|308:109,1,59.4999981842042,8|0,1:2|0:0,0:0:0:0:
239,318,236508,2,0,L|221:239,1,59.4999981842042,8|0,1:2|0:0,0:0:0:0:
492,194,236724,2,0,B|400:151|386:219|309:186,1,178.499994552612,12|0,1:2|0:0,0:0:0:0:
199,29,237156,6,0,L|242:110,1,59.4999981842042,8|0,1:2|0:0,0:0:0:0:
297,246,237372,2,0,L|325:174,1,59.4999981842042,12|0,0:3|0:0,0:0:0:0:
467,44,237587,5,8,1:2:0:0:
297,246,237803,1,8,1:2:0:0:
155,61,238019,1,8,1:2:0:0:
116,67,238127,1,0,1:0:0:0:
71,75,238235,1,8,1:2:0:0:
34,84,238343,1,0,3:0:0:0:
49,126,238488,5,12,0:0:0:0:
49,126,238919,5,2,0:0:0:0:
56,137,239135,1,2,0:0:0:0:
64,151,239351,1,2,0:0:0:0:
97,189,239782,1,2,0:0:0:0:
96,211,239998,1,2,0:0:0:0:
175,320,240646,1,2,0:0:0:0:
204,319,241077,1,2,0:0:0:0:
220,317,241293,1,2,0:0:0:0:
244,315,241509,1,2,0:0:0:0:
426,355,241992,5,2,0:0:0:0:
481,257,242423,5,2,0:0:0:0:
472,228,242639,1,2,0:0:0:0:
407,177,242855,1,2,0:0:0:0:
397,144,243071,1,2,0:0:0:0:
388,111,243286,1,2,0:0:0:0:
295,108,243502,1,2,0:0:0:0:
258,119,243776,1,2,0:0:0:0:
176,165,244223,1,2,0:0:0:0:
139,169,244671,1,2,0:0:0:0:
103,175,244895,1,2,0:0:0:0:
64,179,245119,1,2,0:0:0:0:
70,322,245664,5,2,0:0:0:0:
70,322,246111,5,2,0:0:0:0:
79,271,246335,1,2,0:0:0:0:
90,222,246559,1,2,0:0:0:0:
105,166,247007,1,2,0:0:0:0:
68,53,247231,1,2,0:0:0:0:
108,54,247678,1,2,0:0:0:0:
156,54,247902,1,2,0:0:0:0:
202,54,248126,1,2,0:0:0:0:
289,111,248350,1,2,0:0:0:0:
329,111,248798,1,2,0:0:0:0:
437,89,249246,5,2,0:0:0:0:
329,232,249700,5,2,0:0:0:0:
283,239,249927,1,2,0:0:0:0:
232,245,250155,1,2,0:0:0:0:
185,250,250382,1,2,0:0:0:0:
10,212,250654,1,2,0:0:0:0:
60,128,250927,2,0,B|17:207|71:277|150:267|225:263|237:162|197:87|156:80|128:112,1,395.249987937928,2|2,0:0|0:0,0:0:0:0:
