osu file format v14

[General]
AudioFilename: audio.mp3
AudioLeadIn: 0
PreviewTime: 12187
Countdown: 0
SampleSet: Soft
StackLeniency: 0.7
Mode: 0
LetterboxInBreaks: 0
WidescreenStoryboard: 1

[Editor]
Bookmarks: 184097
DistanceSpacing: 0.5
BeatDivisor: 4
GridSize: 32
TimelineZoom: 1.9

[Metadata]
Title:S.A.R.I.E.L.
TitleUnicode:S.A.R.I.E.L.
Artist:Akatsuki Records
ArtistUnicode:暁Records
Creator:Mirash
Version:Normal
Source:東方靈異伝 ~ Highly Responsive to Prayers
Tags:app rock japanese C100 Request Song Jukebox Vol.01 Stack Bros. 東方 project touhou ZUN - いざ、倒れ逝くその時まで sariel
BeatmapID:4390192
BeatmapSetID:2091456

[Difficulty]
HPDrainRate:4
CircleSize:3
OverallDifficulty:4
ApproachRate:5.5
SliderMultiplier:1.2
SliderTickRate:1

[Events]
//Background and Video events
0,0,"sariel.jpg",0,0
//Break Periods
//Storyboard Layer 0 (Background)
//Storyboard Layer 1 (Fail)
//Storyboard Layer 2 (Pass)
//Storyboard Layer 3 (Foreground)
//Storyboard Layer 4 (Overlay)
//Storyboard Sound Samples

[TimingPoints]
53,337.078651685393,4,2,1,50,1,0
1064,-133.333333333333,4,2,1,50,0,0
14884,-100,4,2,1,50,0,0

[Colours]
Combo1 : 92,206,49
Combo2 : 71,132,70
Combo3 : 111,135,162
Combo4 : 79,130,187

[HitObjects]
77,137,1064,6,0,B|107:104|107:104|158:116,1,90.0000034332277,2|4,0:0|1:0,0:0:0:0:
230,223,1906,2,0,P|293:203|321:133,1,135.000005149841,2|0,0:0|0:0,0:0:0:0:
251,86,2749,2,0,P|248:39|244:-1,2,67.5000025749207,2|0|2,0:0|0:0|0:0,0:0:0:0:
165,190,3760,6,0,B|126:211|126:211|143:269,1,90.0000034332277,2|4,0:0|1:0,0:0:0:0:
238,346,4603,1,2,0:0:0:0:
448,266,5446,2,0,P|443:200|441:182,2,67.5000025749207,2|0|2,0:0|0:0|0:0,0:0:0:0:
322,317,6457,6,0,B|284:288|284:288|300:236,1,90.0000034332277,2|4,0:0|1:0,0:0:0:0:
179,180,7300,2,0,P|190:246|200:313,1,135.000005149841,4|0,0:0|0:0,0:0:0:0:
129,367,8142,2,0,P|86:362|46:364,2,67.5000025749207,2|0|2,0:0|0:0|0:0,0:0:0:0:
223,370,8985,1,0,0:0:0:0:
223,370,9154,1,2,0:0:0:0:
268,292,9491,6,0,P|266:240|265:210,2,67.5000025749207,4|0|2,1:0|0:0|1:2,0:0:0:0:
384,360,10502,1,0,1:0:0:0:
431,283,10839,2,0,P|421:235|415:186,1,90.0000034332277,2|2,1:0|1:0,0:0:0:0:
484,135,11513,1,2,1:0:0:0:
430,62,11850,6,0,B|396:37|396:37|335:61,1,90.0000034332277,8|12,1:0|1:0,0:0:0:0:
95,308,13536,2,0,B|141:323|141:323|257:251,1,180.000006866455,2|2,1:0|1:0,0:0:0:0:
474,345,15052,5,4,1:0:0:0:
453,288,15220,1,12,1:0:0:0:
345,233,15558,1,4,1:0:0:0:
359,174,15727,1,12,1:0:0:0:
470,130,16064,1,4,1:0:0:0:
453,72,16232,1,12,1:0:0:0:
213,50,16906,2,0,B|190:73|190:73|228:230,1,180,2|0,3:0|0:0,0:0:0:0:
213,275,17581,6,0,P|255:300|321:253,1,120,12|0,1:0|1:0,0:0:0:0:
328,212,18086,2,0,P|358:191|436:221,1,120,12|0,1:0|0:0,0:0:0:0:
491,216,18592,2,0,P|468:272|446:335,1,120,12|2,1:0|3:0,0:0:0:0:
334,364,19266,1,2,3:0:0:0:
249,278,19603,2,0,L|208:291,2,40,2|0|0,3:0|0:0|0:0,0:0:0:0:
255,238,19940,2,0,L|293:225,2,40,2|2|2,3:0|3:0|3:0,0:0:0:0:
180,170,20446,5,4,1:0:0:0:
200,113,20615,1,12,1:0:0:0:
276,20,20952,1,4,1:0:0:0:
310,69,21120,1,12,1:0:0:0:
369,173,21458,1,4,1:0:0:0:
420,142,21626,1,12,1:0:0:0:
256,192,21794,12,4,22974,1:0:0:0:
206,198,23648,5,2,3:0:0:0:
206,198,23817,2,0,P|207:149|206:121,1,60,2|10,0:0|1:0,0:0:0:0:
235,85,24154,2,0,P|269:97|316:186,1,120,2|0,0:1|0:0,0:0:0:0:
357,205,24659,1,10,1:0:0:0:
341,327,24996,1,0,3:0:0:0:
341,327,25165,2,0,P|389:328|416:329,1,60,2|10,0:0|1:0,0:0:0:0:
457,349,25502,6,0,P|460:298|457:203,1,120,2|0,0:1|0:0,0:0:0:0:
477,171,26008,1,10,1:0:0:0:
486,51,26345,1,2,3:0:0:0:
378,102,26682,2,0,P|333:113|314:116,1,60,10|6,1:0|0:0,0:0:0:0:
220,58,27187,1,0,0:0:0:0:
220,58,27356,2,0,P|163:67|94:84,1,120,10|2,1:0|3:0,0:0:0:0:
54,193,28030,1,10,1:0:0:0:
54,193,28199,1,0,1:0:0:0:
170,153,28535,5,2,0:0:0:0:
170,153,28704,2,0,P|156:197|131:351,1,180,10|2,1:0|0:0,0:0:0:0:
180,364,29378,2,0,P|224:364|255:362,1,60,10|2,1:0|0:0,0:0:0:0:
293,335,29715,2,0,P|324:338|362:350,2,60,0|0|8,3:0|0:0|3:0,0:0:0:0:
257,231,30390,1,0,3:0:0:0:
257,231,30559,1,0,3:0:0:0:
257,231,30727,1,10,3:0:0:0:
256,192,31064,12,8,32412,1:0:0:0:
260,110,33086,6,0,B|236:160|236:160|307:256|307:256|265:328,1,240,8|4,1:0|3:1,0:0:0:0:
158,345,34097,1,2,1:3:0:0:
96,241,34435,1,0,3:0:0:0:
208,199,34772,1,2,1:3:0:0:
268,302,35109,2,0,P|308:316|408:333,2,120,0|0|0,3:0|3:0|3:0,0:0:0:0:
148,308,36120,1,0,3:0:0:0:
109,194,36457,5,0,3:0:0:0:
213,135,36794,1,2,1:3:0:0:
155,29,37131,1,0,3:0:0:0:
51,89,37468,1,2,1:3:0:0:
111,192,37805,2,0,P|122:248|128:321,2,120,0|0|0,3:0|3:0|3:0,0:0:0:0:
226,157,38817,1,0,3:0:0:0:
300,251,39154,6,0,P|347:251|372:248,1,60,0|2,3:0|0:0,0:0:0:0:
410,282,39491,1,2,1:3:0:0:
483,186,39828,1,0,3:0:0:0:
483,186,39996,1,2,0:0:0:0:
483,186,40165,1,2,1:3:0:0:
405,94,40502,2,0,P|372:102|274:132,2,120,0|0|0,3:0|3:0|3:0,0:0:0:0:
504,26,41513,1,0,3:0:0:0:
384,13,41850,6,0,P|342:2|303:-5,1,60,0|2,3:0|0:0,0:0:0:0:
268,18,42187,2,0,P|210:38|141:57,1,120,2|2,1:3|3:2,0:0:0:0:
93,62,42693,1,2,3:2:0:0:
62,113,42861,1,2,1:3:0:0:
76,232,43199,2,0,B|122:258|122:258|196:209,1,120,4|4,3:0|3:0,0:0:0:0:
269,142,43873,2,0,B|324:104|324:104|370:130,1,120,4|4,3:0|3:0,0:0:0:0:
478,183,44547,6,0,L|463:256,1,60,4|2,1:0|0:1,0:0:0:0:
406,247,44884,2,0,L|391:320,1,60,10|0,1:0|0:0,0:0:0:0:
343,338,45221,1,2,3:1:0:0:
343,338,45390,1,0,0:0:0:0:
343,338,45558,1,10,1:0:0:0:
246,266,45895,2,0,L|237:200,2,60,2|2|10,3:0|0:0|1:0,0:0:0:0:
140,323,46569,2,0,L|131:382,2,60,2|2|10,3:0|0:0|1:0,0:0:0:0:
32,268,47244,6,0,L|41:202,1,60,4|2,3:2|0:1,0:0:0:0:
97,189,47581,2,0,P|88:135|90:55,1,120,10|2,1:0|3:1,0:0:0:0:
107,47,48086,1,0,0:0:0:0:
133,61,48255,1,10,1:0:0:0:
252,65,48592,2,0,P|316:78|379:82,1,120,2|10,3:0|1:0,0:0:0:0:
399,74,49097,1,2,0:0:0:0:
418,97,49266,1,2,3:0:0:0:
389,214,49603,2,0,P|404:272|408:288,1,60,10|2,1:0|0:0,0:0:0:0:
375,325,49940,5,4,3:2:0:0:
259,356,50277,2,0,P|267:300|269:286,1,60,10|0,1:0|0:0,0:0:0:0:
219,259,50614,2,0,P|165:262|153:262,2,60,2|0|10,3:1|0:0|1:0,0:0:0:0:
264,146,51288,2,0,P|268:82|269:22,2,120,2|10|2,3:0|1:0|3:0,0:0:0:0:
236,157,52131,1,2,0:0:0:0:
208,144,52300,2,0,P|168:163|148:170,1,60,10|2,1:0|0:0,0:0:0:0:
123,165,52637,5,0,3:0:0:0:
106,283,52974,2,0,P|183:283|237:286,1,120,10|2,1:0|3:1,0:0:0:0:
254,274,53479,1,0,3:0:0:0:
278,291,53648,1,10,3:0:0:0:
398,294,53985,2,0,B|440:259|440:259|386:135,1,180,6|4,3:0|3:0,0:0:0:0:
383,84,54659,2,0,B|332:58|332:58|239:159,1,180,4|4,3:0|3:0,0:0:0:0:
189,157,55333,5,4,1:0:0:0:
109,246,55670,2,0,L|126:313,2,60,8|2|6,1:0|3:0|3:0,0:0:0:0:
61,208,56176,2,0,L|46:149,2,60,2|8|2,3:0|1:0|3:0,0:0:0:0:
23,254,56682,2,0,L|40:321,2,60,4|2|8,3:0|3:0|1:0,0:0:0:0:
141,236,57356,1,6,3:0:0:0:
237,307,57693,1,8,1:0:0:0:
269,191,58030,5,4,1:0:0:0:
368,252,58367,2,0,L|353:310,2,60,8|2|6,1:0|3:0|3:0,0:0:0:0:
416,214,58873,2,0,L|430:155,2,60,2|8|2,3:0|1:0|3:0,0:0:0:0:
454,260,59379,2,0,L|439:318,2,60,6|2|8,3:0|3:0|1:0,0:0:0:0:
483,260,59884,1,2,3:0:0:0:
493,231,60052,1,6,3:0:0:0:
445,120,60390,1,8,1:0:0:0:
341,186,60727,5,4,1:0:0:0:
248,109,61064,1,8,1:0:0:0:
237,228,61401,1,6,3:0:0:0:
129,175,61738,1,8,1:0:0:0:
147,293,62075,1,6,3:0:0:0:
27,287,62412,1,8,1:0:0:0:
11,167,62749,2,0,P|21:118|30:37,1,120,6|8,3:0|1:0,0:0:0:0:
105,141,63423,6,0,B|165:109|165:109|322:252|322:252|399:220,1,360,8|8,1:0|1:0,0:0:0:0:
495,287,64772,2,0,P|520:219|497:116,1,180,4|0,3:1|0:0,0:0:0:0:
461,68,65446,2,0,P|415:76|256:97,1,180
255,40,66120,6,0,P|184:41|144:63,2,90,4|0|4,1:0|1:0|1:2,0:0:0:0:
203,151,66963,1,0,1:0:0:0:
203,151,67131,2,0,P|204:208|201:232,1,60,8|0,1:0|3:0,0:0:0:0:
242,256,67468,2,0,P|285:243|329:248,2,90,6|0|0,3:0|0:0|3:0,0:0:0:0:
151,335,68311,1,8,1:0:0:0:
151,335,68479,6,0,B|111:367|111:367|57:324,1,120,8|4,1:0|1:0,0:0:0:0:
95,242,69069,1,0,1:0:0:0:
20,192,69322,2,0,P|30:130|39:56,1,120,4|0,0:2|1:0,0:0:0:0:
154,99,69996,1,2,3:0:0:0:
154,99,70165,2,0,P|215:87|228:83,1,60,6|0,3:0|1:0,0:0:0:0:
256,45,70502,1,8,1:0:0:0:
256,45,70670,2,0,P|324:57|352:122,1,120,0|0,3:0|1:0,0:0:0:0:
341,156,71176,6,0,B|386:194|386:194|453:148,1,120,8|6,1:0|3:0,0:0:0:0:
498,224,71766,1,0,1:0:0:0:
443,295,72019,2,0,P|398:295|243:292,1,180,4|8,1:2|1:0,0:0:0:0:
145,317,72861,2,0,P|144:275|145:214,2,90,6|0|0,3:0|0:0|1:0,0:0:0:0:
32,359,73704,1,8,1:0:0:0:
32,359,73873,2,0,P|33:317|33:229,1,120,8|12,1:0|1:0,0:0:0:0:
53,182,74378,5,6,3:0:0:0:
42,122,74547,1,8,1:0:0:0:
129,40,74884,1,8,1:0:0:0:
183,65,75052,1,6,3:0:0:0:
239,45,75221,1,8,1:0:0:0:
292,152,75558,2,0,B|365:136|365:136|409:226|409:226|330:242|330:242|378:334|378:334|458:318,1,420,6|2,3:0|3:0,0:0:0:0:
491,294,76906,6,0,P|513:253|504:190,2,90,4|0|4,1:0|0:0|1:2,0:0:0:0:
391,360,77749,1,0,1:0:0:0:
391,360,77918,2,0,P|337:356|256:343,1,120,8|6,1:0|3:0,0:0:0:0:
196,296,78508,1,0,0:0:0:0:
132,359,78760,2,0,P|86:328|76:261,1,120,0|8,3:0|1:0,0:0:0:0:
106,216,79266,1,8,1:0:0:0:
90,157,79435,1,8,1:0:0:0:
117,103,79603,6,0,P|172:111|225:113,2,90,4|0|4,1:0|1:0|0:2,0:0:0:0:
29,20,80446,1,0,0:0:0:0:
29,20,80614,2,0,P|95:13|166:14,1,120,8|6,1:0|3:0,0:0:0:0:
226,57,81204,1,0,0:0:0:0:
305,14,81457,2,0,P|339:41|373:127,1,120,0|0,3:0|1:0,0:0:0:0:
335,157,81963,1,8,1:0:0:0:
376,200,82131,1,6,3:0:0:0:
364,258,82300,6,0,P|367:302|380:360,2,90,6|0|4,3:0|1:0|1:2,0:0:0:0:
247,230,83142,1,0,0:0:0:0:
247,230,83311,2,0,P|193:240|119:253,1,120,8|6,1:0|3:0,0:0:0:0:
46,214,83901,1,0,0:0:0:0:
81,131,84154,1,0,1:0:0:0:
81,131,84322,2,0,P|126:133|150:136,1,60,6|8,3:0|1:0,0:0:0:0:
192,104,84659,1,8,1:0:0:0:
304,146,84996,6,0,B|383:216|383:216|164:278|164:278|225:343,1,420,12|14,1:0|1:0,0:0:0:0:
279,365,86345,2,0,P|361:345|420:334,1,120,14|14,1:0|1:0,0:0:0:0:
469,233,87019,2,0,P|387:253|290:281,1,180,14|8,1:0|1:0,0:0:0:0:
240,246,87693,5,4,3:1:0:0:
129,200,88030,1,2,1:3:0:0:
181,92,88367,1,0,3:0:0:0:
291,139,88704,1,2,1:3:0:0:
240,247,89041,2,0,P|237:292|219:369,2,120,0|0|4,3:0|3:0|3:0,0:0:0:0:
345,303,90052,1,4,3:0:0:0:
433,221,90390,5,0,3:0:0:0:
474,108,90727,1,2,1:3:0:0:
356,86,91064,1,0,3:0:0:0:
321,200,91401,1,2,1:3:0:0:
229,122,91738,2,0,P|182:130|100:142,2,120,0|4|4,3:0|3:0|3:0,0:0:0:0:
300,25,92749,1,4,3:0:0:0:
180,26,93086,5,0,3:0:0:0:
90,105,93423,1,2,1:3:0:0:
170,193,93760,1,0,3:0:0:0:
259,113,94097,1,2,1:3:0:0:
359,179,94435,2,0,P|367:246|374:317,2,120,0|4|4,3:0|3:0|3:0,0:0:0:0:
434,85,95446,1,4,3:0:0:0:
496,187,95783,6,0,P|488:237|470:316,1,120,0|2,3:0|1:3,0:0:0:0:
382,380,96457,1,2,3:2:0:0:
382,380,96626,1,2,3:2:0:0:
382,380,96794,1,2,1:3:0:0:
287,306,97131,2,0,B|249:297|249:297|197:367,1,120,4|4,3:0|3:0,0:0:0:0:
95,303,97805,2,0,B|140:243|140:243|113:198,1,120,4|4,3:0|3:0,0:0:0:0:
64,96,98479,6,0,P|58:53|55:31,1,60,4|2,1:0|0:1,0:0:0:0:
105,1,98817,2,0,P|139:19|166:33,1,60,10|0,1:0|0:0,0:0:0:0:
176,86,99154,2,0,P|126:117|107:129,2,60,2|0|10,3:1|0:0|1:0,0:0:0:0:
271,158,99828,2,0,P|344:144|401:137,2,120,2|10|2,3:0|1:0|3:0,0:0:0:0:
242,167,100670,1,2,0:0:0:0:
248,196,100839,1,10,1:0:0:0:
275,312,101176,6,0,P|179:323|150:329,1,120,4|10,3:2|1:0,0:0:0:0:
41,293,101850,2,0,P|47:220|48:165,1,120,2|10,3:1|1:0,0:0:0:0:
157,117,102524,1,2,3:0:0:0:
157,117,102693,1,2,0:0:0:0:
157,117,102861,1,10,1:0:0:0:
242,198,103199,2,0,P|299:205|321:209,1,60,2|2,3:0|0:0,0:0:0:0:
354,177,103536,1,10,1:0:0:0:
409,199,103704,2,0,P|466:206|488:210,1,60,2|4,0:0|3:2,0:0:0:0:
463,86,104210,6,0,P|447:50|360:29,1,120,10|2,1:0|3:1,0:0:0:0:
322,53,104715,1,0,0:0:0:0:
322,53,104884,2,0,P|282:57|258:59,1,60,10|0,1:0|0:0,0:0:0:0:
208,32,105221,2,0,P|158:42|96:106,1,120,2|10,3:0|1:0,0:0:0:0:
12,161,105895,2,0,P|58:185|112:240,1,120,2|10,3:0|1:0,0:0:0:0:
128,350,106569,5,0,3:0:0:0:
233,292,106906,2,0,P|297:297|369:305,1,120,10|2,1:0|3:1,0:0:0:0:
402,336,107412,1,0,3:0:0:0:
446,295,107581,2,0,P|436:248|430:221,1,60,10|0,3:0|3:0,0:0:0:0:
460,182,107918,2,0,B|487:116|487:116|376:75,1,180,6|4,3:0|3:0,0:0:0:0:
360,23,108592,2,0,B|293:38|293:38|302:167,1,180,4|4,3:0|3:0,0:0:0:0:
275,203,109266,5,4,1:0:0:0:
157,228,109603,2,0,L|84:218,2,60,8|2|6,1:0|3:0|3:0,0:0:0:0:
152,288,110109,2,0,L|211:296,2,60,2|8|2,3:0|1:0|3:0,0:0:0:0:
127,342,110614,2,0,L|54:332,2,60,4|2|8,3:0|3:0|1:0,0:0:0:0:
240,379,111288,1,6,3:0:0:0:
314,284,111626,1,8,1:0:0:0:
256,178,111963,5,4,1:0:0:0:
372,149,112300,2,0,L|445:159,2,60,8|2|6,1:0|3:0|3:0,0:0:0:0:
377,89,112806,2,0,L|317:80,2,60,2|8|2,3:0|1:0|3:0,0:0:0:0:
402,35,113311,2,0,L|475:45,2,60,6|2|8,3:0|3:0|1:0,0:0:0:0:
379,15,113817,1,2,3:0:0:0:
349,20,113985,1,6,3:0:0:0:
257,97,114322,1,8,1:0:0:0:
139,73,114659,6,0,P|127:130|105:206,1,120,4|8,1:0|1:0,0:0:0:0:
69,302,115333,1,6,3:0:0:0:
188,304,115670,1,8,1:0:0:0:
213,186,116008,2,0,P|282:201|340:215,1,120,6|8,3:0|1:0,0:0:0:0:
353,157,116513,2,0,P|416:172|483:184,1,120,2|2,3:0|3:0,0:0:0:0:
468,242,117019,1,8,1:0:0:0:
409,353,117356,6,0,B|361:313|361:313|70:372|70:372|9:327,1,420,8|8,1:0|1:0,0:0:0:0:
13,276,118704,2,0,P|16:207|21:82,1,180,4|0,3:0|0:0,0:0:0:0:
18,36,119378,2,0,P|51:23|131:127,1,180,0|0,0:0|0:0,0:0:0:0:
160,167,120052,6,0,P|152:218|147:258,2,90,4|0|4,1:0|1:0|1:2,0:0:0:0:
279,176,120895,1,0,1:0:0:0:
279,176,121064,2,0,P|284:126|289:92,1,60,8|0,1:0|3:0,0:0:0:0:
329,75,121401,2,0,P|376:86|435:96,2,90,6|0|0,3:0|0:0|3:0,0:0:0:0:
220,22,122244,1,8,1:0:0:0:
220,22,122412,6,0,B|172:24|172:24|155:98,1,120,8|4,1:0|1:0,0:0:0:0:
71,126,123002,1,0,1:0:0:0:
112,205,123255,2,0,P|134:277|145:335,1,120,4|0,0:2|1:0,0:0:0:0:
195,349,123760,1,8,1:0:0:0:
301,294,124097,2,0,P|371:303|418:313,2,90,6|0|0,3:0|1:0|3:0,0:0:0:0:
220,204,124940,1,0,1:0:0:0:
220,204,125109,6,0,B|260:171|260:171|247:99,1,120,8|6,1:0|3:0,0:0:0:0:
180,44,125699,1,0,1:0:0:0:
260,3,125951,2,0,P|314:10|385:16,1,120,4|8,1:2|1:0,0:0:0:0:
434,40,126457,1,8,1:0:0:0:
492,144,126794,2,0,P|484:186|469:272,1,120,6|8,3:0|1:0,0:0:0:0:
423,299,127300,1,0,1:0:0:0:
314,344,127637,1,8,1:0:0:0:
314,344,127805,2,0,P|307:285|294:216,1,120,8|12,1:0|1:0,0:0:0:0:
259,177,128311,5,6,3:0:0:0:
289,125,128479,1,8,1:0:0:0:
181,71,128817,1,8,1:0:0:0:
181,71,128985,1,6,3:0:0:0:
181,71,129154,1,8,1:0:0:0:
95,154,129491,2,0,B|61:191|61:191|166:278|166:278|118:335,2,240,6|6|4,3:0|3:0|1:0,0:0:0:0:
243,51,131345,5,4,1:2:0:0:
243,51,131513,2,0,P|271:108|291:187,1,120,0|8,0:0|1:0,0:0:0:0:
251,210,132019,1,0,3:0:0:0:
268,267,132187,2,0,P|260:314|255:358,2,90,6|0|0,3:0|0:0|3:0,0:0:0:0:
387,280,133030,1,8,1:0:0:0:
387,280,133199,2,0,P|396:227|401:205,1,60,8|8,1:0|1:0,0:0:0:0:
445,184,133536,5,4,1:0:0:0:
396,108,133788,1,0,1:0:0:0:
307,125,134041,2,0,P|259:122|180:107,1,120,4|0,0:2|0:0,0:0:0:0:
145,66,134547,1,8,1:0:0:0:
63,154,134884,2,0,P|62:220|64:282,1,120,6|8,3:0|1:0,0:0:0:0:
47,332,135390,2,0,P|98:349|157:301,1,120,0|0,3:0|1:0,0:0:0:0:
171,259,135895,6,0,B|204:243|204:243|277:300,1,120,8|6,1:0|3:0,0:0:0:0:
304,377,136485,1,0,0:0:0:0:
386,339,136738,1,4,1:2:0:0:
386,339,136906,2,0,P|391:290|396:208,1,120,0|8,0:0|1:0,0:0:0:0:
337,234,137412,1,6,3:0:0:0:
294,191,137581,1,6,3:0:0:0:
176,215,137918,2,0,P|162:182|149:155,1,60,8|0,1:0|1:0,0:0:0:0:
100,128,138255,1,6,3:0:0:0:
100,128,138423,1,8,1:0:0:0:
100,128,138592,2,0,P|120:82|125:67,1,60,8|4,1:0|1:2,0:0:0:0:
133,13,138929,6,0,B|178:-3|178:-3|372:176|372:176|437:151,1,360,12|8,1:0|1:0,0:0:0:0:
495,249,140277,1,14,1:0:0:0:
410,334,140614,1,14,1:0:0:0:
309,268,140951,2,0,B|246:241|246:241|108:357,1,240,14|4,1:0|1:0,0:0:0:0:
36,373,142974,6,0,P|85:368|291:328,1,240,2|2,0:0|0:0,0:0:0:0:
386,55,144491,5,4,1:0:0:0:
403,112,144659,1,12,1:0:0:0:
298,171,144996,1,4,1:0:0:0:
281,228,145165,1,12,1:0:0:0:
161,239,145502,1,4,1:0:0:0:
107,266,145670,1,12,1:0:0:0:
13,190,146008,2,0,P|18:137|23:64,2,120,2|2|2,0:0|3:0|3:0,0:0:0:0:
88,283,147019,6,0,P|159:287|216:293,1,120,12|0,1:0|0:0,0:0:0:0:
260,319,147524,2,0,P|319:313|379:310,1,120,12|0,1:0|0:0,0:0:0:0:
438,323,148030,2,0,P|462:288|437:219,1,120,12|0,1:0|0:0,0:0:0:0:
241,82,149041,2,0,P|253:34|255:13,2,40,2|0|0,3:0|0:0|0:0,0:0:0:0:
202,92,149378,2,0,P|197:111|191:130,2,40,2|2|8,3:0|3:0|1:0,0:0:0:0:
103,72,149884,5,4,1:0:0:0:
45,55,150052,1,12,1:0:0:0:
19,172,150390,1,4,1:0:0:0:
78,166,150558,1,12,1:0:0:0:
116,279,150895,1,4,1:0:0:0:
56,269,151064,1,12,1:0:0:0:
254,368,151738,2,0,P|253:301|245:171,1,180,0|0,0:0|0:0,0:0:0:0:
261,130,152412,5,4,1:0:0:0:
364,191,152749,2,0,P|431:187|486:187,2,120,8|6|10,3:0|3:0|3:0,0:0:0:0:
332,242,153592,1,0,3:0:0:0:
212,236,153929,1,2,3:0:0:0:
169,193,154097,2,0,P|102:189|47:189,2,120,8|6|10,3:0|3:0|3:0,0:0:0:0:
252,106,155109,5,4,3:1:0:0:
260,225,155446,2,0,P|267:309|266:362,2,120,8|4|10,3:0|3:0|3:0,0:0:0:0:
262,195,156288,1,0,3:0:0:0:
264,165,156457,1,4,3:0:0:0:
269,135,156626,1,2,3:0:0:0:
368,212,156963,1,0,3:0:0:0:
368,212,157131,2,0,P|435:207|488:206,1,120,6|10,3:0|3:0,0:0:0:0:
498,146,157637,1,0,3:0:0:0:
451,108,157805,5,6,3:1:0:0:
349,44,158142,2,0,P|280:46|222:47,2,120,6|4|4,3:0|3:0|3:0,0:0:0:0:
272,137,159154,2,0,P|203:139|145:140,2,120,4|4|4,3:0|3:0|3:0,0:0:0:0:
199,232,160165,1,4,3:0:0:0:
256,192,160502,12,4,161850,3:1:0:0:
253,121,162524,6,0,L|268:306,1,180,2|2,3:1|0:0,0:0:0:0:
223,341,163199,6,0,P|149:323|140:266,1,120,4|8,1:0|1:0,0:0:0:0:
77,295,163704,2,0,P|79:248|70:155,1,120,4|0,1:2|1:0,0:0:0:0:
26,138,164210,1,8,1:0:0:0:
55,85,164378,1,0,3:0:0:0:
114,90,164547,2,0,P|155:99|209:104,2,90,6|0|0,3:0|0:0|1:0,0:0:0:0:
14,154,165390,1,8,1:0:0:0:
14,154,165558,2,0,P|17:218|15:240,1,60,8|8,1:0|1:0,0:0:0:0:
20,273,165895,5,4,1:0:0:0:
94,323,166148,1,0,1:0:0:0:
158,260,166401,2,0,P|200:263|293:270,1,120,4|0,0:2|1:0,0:0:0:0:
319,311,166906,1,8,1:0:0:0:
365,272,167075,1,2,3:0:0:0:
419,298,167244,2,0,P|467:310|511:328,2,90,6|0|0,3:0|0:0|3:0,0:0:0:0:
393,180,168086,1,0,1:0:0:0:
393,180,168255,2,0,P|391:118|388:98,1,60,8|6,1:0|3:0,0:0:0:0:
418,66,168592,5,6,3:0:0:0:
340,20,168845,1,0,1:0:0:0:
286,92,169097,2,0,P|236:82|166:74,1,120,4|8,1:2|1:0,0:0:0:0:
115,43,169603,1,8,1:0:0:0:
37,134,169940,2,0,P|43:179|49:245,2,90,6|0|0,3:0|0:0|1:0,0:0:0:0:
145,198,170783,1,8,1:0:0:0:
145,198,170951,2,0,P|181:228|196:312,1,120,8|12,1:0|1:0,0:0:0:0:
234,345,171457,5,6,3:0:0:0:
293,337,171626,1,8,1:0:0:0:
322,220,171963,1,8,1:0:0:0:
322,220,172131,1,6,3:0:0:0:
322,220,172300,1,8,1:0:0:0:
202,210,172637,2,0,B|214:176|214:176|55:99|55:99|73:57,2,240,6|6|4,3:0|3:0|1:0,0:0:0:0:
142,277,174238,5,0,0:0:0:0:
213,332,174491,2,0,P|273:320|301:258,1,120,4|0,1:2|1:0,0:0:0:0:
359,263,174996,2,0,P|349:232|342:194,1,60,8|0,1:0|3:0,0:0:0:0:
374,153,175333,1,6,3:0:0:0:
334,72,175586,1,0,0:0:0:0:
415,34,175839,1,0,3:0:0:0:
494,124,176176,1,8,1:0:0:0:
494,124,176345,2,0,P|491:167|491:200,1,60,8|8,1:0|1:0,0:0:0:0:
447,225,176682,6,0,P|461:280|465:323,2,90,4|0|4,1:0|1:0|0:2,0:0:0:0:
353,150,177524,1,0,1:0:0:0:
353,150,177693,2,0,P|289:157|276:157,1,60,8|2,1:0|3:0,0:0:0:0:
235,142,178030,2,0,P|229:97|217:54,2,90,6|2|0,3:0|0:1|3:0,0:0:0:0:
125,191,178873,1,0,1:0:0:0:
125,191,179041,2,0,P|132:222|140:254,1,60,8|6,1:0|3:0,0:0:0:0:
107,300,179378,5,6,3:0:0:0:
22,267,179631,1,0,1:0:0:0:
27,177,179884,2,0,P|27:133|17:47,1,120,4|8,1:2|1:0,0:0:0:0:
68,23,180390,1,8,1:0:0:0:
152,108,180727,1,6,3:0:0:0:
152,108,180895,1,6,1:2:0:0:
152,108,181064,1,8,1:0:0:0:
250,39,181401,1,6,3:0:0:0:
250,39,181569,1,8,1:0:0:0:
250,39,181738,1,8,1:0:0:0:
347,109,182075,6,0,B|395:120|395:120|272:359|272:359|329:368,1,360,12|8,1:0|1:0,0:0:0:0:
255,260,183423,5,14,1:0:0:0:
261,140,183760,1,14,1:0:0:0:
267,20,184097,2,0,B|239:5|239:5|101:106|101:106|61:69,1,240,14|0,1:0|0:0,0:0:0:0:
