osu file format v14

[General]
AudioFilename: audio.mp3
AudioLeadIn: 0
PreviewTime: 12187
Countdown: 0
SampleSet: Soft
StackLeniency: 0.7
Mode: 0
LetterboxInBreaks: 0
WidescreenStoryboard: 1

[Editor]
Bookmarks: 184097
DistanceSpacing: 1
BeatDivisor: 4
GridSize: 32
TimelineZoom: 1.9

[Metadata]
Title:S.A.R.I.E.L.
TitleUnicode:S.A.R.I.E.L.
Artist:Akatsuki Records
ArtistUnicode:暁Records
Creator:Mirash
Version:Lunatic
Source:東方靈異伝 ~ Highly Responsive to Prayers
Tags:app rock japanese C100 Request Song Jukebox Vol.01 Stack Bros. 東方 project touhou ZUN - いざ、倒れ逝くその時まで sariel
BeatmapID:4385665
BeatmapSetID:2091456

[Difficulty]
HPDrainRate:6
CircleSize:4
OverallDifficulty:8
ApproachRate:9
SliderMultiplier:1.7
SliderTickRate:1

[Events]
//Background and Video events
0,0,"sariel.jpg",0,0
//Break Periods
//Storyboard Layer 0 (Background)
//Storyboard Layer 1 (Fail)
//Storyboard Layer 2 (Pass)
//Storyboard Layer 3 (Foreground)
//Storyboard Layer 4 (Overlay)
//Storyboard Sound Samples

[TimingPoints]
53,337.078651685393,4,2,1,50,1,0
1401,-133.333333333333,4,2,1,50,0,0
11850,-133.333333333333,4,2,1,50,0,0
12524,-133.333333333333,4,2,1,50,0,0
15052,-133.333333333333,4,2,1,50,0,0
16569,-133.333333333333,4,2,1,50,0,0
17581,-133.333333333333,4,2,1,50,0,0
18929,-133.333333333333,4,2,1,50,0,0
20446,-133.333333333333,4,2,1,50,0,0
21963,-133.333333333333,4,2,1,50,0,0
22974,-133.333333333333,4,2,1,50,0,0
23311,-100,4,2,1,50,0,0
32412,-100,4,2,1,50,0,0
33760,-100,4,2,1,50,0,0
35109,-100,4,2,1,50,0,0
36457,-100,4,2,1,50,0,0
37805,-100,4,2,1,50,0,0
39154,-100,4,2,1,50,0,0
40502,-100,4,2,1,50,0,0
41850,-100,4,2,1,50,0,0
44547,-100,4,2,1,50,0,0
55333,-100,4,2,1,50,0,0
60727,-100,4,2,1,50,0,0
63423,-100,4,2,1,50,0,0
65951,-100,4,2,1,50,0,0
66120,-83.3333333333333,4,2,1,50,0,0
75558,-83.3333333333333,4,2,1,50,0,0
76232,-83.3333333333333,4,2,1,50,0,0
76906,-83.3333333333333,4,2,1,50,0,0
86008,-83.3333333333333,4,2,1,50,0,0
86345,-83.3333333333333,4,2,1,50,0,0
87019,-83.3333333333333,4,2,1,50,0,0
87693,-100,4,2,1,50,0,0
89041,-100,4,2,1,50,0,0
90389,-100,4,2,1,50,0,0
91737,-100,4,2,1,50,0,0
93086,-100,4,2,1,50,0,0
94434,-100,4,2,1,50,0,0
95782,-100,4,2,1,50,0,0
98479,-100,4,2,1,50,0,0
109266,-100,4,2,1,50,0,0
114659,-100,4,2,1,50,0,0
117356,-100,4,2,1,50,0,0
119884,-100,4,2,1,50,0,0
120052,-83.3333333333333,4,2,1,50,0,0
129491,-83.3333333333333,4,2,1,50,0,0
130165,-83.3333333333333,4,2,1,50,0,0
130839,-83.3333333333333,4,2,1,50,0,0
139940,-83.3333333333333,4,2,1,50,0,0
140277,-83.3333333333333,4,2,1,50,0,0
140951,-83.3333333333333,4,2,1,50,0,0
141626,-83.3333333333333,4,2,1,50,0,0
142974,-200,4,2,1,50,0,0
144491,-83.3333333333333,4,2,1,50,0,0
145839,-83.3333333333333,4,2,1,50,0,0
146008,-200,4,2,1,50,0,0
147019,-83.3333333333333,4,2,1,50,0,0
148536,-83.3333333333333,4,2,1,50,0,0
149378,-200,4,2,1,50,0,0
149884,-83.3333333333333,4,2,1,50,0,0
151401,-83.3333333333333,4,2,1,50,0,0
151738,-83.3333333333333,4,2,1,50,0,0
152412,-83.3333333333333,4,2,1,50,0,0
152749,-100,4,2,1,50,0,0
163199,-76.9230769230769,4,2,1,50,0,0
171288,-76.9230769230769,4,2,1,50,0,0
173311,-76.9230769230769,4,2,1,50,0,0
173985,-76.9230769230769,4,2,1,50,0,0
182075,-76.9230769230769,4,2,1,50,0,0
183423,-76.9230769230769,4,2,1,50,0,0

[Colours]
Combo1 : 92,206,49
Combo2 : 71,132,70
Combo3 : 111,135,162
Combo4 : 79,130,187

[HitObjects]
68,138,1064,5,2,0:0:0:0:
68,138,1148,1,2,0:0:0:0:
68,138,1232,1,2,0:0:0:0:
68,138,1317,1,2,0:0:0:0:
68,138,1401,2,0,P|120:148|213:158,1,127.500004863739,4|0,1:0|0:0,0:0:0:0:
274,144,1906,2,0,P|264:220|248:351,1,191.250007295609,0|0,0:0|0:0,0:0:0:0:
317,373,2581,1,0,0:0:0:0:
475,283,2749,6,0,P|478:228|484:185,2,95.6250036478044,2|0|2,0:0|0:0|0:0,0:0:0:0:
414,334,3423,1,0,0:0:0:0:
356,260,3592,1,0,0:0:0:0:
305,184,3760,1,2,0:0:0:0:
311,162,3845,1,2,0:0:0:0:
317,140,3929,1,2,0:0:0:0:
323,118,4013,1,2,0:0:0:0:
329,96,4097,1,4,1:0:0:0:
214,134,4350,5,0,0:0:0:0:
328,58,4603,2,0,P|337:154|352:329,1,255.000009727478,2|0,0:0|0:0,0:0:0:0:
229,273,5446,1,2,0:0:0:0:
132,365,5699,1,0,0:0:0:0:
255,383,5951,1,2,0:0:0:0:
37,242,6288,5,0,0:0:0:0:
88,182,6457,1,2,0:0:0:0:
83,160,6541,1,2,0:0:0:0:
78,137,6626,1,2,0:0:0:0:
74,115,6710,1,2,0:0:0:0:
70,93,6794,1,4,1:0:0:0:
200,44,7047,1,0,0:0:0:0:
56,19,7300,1,4,0:0:0:0:
252,212,7974,5,2,0:0:0:0:
309,162,8142,2,0,P|356:172|418:178,1,95.6250036478044,2|0,0:0|0:0,0:0:0:0:
419,163,8648,2,0,P|403:124|395:16,1,127.500004863739,2|0,0:0|0:0,0:0:0:0:
462,15,9154,1,2,0:0:0:0:
227,18,9491,6,0,P|183:33|119:48,1,95.6250036478044,4|0,1:0|0:0,0:0:0:0:
10,146,9996,2,0,P|54:161|148:183,1,127.500004863739,2|0,1:2|0:0,0:0:0:0:
206,148,10502,1,0,1:0:0:0:
457,259,10839,2,0,P|413:274|319:296,1,127.500004863739,2|2,1:0|1:0,0:0:0:0:
52,328,11513,6,0,P|96:343|190:365,1,127.500004863739,2|8,1:0|1:0,0:0:0:0:
194,321,11935,1,8,1:0:0:0:
224,288,12019,1,8,1:0:0:0:
268,283,12103,1,8,1:0:0:0:
310,296,12187,1,12,1:0:0:0:
398,377,12524,1,2,3:0:0:0:
477,296,12861,1,2,3:0:0:0:
392,217,13199,1,2,3:0:0:0:
489,114,13536,6,0,P|435:87|344:92,1,127.500004863739,2|0,1:0|0:0,0:0:0:0:
348,93,13957,1,0,0:0:0:0:
327,101,14041,1,0,1:0:0:0:
306,110,14126,1,0,1:0:0:0:
287,122,14210,2,0,P|229:116|196:112,1,63.7500024318696,2|0,1:0|0:0,0:0:0:0:
157,26,14547,2,0,P|188:29|220:32,1,63.7500024318696,2|0,3:0|1:0,0:0:0:0:
297,32,14884,1,2,3:0:0:0:
122,133,15052,6,0,P|118:184|117:191,1,31.8750012159348,4|0,1:0|0:0,0:0:0:0:
29,303,15221,2,0,P|72:312|113:318,1,63.7500024318696,12|0,1:0|0:0,0:0:0:0:
276,108,15558,6,0,P|272:159|271:166,1,31.8750012159348,4|0,1:0|0:0,0:0:0:0:
177,315,15727,2,0,P|220:324|261:330,1,63.7500024318696,12|0,1:0|0:0,0:0:0:0:
420,90,16064,6,0,P|416:141|415:148,1,31.8750012159348,4|0,1:0|0:0,0:0:0:0:
320,338,16233,2,0,P|363:347|404:353,1,63.7500024318696,12|0,1:0|0:0,0:0:0:0:
506,276,16569,5,2,3:0:0:0:
499,254,16654,1,2,0:0:0:0:
492,232,16738,1,2,0:0:0:0:
485,210,16822,1,2,0:0:0:0:
478,188,16906,2,0,P|432:203|396:213,1,63.7500024318696,2|2,3:0|0:0,0:0:0:0:
211,116,17244,2,0,P|257:131|293:141,1,63.7500024318696,2|0,3:0|0:0,0:0:0:0:
53,262,17581,6,0,P|59:208|59:126,1,127.500004863739,12|0,1:0|1:0,0:0:0:0:
249,209,18086,2,0,P|248:272|255:336,1,127.500004863739,12|0,1:0|0:0,0:0:0:0:
451,211,18592,2,0,P|457:157|457:75,1,127.500004863739,12|2,1:0|3:0,0:0:0:0:
353,109,19097,5,2,0:0:0:0:
251,18,19266,1,2,3:0:0:0:
253,40,19350,1,2,0:0:0:0:
256,62,19435,1,2,0:0:0:0:
258,84,19519,1,2,0:0:0:0:
260,106,19603,1,2,3:0:0:0:
194,190,19772,1,2,0:0:0:0:
274,271,19940,1,2,3:0:0:0:
346,190,20109,1,2,3:0:0:0:
168,283,20277,2,0,P|130:279|123:278,1,31.8750012159348,2|0,3:0|0:0,0:0:0:0:
71,322,20446,5,4,1:0:0:0:
260,195,20614,2,0,P|260:148|254:118,1,63.7500024318696,12|0,1:0|0:0,0:0:0:0:
446,258,20951,5,4,1:0:0:0:
257,131,21119,2,0,P|257:84|263:54,1,63.7500024318696,12|0,1:0|0:0,0:0:0:0:
70,194,21457,5,4,1:0:0:0:
259,67,21625,2,0,P|259:20|253:-10,1,63.7500024318696,12|0,1:0|0:0,0:0:0:0:
256,192,21878,12,4,22974,1:0:0:0:
211,242,23142,5,2,0:0:0:0:
293,145,23311,2,0,P|285:101|281:60,1,85,10|0,1:0|0:0,0:0:0:0:
190,143,23648,1,2,3:0:0:0:
305,230,23817,1,2,0:0:0:0:
399,134,23985,1,10,1:0:0:0:
281,60,24154,6,0,P|294:135|305:241,1,170,2|0,0:1|0:0,0:0:0:0:
149,262,24659,2,0,P|203:273|250:287,1,85,10|2,1:0|0:0,0:0:0:0:
187,97,24996,2,0,P|150:138|114:171,1,85,0|2,3:0|0:0,0:0:0:0:
15,146,25333,1,10,1:0:0:0:
37,366,25502,6,0,P|118:337|215:295,1,170,2|0,0:1|0:0,0:0:0:0:
334,333,26008,1,10,1:0:0:0:
251,378,26176,1,0,0:0:0:0:
274,251,26345,1,2,3:0:0:0:
399,287,26513,1,2,0:0:0:0:
412,363,26682,1,10,1:0:0:0:
356,225,26850,1,6,0:0:0:0:
509,204,27019,6,0,P|494:249|486:298,1,85,4|0,3:0|0:0,0:0:0:0:
273,227,27356,2,0,P|264:185|251:145,1,85,10|0,1:0|0:0,0:0:0:0:
178,120,27693,1,2,3:0:0:0:
360,35,27861,1,2,0:1:0:0:
431,215,28030,1,10,1:0:0:0:
254,296,28199,1,0,0:0:0:0:
312,213,28367,6,0,P|311:160|309:113,1,85,4|2,1:0|0:0,0:0:0:0:
122,62,28704,2,0,P|120:104|119:146,1,85,10|0,1:0|0:0,0:0:0:0:
200,244,29041,1,2,3:0:0:0:
218,132,29210,1,2,0:0:0:0:
84,253,29378,1,10,1:0:0:0:
147,327,29547,6,0,P|225:313|330:303,1,170,2|0,0:0|3:0,0:0:0:0:
388,217,30052,1,10,3:0:0:0:
431,327,30221,1,0,3:0:0:0:
497,234,30390,1,0,3:0:0:0:
497,234,30474,1,0,1:0:0:0:
497,234,30558,1,0,3:0:0:0:
336,149,30727,2,0,P|298:151|284:151,1,42.5,10|0,3:0|0:0,0:0:0:0:
378,84,30895,2,0,P|378:54|379:33,1,42.5,0|0,3:0|0:0,0:0:0:0:
454,128,31064,5,8,1:0:0:0:
447,156,31148,1,8,1:0:0:0:
440,184,31232,1,8,1:0:0:0:
433,213,31317,1,8,1:0:0:0:
426,241,31401,1,8,1:0:0:0:
419,269,31485,1,0,1:0:0:0:
412,297,31569,1,8,1:0:0:0:
405,326,31654,1,8,1:0:0:0:
399,355,31738,5,8,1:0:0:0:
353,324,31822,1,8,1:0:0:0:
297,321,31906,1,8,1:0:0:0:
245,342,31991,1,8,1:0:0:0:
195,366,32075,1,8,1:0:0:0:
140,362,32159,1,8,1:0:0:0:
89,338,32244,1,8,1:0:0:0:
44,305,32328,1,8,1:0:0:0:
16,323,32412,6,0,P|26:248|28:204,1,85,4|0,1:0|0:0,0:0:0:0:
252,174,32749,2,0,P|242:99|240:55,1,85,4|0,1:2|0:0,0:0:0:0:
117,0,33086,1,8,1:0:0:0:
115,21,33170,1,8,1:0:0:0:
113,42,33255,1,8,1:0:0:0:
111,63,33339,1,8,1:0:0:0:
110,84,33423,1,8,1:0:0:0:
108,105,33508,1,8,1:0:0:0:
106,126,33592,1,8,1:0:0:0:
104,147,33676,1,8,1:0:0:0:
104,168,33760,6,0,P|127:251|134:282,1,85,4|0,3:1|0:0,0:0:0:0:
283,143,34097,2,0,P|274:202|264:245,1,85,2|0,1:3|0:0,0:0:0:0:
426,273,34435,2,0,P|392:309|355:346,1,85,0|2,3:0|0:0,0:0:0:0:
259,310,34772,1,2,1:3:0:0:
185,378,34940,1,2,0:0:0:0:
285,382,35109,6,0,P|278:329|270:283,2,85,0|0|0,3:0|0:0|3:0,0:0:0:0:
184,286,35614,1,0,0:0:0:0:
249,220,35783,2,0,P|256:167|264:121,1,85,0|0,3:0|0:0,0:0:0:0:
239,55,36120,1,0,3:0:0:0:
239,55,36288,1,0,0:0:0:0:
357,108,36457,6,0,P|436:91|460:87,1,85,0|0,3:0|0:0,0:0:0:0:
155,108,36794,2,0,P|76:91|52:87,1,85,2|0,1:3|0:0,0:0:0:0:
232,183,37131,1,0,3:0:0:0:
301,48,37300,1,2,0:0:0:0:
215,51,37468,1,2,1:3:0:0:
314,179,37637,1,2,0:0:0:0:
407,208,37805,6,0,P|467:195|498:186,2,85,0|0|0,3:0|0:0|3:0,0:0:0:0:
351,281,38311,1,0,0:0:0:0:
272,262,38479,2,0,P|231:254|190:242,1,85,0|0,3:0|0:0,0:0:0:0:
216,354,38817,2,0,P|257:345|298:334,1,85,0|0,3:0|0:0,0:0:0:0:
73,308,39154,5,0,3:0:0:0:
149,311,39322,1,2,0:0:0:0:
38,178,39491,1,2,1:3:0:0:
81,239,39659,1,2,0:0:0:0:
141,59,39828,1,0,3:0:0:0:
101,127,39996,1,2,0:0:0:0:
274,116,40165,1,2,1:3:0:0:
200,108,40333,1,2,0:0:0:0:
308,241,40502,6,0,P|331:181|337:151,1,85,0|0,3:0|0:0,0:0:0:0:
162,268,40839,2,0,P|207:272|255:276,1,85,0|0,3:0|0:0,0:0:0:0:
58,371,41176,2,0,P|88:320|103:286,3,85,0|0|0|0,3:0|0:0|3:0|0:0,0:0:0:0:
87,222,41850,5,0,3:0:0:0:
137,163,42019,1,2,0:0:0:0:
185,96,42187,1,2,1:3:0:0:
223,9,42356,1,2,0:0:0:0:
260,80,42524,5,2,3:2:0:0:
290,154,42693,1,2,3:2:0:0:
321,253,42861,1,2,1:3:0:0:
314,330,43030,1,2,3:2:0:0:
353,251,43199,5,4,3:0:0:0:
363,210,43283,1,4,3:0:0:0:
368,168,43367,1,4,3:0:0:0:
373,125,43451,1,4,3:0:0:0:
376,82,43536,1,4,3:0:0:0:
136,82,43704,5,4,3:0:0:0:
139,125,43789,1,4,3:0:0:0:
144,168,43873,1,4,3:0:0:0:
149,210,43957,1,4,3:0:0:0:
159,251,44041,1,4,3:0:0:0:
266,299,44210,5,4,3:0:0:0:
264,315,44294,1,4,3:0:0:0:
262,331,44378,1,4,3:0:0:0:
260,348,44463,1,4,3:0:0:0:
257,364,44547,1,4,1:0:0:0:
344,313,44715,1,2,0:1:0:0:
274,234,44884,1,10,1:0:0:0:
190,296,45052,1,0,0:0:0:0:
363,227,45221,6,0,P|369:167|374:127,1,85,2|0,3:1|0:0,0:0:0:0:
140,142,45558,2,0,P|144:184|149:227,1,85,10|0,1:0|0:0,0:0:0:0:
258,112,45895,5,2,3:0:0:0:
195,64,46064,1,2,0:0:0:0:
308,17,46232,1,10,1:0:0:0:
376,61,46401,1,2,0:0:0:0:
246,192,46569,5,2,3:0:0:0:
319,161,46738,1,2,0:0:0:0:
303,282,46906,1,10,1:0:0:0:
231,319,47075,1,2,0:0:0:0:
41,159,47244,5,4,3:2:0:0:
164,191,47412,1,2,0:1:0:0:
67,231,47581,1,10,1:0:0:0:
151,119,47749,1,0,0:0:0:0:
42,37,47918,2,0,P|26:90|14:132,1,85,2|0,3:1|0:0,0:0:0:0:
197,233,48255,2,0,P|208:192|221:151,1,85,10|0,1:0|0:0,0:0:0:0:
262,45,48592,5,2,3:0:0:0:
308,146,48760,1,2,0:0:0:0:
406,68,48929,1,10,1:0:0:0:
333,66,49097,1,2,0:0:0:0:
436,162,49266,1,2,3:0:0:0:
511,73,49435,1,2,0:0:0:0:
433,0,49603,2,0,P|435:47|436:100,1,85,10|2,1:0|0:0,0:0:0:0:
506,262,49940,5,4,3:2:0:0:
411,295,50109,2,0,P|424:356|429:391,2,85,2|10|0,0:1|1:0|0:0,0:0:0:0:
256,265,50614,2,0,P|262:223|272:181,1,85,2|0,3:1|0:0,0:0:0:0:
345,155,50951,1,10,1:0:0:0:
381,226,51120,1,0,0:0:0:0:
281,106,51288,1,2,3:0:0:0:
279,28,51457,1,2,0:0:0:0:
249,176,51626,1,10,1:0:0:0:
182,209,51794,1,2,0:0:0:0:
80,131,51963,5,2,3:0:0:0:
73,123,52131,1,2,0:0:0:0:
76,115,52300,1,10,1:0:0:0:
71,106,52468,1,2,0:0:0:0:
158,148,52637,5,0,3:0:0:0:
55,218,52805,1,2,0:1:0:0:
202,265,52974,1,10,1:0:0:0:
127,297,53142,1,0,0:0:0:0:
296,362,53311,1,2,3:1:0:0:
207,366,53479,1,0,3:0:0:0:
338,293,53648,2,0,L|381:312,1,42.5,10|0,3:0|3:0,0:0:0:0:
411,301,53817,2,0,L|454:320,1,42.5,0|0,3:0|3:0,0:0:0:0:
506,269,53985,5,6,3:0:0:0:
500,231,54069,1,4,3:0:0:0:
494,192,54154,1,4,3:0:0:0:
488,154,54238,1,4,3:0:0:0:
482,116,54322,1,12,3:0:0:0:
273,22,54491,5,4,3:0:0:0:
267,60,54575,1,4,3:0:0:0:
261,98,54659,1,4,3:0:0:0:
255,137,54744,1,4,3:0:0:0:
249,175,54828,1,4,3:0:0:0:
33,203,54996,5,4,3:0:0:0:
39,241,55080,1,4,3:0:0:0:
45,279,55164,1,4,3:0:0:0:
51,318,55249,1,4,3:0:0:0:
62,354,55333,2,0,P|109:339|151:332,1,85,4|2,1:0|3:0,0:0:0:0:
174,161,55670,2,0,P|219:179|256:201,1,85,8|2,1:0|3:0,0:0:0:0:
395,102,56008,2,0,P|417:145|432:185,1,85,6|2,3:0|3:0,0:0:0:0:
511,216,56345,1,8,1:0:0:0:
511,216,56513,1,2,3:0:0:0:
403,318,56682,5,4,3:0:0:0:
477,293,56850,1,2,3:0:0:0:
461,367,57019,2,0,P|414:352|372:345,1,85,8|2,1:0|3:0,0:0:0:0:
349,174,57356,2,0,P|303:192|266:214,1,85,6|2,3:0|3:0,0:0:0:0:
128,115,57694,2,0,P|105:158|90:198,1,85,8|0,1:0|0:0,0:0:0:0:
190,190,58030,5,4,1:0:0:0:
156,47,58199,1,2,3:0:0:0:
26,88,58367,2,0,P|73:103|115:110,1,85,8|2,1:0|3:0,0:0:0:0:
138,281,58704,2,0,P|183:262|220:240,1,85,6|2,3:0|3:0,0:0:0:0:
359,340,59042,2,0,P|381:296|396:256,1,85,8|2,1:0|3:0,0:0:0:0:
344,173,59378,5,6,3:0:0:0:
482,167,59547,1,2,3:0:0:0:
475,252,59715,1,8,1:0:0:0:
397,116,59884,1,2,3:0:0:0:
472,88,60052,1,6,3:0:0:0:
414,38,60221,1,2,3:0:0:0:
246,69,60390,2,0,L|257:120,1,42.5,8|0,1:0|0:0,0:0:0:0:
233,122,60558,2,0,L|244:173,1,42.5,2|0,3:0|0:0,0:0:0:0:
291,231,60727,5,4,1:0:0:0:
244,291,60895,1,2,3:0:0:0:
285,366,61064,1,8,1:0:0:0:
332,307,61232,1,2,3:0:0:0:
164,256,61401,2,0,P|176:309|182:354,1,85,6|2,3:0|3:0,0:0:0:0:
382,363,61738,2,0,P|388:321|398:279,1,85,8|2,1:0|3:0,0:0:0:0:
293,201,62075,5,6,3:0:0:0:
293,201,62244,1,2,3:0:0:0:
281,124,62412,1,8,1:0:0:0:
281,124,62581,1,2,3:0:0:0:
360,151,62749,2,0,P|413:162|457:171,1,85,6|2,3:0|3:0,0:0:0:0:
205,155,63086,2,0,P|152:166|108:175,1,85,8|2,1:0|3:0,0:0:0:0:
259,19,63423,5,8,1:0:0:0:
259,19,63508,1,8,1:0:0:0:
259,19,63592,1,8,1:0:0:0:
259,19,63676,1,8,1:0:0:0:
265,52,63760,1,8,1:0:0:0:
266,77,63845,1,8,1:0:0:0:
267,102,63929,1,8,1:0:0:0:
268,127,64013,1,8,1:0:0:0:
270,152,64097,1,8,1:0:0:0:
271,178,64182,1,8,1:0:0:0:
273,203,64266,1,8,1:0:0:0:
275,228,64350,1,8,1:0:0:0:
268,261,64435,5,8,1:0:0:0:
300,252,64519,1,8,1:0:0:0:
333,256,64603,1,8,1:0:0:0:
361,273,64687,1,8,1:0:0:0:
377,303,64772,1,4,3:1:0:0:
256,192,64856,12,0,65951,0:0:0:0:
391,224,66120,6,0,P|388:149|386:113,1,101.999996887207,4|0,1:0|1:0,0:0:0:0:
386,122,66373,1,0,1:0:0:0:
386,122,66457,1,8,1:0:0:0:
249,76,66626,2,0,P|196:86|179:225,1,203.999993774414,4|0,1:2|1:0,0:0:0:0:
254,313,67131,2,0,P|329:310|365:308,1,101.999996887207,8|0,1:0|3:0,0:0:0:0:
252,223,67468,5,6,3:0:0:0:
176,318,67637,1,8,1:0:0:0:
306,367,67805,1,0,1:0:0:0:
251,308,67974,1,0,3:0:0:0:
142,208,68142,1,6,3:0:0:0:
262,134,68311,1,8,1:0:0:0:
365,232,68479,5,8,1:0:0:0:
394,223,68564,1,0,1:0:0:0:
423,214,68648,1,8,1:0:0:0:
452,205,68732,1,0,1:0:0:0:
480,192,68817,2,0,P|463:131|456:81,1,101.999996887207,4|0,1:0|1:0,0:0:0:0:
457,92,69069,1,0,1:0:0:0:
457,92,69154,1,8,1:0:0:0:
358,37,69322,2,0,P|297:49|128:85,1,203.999993774414,4|0,0:2|1:0,0:0:0:0:
28,48,69828,2,0,P|59:120|70:151,1,101.999996887207,8|2,1:0|3:0,0:0:0:0:
18,261,70165,5,6,3:0:0:0:
154,322,70333,1,0,1:0:0:0:
205,184,70502,1,8,1:0:0:0:
101,228,70670,1,0,3:0:0:0:
101,228,70755,1,0,1:0:0:0:
101,228,70839,2,0,P|83:300|68:349,1,101.999996887207,6|0,3:0|1:0,0:0:0:0:
307,287,71176,5,8,1:0:0:0:
303,256,71260,1,0,1:0:0:0:
299,225,71345,1,6,3:0:0:0:
295,194,71429,1,0,1:0:0:0:
291,163,71513,2,0,P|303:92|315:32,1,101.999996887207,6|8,3:0|1:0,0:0:0:0:
308,62,71766,1,0,1:0:0:0:
308,62,71850,1,0,1:0:0:0:
138,32,72019,2,0,P|149:96|166:255,1,203.999993774414,4|8,1:2|1:0,0:0:0:0:
114,340,72524,1,8,1:0:0:0:
224,363,72693,1,6,3:0:0:0:
289,247,72861,6,0,P|300:184|302:134,1,101.999996887207,6|6,3:0|1:2,0:0:0:0:
302,146,73114,1,0,0:0:0:0:
302,146,73199,1,8,1:0:0:0:
244,100,73367,1,0,1:0:0:0:
390,134,73536,1,6,3:0:0:0:
340,303,73704,1,8,1:0:0:0:
201,262,73873,1,8,1:0:0:0:
411,238,74041,5,4,1:2:0:0:
411,238,74126,1,0,1:0:0:0:
411,238,74210,2,0,P|467:237|518:235,1,101.999996887207,12|6,1:0|3:0,0:0:0:0:
231,170,74547,2,0,P|180:169|129:167,1,101.999996887207,8|6,1:0|3:0,0:0:0:0:
85,89,74884,5,8,1:0:0:0:
31,208,75052,1,6,3:0:0:0:
154,245,75221,1,8,1:0:0:0:
107,165,75390,1,6,3:0:0:0:
264,131,75558,5,6,3:0:0:0:
292,141,75642,1,0,3:0:0:0:
320,151,75727,1,2,3:0:0:0:
348,161,75811,1,0,3:0:0:0:
376,171,75895,1,6,3:0:0:0:
404,181,75979,1,0,3:0:0:0:
433,191,76064,1,2,3:0:0:0:
461,201,76148,1,0,3:0:0:0:
490,210,76232,5,6,3:0:0:0:
488,158,76317,1,0,3:0:0:0:
466,111,76401,1,2,3:0:0:0:
426,78,76485,1,0,3:0:0:0:
376,68,76569,1,6,3:0:0:0:
326,83,76654,1,0,3:0:0:0:
286,115,76738,1,2,3:0:0:0:
240,137,76822,1,0,3:0:0:0:
189,139,76906,2,0,P|128:125|64:112,1,101.999996887207,4|0,1:0|1:0,0:0:0:0:
17,289,77244,5,8,1:0:0:0:
118,229,77412,2,0,P|167:239|341:279,1,203.999993774414,4|0,1:2|1:0,0:0:0:0:
442,237,77918,1,8,1:0:0:0:
341,183,78086,1,0,3:0:0:0:
409,333,78255,2,0,P|467:355|527:370,2,101.999996887207,6|0|8,3:0|0:0|1:0,0:0:0:0:
290,258,78760,1,0,3:0:0:0:
290,258,78845,1,0,0:0:0:0:
290,258,78929,2,0,P|220:242|171:229,1,101.999996887207,6|8,3:0|1:0,0:0:0:0:
68,126,79266,5,8,1:0:0:0:
94,111,79350,1,0,1:0:0:0:
120,95,79435,1,8,1:0:0:0:
146,80,79519,1,0,1:0:0:0:
173,66,79603,2,0,P|254:92|316:105,1,101.999996887207,4|0,1:0|1:0,0:0:0:0:
270,95,79856,1,0,1:0:0:0:
270,95,79940,1,8,1:0:0:0:
403,67,80109,1,4,0:2:0:0:
332,6,80277,2,0,P|361:76|356:216,1,203.999993774414,0|8,0:0|1:0,0:0:0:0:
198,280,80783,5,2,3:0:0:0:
285,363,80951,2,0,P|285:301|288:236,1,101.999996887207,6|0,3:0|1:0,0:0:0:0:
286,261,81204,1,0,0:0:0:0:
286,261,81288,1,8,1:0:0:0:
449,251,81457,1,0,3:0:0:0:
449,251,81541,1,0,0:0:0:0:
449,251,81626,2,0,P|447:301|447:352,1,101.999996887207,6|0,3:0|1:0,0:0:0:0:
262,152,81963,5,8,1:0:0:0:
256,122,82047,1,0,1:0:0:0:
250,92,82131,1,6,3:0:0:0:
244,62,82215,1,2,1:0:0:0:
240,31,82300,2,0,P|165:46|101:62,1,101.999996887207,6|8,3:0|1:0,0:0:0:0:
140,51,82552,1,0,1:0:0:0:
140,51,82637,1,0,1:0:0:0:
16,31,82805,1,4,1:2:0:0:
0,248,82974,2,0,P|72:211|50:85,1,203.999993774414,0|8,0:0|1:0,0:0:0:0:
66,99,83479,1,6,3:0:0:0:
177,187,83648,6,0,P|242:181|294:172,1,101.999996887207,6|6,3:0|1:2,0:0:0:0:
190,273,83985,1,8,1:0:0:0:
94,194,84154,1,0,1:0:0:0:
203,104,84322,2,0,P|268:98|320:89,1,101.999996887207,6|8,3:0|1:0,0:0:0:0:
403,201,84659,1,8,1:0:0:0:
291,244,84828,1,4,1:2:0:0:
398,101,84996,6,0,P|435:107|465:109,1,50.9999984436036,12|0,1:0|0:0,0:0:0:0:
330,166,85165,2,0,P|367:172|397:174,1,50.9999984436036,6|0,3:0|0:0,0:0:0:0:
420,257,85333,2,0,P|383:263|353:265,1,50.9999984436036,8|0,1:0|0:0,0:0:0:0:
488,322,85502,2,0,P|451:328|421:330,1,50.9999984436036,6|0,3:0|0:0,0:0:0:0:
320,372,85670,5,8,1:0:0:0:
279,364,85755,1,0,1:0:0:0:
238,356,85839,1,6,3:0:0:0:
197,348,85923,1,0,1:0:0:0:
156,341,86008,1,8,1:0:0:0:
115,346,86092,5,8,1:0:0:0:
98,308,86176,1,14,1:0:0:0:
110,269,86260,1,8,1:0:0:0:
139,240,86345,2,0,P|138:177|129:114,1,101.999996887207,14|0,1:0|0:0,0:0:0:0:
429,33,86682,2,0,P|423:83|423:134,1,101.999996887207,14|0,1:0|0:0,0:0:0:0:
286,241,87019,5,14,1:0:0:0:
283,200,87103,1,8,1:0:0:0:
280,159,87187,1,8,1:0:0:0:
277,117,87272,1,8,1:0:0:0:
274,76,87356,1,8,1:0:0:0:
276,66,87440,1,8,1:0:0:0:
278,56,87524,1,8,1:0:0:0:
280,46,87609,1,8,1:0:0:0:
283,36,87693,6,0,P|219:48|188:52,1,85,4|0,3:1|0:0,0:0:0:0:
280,158,88030,2,0,P|321:149|363:143,1,85,2|0,1:3|0:0,0:0:0:0:
398,53,88367,1,0,3:0:0:0:
483,119,88536,1,2,0:0:0:0:
439,207,88704,1,2,1:3:0:0:
365,143,88873,1,2,0:0:0:0:
281,222,89041,6,0,P|306:281|324:313,1,85,0|4,3:0|0:2,0:0:0:0:
227,301,89378,2,0,P|207:263|192:223,1,85,0|0,3:0|0:0,0:0:0:0:
102,230,89715,2,0,P|117:270|137:308,1,85,4|0,3:0|0:0,0:0:0:0:
73,364,90052,1,4,3:0:0:0:
73,364,90221,1,0,0:0:0:0:
24,177,90390,6,0,P|68:117|86:86,1,85,0|0,3:0|0:0,0:0:0:0:
86,7,90727,1,2,1:3:0:0:
180,43,90895,1,0,0:0:0:0:
165,143,91064,1,0,3:0:0:0:
165,143,91232,1,2,0:0:0:0:
271,24,91401,2,0,P|294:59|320:92,1,85,2|2,1:3|0:0,0:0:0:0:
447,159,91738,5,0,3:0:0:0:
362,262,91906,1,4,0:2:0:0:
271,173,92075,1,4,3:0:0:0:
351,167,92244,1,0,3:0:0:0:
351,167,92328,1,0,3:0:0:0:
351,167,92412,2,0,P|377:133|400:98,1,85,4|0,3:0|0:0,0:0:0:0:
501,91,92749,1,4,3:0:0:0:
501,91,92918,1,0,0:0:0:0:
430,235,93086,6,0,P|453:270|479:303,1,85,0|2,3:0|0:0,0:0:0:0:
292,347,93423,2,0,P|318:313|341:278,1,85,2|2,1:3|0:0,0:0:0:0:
154,242,93760,1,0,3:0:0:0:
203,303,93929,1,2,0:0:0:0:
281,164,94097,1,2,1:3:0:0:
236,228,94266,1,2,0:0:0:0:
186,141,94435,6,0,P|149:105|119:71,1,85,0|4,3:0|0:2,0:0:0:0:
305,37,94772,2,0,P|269:74|235:104,1,85,4|4,3:0|0:2,0:0:0:0:
318,234,95109,2,0,P|289:202|258:173,2,85,4|2|4,3:0|0:0|3:0,0:0:0:0:
393,237,95614,1,2,0:0:0:0:
485,190,95783,6,0,P|484:129|488:86,1,85,0|2,3:0|0:0,0:0:0:0:
469,268,96120,2,0,P|466:310|468:352,1,85,2|2,1:3|0:0,0:0:0:0:
386,233,96457,1,2,3:2:0:0:
406,160,96626,1,2,3:2:0:0:
308,233,96794,1,2,1:3:0:0:
337,306,96963,1,2,3:2:0:0:
228,199,97131,5,4,3:0:0:0:
194,203,97215,1,4,3:0:0:0:
159,207,97300,1,4,3:0:0:0:
125,211,97384,1,4,3:0:0:0:
91,215,97468,1,4,3:0:0:0:
284,199,97637,5,4,3:0:0:0:
318,203,97721,1,4,3:0:0:0:
353,207,97806,1,4,3:0:0:0:
387,211,97890,1,4,3:0:0:0:
421,215,97974,1,4,3:0:0:0:
251,111,98142,5,4,3:0:0:0:
250,89,98227,1,4,3:0:0:0:
249,67,98311,1,4,3:0:0:0:
248,45,98395,1,4,3:0:0:0:
248,23,98479,2,0,P|196:37|151:50,1,85,4|2,1:0|0:1,0:0:0:0:
254,197,98817,2,0,P|294:185|335:174,1,85,10|0,1:0|0:0,0:0:0:0:
139,113,99154,5,2,3:1:0:0:
183,178,99322,1,0,0:0:0:0:
274,57,99491,1,10,1:0:0:0:
200,53,99659,1,0,0:0:0:0:
266,207,99828,5,2,3:0:0:0:
307,143,99996,1,2,0:0:0:0:
326,256,100165,1,10,1:0:0:0:
359,319,100333,1,2,0:0:0:0:
186,333,100502,1,2,3:0:0:0:
250,287,100670,1,2,0:0:0:0:
102,249,100839,2,0,P|105:305|106:346,1,85,10|2,1:0|0:0,0:0:0:0:
296,350,101176,5,4,3:2:0:0:
361,232,101345,1,2,0:1:0:0:
246,118,101513,2,0,P|243:174|242:215,1,85,10|0,1:0|0:0,0:0:0:0:
439,253,101850,2,0,P|437:210|435:168,1,85,2|0,3:1|0:0,0:0:0:0:
319,298,102187,1,10,1:0:0:0:
441,338,102356,1,0,0:0:0:0:
270,236,102524,5,2,3:0:0:0:
243,343,102693,1,2,0:0:0:0:
353,365,102861,1,10,1:0:0:0:
202,275,103030,1,2,0:0:0:0:
112,343,103199,1,2,3:0:0:0:
69,237,103367,1,2,0:0:0:0:
162,176,103536,2,0,P|157:118|155:72,1,85,10|2,1:0|0:0,0:0:0:0:
136,82,103788,1,0,0:0:0:0:
143,61,103873,6,0,P|205:62|240:65,1,85,4|2,3:2|0:1,0:0:0:0:
318,146,104210,2,0,P|360:143|402:143,1,85,10|0,1:0|0:0,0:0:0:0:
321,52,104547,1,2,3:1:0:0:
228,152,104715,1,0,0:0:0:0:
359,216,104884,1,10,1:0:0:0:
404,144,105052,5,0,0:0:0:0:
280,231,105221,1,2,3:0:0:0:
404,283,105390,1,2,0:0:0:0:
447,218,105558,5,10,1:0:0:0:
332,302,105727,1,2,0:0:0:0:
457,341,105895,1,2,3:0:0:0:
500,269,106064,5,2,0:0:0:0:
378,358,106232,1,10,1:0:0:0:
334,201,106401,1,2,0:0:0:0:
460,57,106569,6,0,P|469:114|476:164,1,85,0|2,3:0|0:1,0:0:0:0:
265,153,106906,2,0,P|271:110|277:68,1,85,10|0,1:0|0:0,0:0:0:0:
177,152,107244,1,2,3:1:0:0:
277,232,107412,1,0,3:0:0:0:
358,135,107581,1,10,3:0:0:0:
253,44,107749,1,0,3:0:0:0:
174,243,107918,5,6,3:0:0:0:
179,263,108002,1,4,3:0:0:0:
183,283,108086,1,4,3:0:0:0:
188,303,108170,1,4,3:0:0:0:
193,323,108255,1,12,3:0:0:0:
319,323,108423,5,4,3:0:0:0:
324,303,108508,1,4,3:0:0:0:
329,283,108592,1,4,3:0:0:0:
333,263,108676,1,4,3:0:0:0:
338,243,108760,1,4,3:0:0:0:
254,169,108929,6,0,L|246:109,1,42.5,4|4,3:0|3:0,0:0:0:0:
266,99,109097,2,0,L|274:40,1,42.5,4|4,3:0|3:0,0:0:0:0:
196,13,109266,6,0,P|148:25|108:34,1,85,4|2,1:0|3:0,0:0:0:0:
79,223,109603,2,0,P|120:213|161:203,1,85,8|2,1:0|3:0,0:0:0:0:
325,157,109940,1,6,3:0:0:0:
363,175,110109,1,2,3:0:0:0:
400,193,110277,1,8,1:0:0:0:
438,211,110446,1,2,3:0:0:0:
260,237,110614,6,0,P|250:304|245:346,1,85,4|2,3:0|3:0,0:0:0:0:
341,384,110951,1,8,1:0:0:0:
341,384,111036,1,2,0:0:0:0:
341,384,111120,1,2,3:0:0:0:
341,384,111204,1,2,0:0:0:0:
341,384,111288,1,6,3:0:0:0:
342,297,111457,1,2,3:0:0:0:
164,333,111626,1,8,1:0:0:0:
164,333,111794,1,2,3:0:0:0:
61,245,111963,6,0,P|63:185|64:138,1,85,4|2,1:0|3:0,0:0:0:0:
205,55,112300,2,0,P|203:97|202:139,1,85,8|2,1:0|3:0,0:0:0:0:
290,255,112637,1,6,3:0:0:0:
331,261,112805,1,2,3:0:0:0:
373,267,112974,1,8,1:0:0:0:
414,274,113142,1,2,3:0:0:0:
496,177,113311,5,6,3:0:0:0:
401,123,113479,1,2,3:0:0:0:
401,123,113564,1,2,0:0:0:0:
401,123,113648,1,8,1:0:0:0:
401,123,113732,1,2,0:0:0:0:
401,123,113817,1,2,3:0:0:0:
319,199,113985,2,0,P|322:128|321:102,1,85,6|2,3:0|3:0,0:0:0:0:
485,36,114322,2,0,P|485:78|482:120,1,85,8|2,1:0|3:0,0:0:0:0:
278,25,114659,6,0,P|350:24|392:22,1,85,4|2,1:0|3:0,0:0:0:0:
254,116,114996,2,0,P|211:117|169:117,1,85,8|2,1:0|3:0,0:0:0:0:
58,34,115333,2,0,P|130:33|172:31,1,85,6|2,3:0|3:0,0:0:0:0:
100,176,115670,2,0,P|28:175|-14:173,1,85,8|2,1:0|3:0,0:0:0:0:
200,201,116008,5,6,3:0:0:0:
271,255,116176,1,2,3:0:0:0:
128,335,116345,1,8,1:0:0:0:
116,255,116513,1,2,3:0:0:0:
279,338,116682,1,6,3:0:0:0:
204,379,116850,1,2,3:0:0:0:
200,286,117019,1,8,1:0:0:0:
200,286,117187,1,2,3:0:0:0:
375,261,117356,5,8,1:0:0:0:
381,240,117440,1,8,1:0:0:0:
387,219,117524,1,8,1:0:0:0:
394,198,117609,1,8,1:0:0:0:
401,178,117693,1,8,1:0:0:0:
407,157,117777,1,8,1:0:0:0:
414,137,117861,1,8,1:0:0:0:
422,117,117946,1,8,1:0:0:0:
430,97,118030,5,8,1:0:0:0:
397,63,118114,1,8,1:0:0:0:
351,51,118199,1,8,1:0:0:0:
306,63,118283,1,8,1:0:0:0:
269,91,118367,1,8,1:0:0:0:
257,136,118451,1,8,1:0:0:0:
263,182,118536,1,8,1:0:0:0:
258,228,118620,1,8,1:0:0:0:
229,264,118704,1,4,3:0:0:0:
256,192,118788,12,4,120052,1:0:0:0:
151,77,120221,5,0,1:0:0:0:
151,77,120305,1,0,1:0:0:0:
151,77,120390,1,8,1:0:0:0:
291,68,120558,2,0,P|230:65|182:194,1,203.999993774414,4|0,1:2|1:0,0:0:0:0:
362,184,121064,6,0,P|306:190|250:194,1,101.999996887207,8|0,1:0|3:0,0:0:0:0:
260,193,121317,1,0,1:0:0:0:
260,193,121401,1,6,3:0:0:0:
340,274,121569,1,8,1:0:0:0:
447,178,121738,1,8,1:0:0:0:
364,167,121906,1,0,3:0:0:0:
482,263,122075,1,6,3:0:0:0:
502,123,122244,1,8,1:0:0:0:
391,45,122412,5,8,1:0:0:0:
361,51,122496,1,0,1:0:0:0:
330,57,122581,1,8,1:0:0:0:
300,63,122665,1,0,1:0:0:0:
270,70,122749,2,0,P|197:78|150:84,1,101.999996887207,4|0,1:0|1:0,0:0:0:0:
168,81,123002,1,0,1:0:0:0:
168,81,123086,1,8,1:0:0:0:
70,52,123255,1,4,0:2:0:0:
105,174,123423,1,0,0:0:0:0:
35,133,123592,1,0,1:0:0:0:
109,252,123760,1,8,1:0:0:0:
181,175,123929,1,2,3:0:0:0:
26,279,124097,6,0,P|50:330|68:388,1,101.999996887207,6|0,3:0|1:0,0:0:0:0:
64,373,124350,1,0,1:0:0:0:
64,373,124435,1,8,1:0:0:0:
137,327,124603,2,0,P|177:289|305:181,1,203.999993774414,0|0,3:0|1:0,0:0:0:0:
324,69,125109,5,8,1:0:0:0:
353,77,125193,1,0,1:0:0:0:
381,87,125277,1,6,3:0:0:0:
409,97,125361,1,0,1:0:0:0:
432,116,125446,2,0,P|425:187|425:243,1,101.999996887207,6|8,3:0|1:0,0:0:0:0:
424,217,125699,1,0,1:0:0:0:
424,217,125783,1,8,1:0:0:0:
491,314,125951,1,4,1:2:0:0:
360,378,126120,2,0,P|358:327|352:276,1,101.999996887207,0|8,0:0|1:0,0:0:0:0:
255,201,126457,1,8,1:0:0:0:
343,119,126626,1,6,3:0:0:0:
340,202,126794,5,6,3:0:0:0:
221,99,126963,1,6,1:2:0:0:
344,29,127131,1,8,1:0:0:0:
454,132,127300,1,0,1:0:0:0:
343,119,127468,5,6,3:0:0:0:
261,237,127637,1,8,1:0:0:0:
393,284,127805,1,8,1:0:0:0:
344,207,127974,1,4,1:2:0:0:
176,251,128142,6,0,P|184:284|187:320,1,50.9999984436036,12|0,1:0|0:0,0:0:0:0:
256,320,128311,2,0,P|264:353|267:389,1,50.9999984436036,6|0,3:0|0:0,0:0:0:0:
128,349,128479,1,8,1:0:0:0:
276,247,128648,1,6,3:0:0:0:
109,213,128817,6,0,P|112:187|119:163,1,50.9999984436036,8|0,1:0|0:0,0:0:0:0:
189,144,128986,2,0,P|192:118|199:94,1,50.9999984436036,6|0,3:0|0:0,0:0:0:0:
150,35,129154,1,8,1:0:0:0:
297,17,129322,1,6,3:0:0:0:
436,100,129491,5,6,3:0:0:0:
441,129,129575,1,0,3:0:0:0:
447,158,129659,1,2,3:0:0:0:
453,188,129744,1,0,3:0:0:0:
459,217,129828,1,6,3:0:0:0:
464,247,129912,1,0,3:0:0:0:
468,277,129996,1,2,3:0:0:0:
473,307,130081,1,0,3:0:0:0:
478,336,130165,1,6,3:0:0:0:
428,325,130249,1,0,3:0:0:0:
377,323,130333,1,2,3:0:0:0:
327,337,130418,1,0,3:0:0:0:
276,339,130502,1,6,3:0:0:0:
226,326,130586,1,0,3:0:0:0:
191,288,130670,1,2,3:0:0:0:
191,236,130755,1,0,3:0:0:0:
218,193,130839,6,0,P|218:122|217:62,1,101.999996887207,4|0,1:0|1:0,0:0:0:0:
217,91,131092,1,0,0:0:0:0:
217,91,131176,1,8,1:0:0:0:
0,52,131345,2,0,P|75:54|108:183,1,203.999993774414,4|0,1:2|1:0,0:0:0:0:
9,207,131850,6,0,P|17:268|23:308,1,101.999996887207,8|0,1:0|3:0,0:0:0:0:
23,308,132103,1,0,3:0:0:0:
23,308,132187,2,0,P|90:322|136:327,1,101.999996887207,6|0,3:0|0:0,0:0:0:0:
234,242,132524,1,8,1:0:0:0:
259,366,132693,1,0,3:0:0:0:
136,227,132861,2,0,P|121:153|117:109,1,101.999996887207,6|8,3:0|1:0,0:0:0:0:
314,142,133199,5,8,1:0:0:0:
319,111,133283,1,0,1:0:0:0:
324,80,133367,1,8,1:0:0:0:
330,50,133451,1,0,1:0:0:0:
336,19,133536,2,0,P|393:23|445:30,1,101.999996887207,4|0,1:0|1:0,0:0:0:0:
437,28,133788,1,0,1:0:0:0:
437,28,133873,1,8,1:0:0:0:
490,135,134041,1,4,0:2:0:0:
409,205,134210,2,0,P|397:281|505:361,1,203.999993774414,0|8,0:0|1:0,0:0:0:0:
507,278,134715,1,2,3:0:0:0:
319,296,134884,6,0,P|262:314|205:338,1,101.999996887207,6|0,3:0|1:0,0:0:0:0:
222,329,135137,1,0,1:0:0:0:
222,329,135221,1,8,1:0:0:0:
125,261,135390,1,0,3:0:0:0:
258,212,135558,2,0,P|270:153|278:92,1,101.999996887207,6|0,3:0|1:0,0:0:0:0:
482,221,135895,5,8,1:0:0:0:
451,219,135979,1,0,1:0:0:0:
420,218,136064,1,6,3:0:0:0:
389,217,136148,1,2,1:0:0:0:
358,213,136232,2,0,P|402:253|451:290,1,101.999996887207,6|8,3:0|1:0,0:0:0:0:
292,268,136569,1,0,1:0:0:0:
227,164,136738,2,0,P|211:236|176:363,1,203.999993774414,4|8,1:2|1:0,0:0:0:0:
68,254,137244,2,0,P|60:190|54:138,1,101.999996887207,8|6,1:0|3:0,0:0:0:0:
123,37,137581,5,6,3:0:0:0:
194,137,137749,1,6,1:2:0:0:
73,137,137918,1,8,1:0:0:0:
202,67,138086,5,0,1:0:0:0:
298,191,138255,1,6,3:0:0:0:
169,234,138423,1,8,1:0:0:0:
315,117,138592,5,8,1:0:0:0:
436,253,138760,1,4,1:2:0:0:
265,323,138929,1,12,1:0:0:0:
261,292,139013,1,0,0:0:0:0:
257,261,139097,1,6,3:0:0:0:
253,230,139182,1,0,0:0:0:0:
250,199,139266,1,8,1:0:0:0:
247,168,139350,1,0,0:0:0:0:
244,137,139435,1,6,3:0:0:0:
241,106,139519,1,0,0:0:0:0:
236,75,139603,1,8,1:0:0:0:
181,88,139687,1,0,0:0:0:0:
150,135,139772,1,6,3:0:0:0:
142,190,139856,1,0,0:0:0:0:
159,242,139940,1,8,1:0:0:0:
156,297,140024,1,8,1:0:0:0:
116,337,140109,1,14,1:0:0:0:
62,319,140193,1,8,1:0:0:0:
47,265,140277,6,0,P|58:176|63:129,1,101.999996887207,14|0,1:0|0:0,0:0:0:0:
260,66,140614,2,0,P|254:116|247:167,1,101.999996887207,14|0,1:0|0:0,0:0:0:0:
230,204,140867,1,0,3:0:0:0:
239,243,140951,1,14,1:0:0:0:
274,263,141036,1,8,1:0:0:0:
314,259,141120,1,8,1:0:0:0:
340,228,141204,1,8,1:0:0:0:
368,199,141288,1,8,1:0:0:0:
407,187,141373,1,8,1:0:0:0:
446,198,141457,1,8,1:0:0:0:
480,219,141541,1,8,1:0:0:0:
489,258,141626,6,0,P|491:200|483:13,1,203.999993774414,4|0,1:0|0:0,0:0:0:0:
252,177,142974,6,0,L|267:360,1,170,2|2,0:0|0:0,0:0:0:0:
113,185,144491,6,0,L|170:197,1,50.9999984436036,4|0,1:0|0:0,0:0:0:0:
399,185,144659,1,12,1:0:0:0:
399,185,144996,6,0,L|342:197,1,50.9999984436036,4|0,1:0|0:0,0:0:0:0:
113,185,145164,1,12,1:0:0:0:
113,185,145502,6,0,L|170:197,1,50.9999984436036,4|0,1:0|0:0,0:0:0:0:
399,185,145670,1,12,1:0:0:0:
261,134,146008,6,0,L|256:101,4,21.25,2|2|2|2|2,0:0|0:0|0:0|0:0|3:0,0:0:0:0:
265,41,146513,1,0,0:0:0:0:
265,41,146682,2,0,L|256:-1,1,42.5,2|0,3:0|0:0,0:0:0:0:
156,55,147019,6,0,P|97:67|51:202,1,203.999993774414,12|0,1:0|0:0,0:0:0:0:
356,55,147524,2,0,P|415:67|461:202,1,203.999993774414,12|0,1:0|0:0,0:0:0:0:
257,159,148030,2,0,L|266:378,1,203.999993774414,12|0,1:0|0:0,0:0:0:0:
265,362,148536,5,2,0:0:0:0:
265,288,148704,1,2,0:0:0:0:
267,267,148788,1,2,0:0:0:0:
269,246,148873,1,2,0:0:0:0:
271,225,148957,1,2,0:0:0:0:
273,204,149041,1,2,3:0:0:0:
268,128,149210,1,2,3:0:0:0:
261,52,149378,2,0,L|266:0,3,28.3333333333333,2|2|8|8,3:0|3:0|1:0|1:0,0:0:0:0:
55,133,149884,6,0,P|56:174|56:200,1,50.9999984436036,4|0,1:0|0:0,0:0:0:0:
146,331,150052,1,12,1:0:0:0:
134,73,150390,6,0,P|135:114|135:140,1,50.9999984436036,4|0,1:0|0:0,0:0:0:0:
253,297,150558,1,12,1:0:0:0:
215,16,150895,6,0,P|216:57|216:83,1,50.9999984436036,4|0,1:0|0:0,0:0:0:0:
364,271,151063,1,12,1:0:0:0:
256,192,151148,12,4,152412,1:0:0:0:
213,155,152749,5,8,3:0:0:0:
287,136,152918,1,2,3:0:0:0:
309,209,153086,1,6,3:0:0:0:
236,227,153255,1,0,3:0:0:0:
124,174,153423,6,0,P|74:188|38:197,1,85,10|0,3:0|3:0,0:0:0:0:
19,317,153760,1,4,3:0:0:0:
137,321,153929,2,0,P|178:310|219:298,1,85,2|8,3:0|3:0,0:0:0:0:
288,331,154266,1,0,3:0:0:0:
436,232,154435,2,0,P|395:243|353:254,1,85,6|0,3:0|3:0,0:0:0:0:
163,198,154772,2,0,P|204:187|245:175,1,85,10|4,3:0|3:0,0:0:0:0:
248,159,155024,1,0,0:0:0:0:
249,141,155109,1,4,3:1:0:0:
500,95,155446,5,8,3:0:0:0:
449,34,155614,1,2,3:0:0:0:
381,68,155783,2,0,P|386:135|386:261,1,170,4|10,3:0|3:0,0:0:0:0:
350,306,156288,1,0,3:0:0:0:
297,204,156457,1,4,3:0:0:0:
201,270,156626,2,0,P|210:205|213:171,1,85,2|8,3:0|3:0,0:0:0:0:
206,108,156963,1,0,3:0:0:0:
60,232,157131,2,0,P|51:167|48:133,1,85,6|0,3:0|3:0,0:0:0:0:
140,4,157468,2,0,P|135:46|129:88,1,85,10|0,3:0|3:0,0:0:0:0:
140,100,157721,1,0,0:0:0:0:
151,112,157805,5,6,3:1:0:0:
274,135,157974,1,0,3:0:0:0:
196,204,158142,1,6,3:0:0:0:
334,192,158311,1,2,3:0:0:0:
303,288,158479,1,4,3:0:0:0:
416,207,158648,1,2,3:0:0:0:
427,302,158817,1,4,3:0:0:0:
489,178,158985,1,2,3:0:0:0:
358,148,159154,6,0,P|352:98|341:51,1,85,4|2,3:0|3:0,0:0:0:0:
297,203,159491,2,0,P|248:204|194:210,1,85,4|2,3:0|3:0,0:0:0:0:
338,276,159828,2,0,P|335:343|337:377,1,85,4|2,3:0|3:0,0:0:0:0:
417,238,160165,1,4,3:0:0:0:
433,241,160249,1,0,0:0:0:0:
449,245,160333,1,2,3:0:0:0:
361,158,160502,5,4,3:1:0:0:
344,158,160586,1,0,3:0:0:0:
327,159,160670,1,8,3:1:0:0:
309,161,160755,1,0,3:0:0:0:
292,163,160839,1,6,3:0:0:0:
275,165,160923,1,0,3:0:0:0:
258,168,161008,1,6,3:0:0:0:
241,170,161092,1,2,3:0:0:0:
224,173,161176,1,8,3:1:0:0:
186,165,161260,1,0,3:0:0:0:
147,167,161345,1,4,3:0:0:0:
109,160,161429,1,2,3:0:0:0:
71,166,161513,1,4,3:0:0:0:
45,121,161597,1,0,0:0:0:0:
62,72,161682,1,8,1:0:0:0:
106,47,161766,1,8,1:0:0:0:
152,66,161850,1,4,3:1:0:0:
255,12,162356,5,2,0:0:0:0:
312,66,162524,2,0,P|302:124|279:248,1,170,2|2,3:1|0:2,1:1:0:0:
250,274,162946,1,2,0:0:0:0:
268,297,163030,1,2,0:0:0:0:
261,325,163114,1,2,0:0:0:0:
263,353,163199,6,0,P|325:326|346:266,1,110.499994941712,4|0,1:0|1:0,0:0:0:0:
379,304,163451,1,0,1:0:0:0:
368,266,163536,1,8,1:0:0:0:
210,211,163704,2,0,P|207:147|203:71,1,110.499994941712,4|0,1:2|0:0,0:0:0:0:
259,22,164041,1,0,1:0:0:0:
312,125,164210,1,8,1:0:0:0:
130,151,164378,1,0,3:0:0:0:
46,15,164547,6,0,P|43:70|40:125,1,110.499994941712,6|8,3:0|1:0,0:0:0:0:
121,246,164884,1,0,1:0:0:0:
20,344,165052,2,0,P|22:288|21:98,1,220.999989883423,0|8,1:0|1:0,0:0:0:0:
180,182,165558,5,8,1:0:0:0:
212,177,165642,1,0,1:0:0:0:
245,172,165727,1,8,1:0:0:0:
277,168,165811,1,0,1:0:0:0:
309,164,165895,2,0,P|389:178|431:182,1,110.499994941712,4|0,1:0|1:0,0:0:0:0:
418,181,166148,1,0,1:0:0:0:
418,181,166232,1,8,1:0:0:0:
386,91,166401,1,4,0:2:0:0:
279,230,166569,2,0,P|226:292|202:326,1,110.499994941712,0|0,0:0|1:0,0:0:0:0:
190,59,166906,2,0,P|211:109|230:162,1,110.499994941712,8|2,1:0|3:0,0:0:0:0:
206,186,167159,1,0,0:0:0:0:
174,176,167244,6,0,P|94:172|44:163,1,110.499994941712,6|0,3:0|1:0,0:0:0:0:
12,94,167581,1,8,1:0:0:0:
136,311,167749,2,0,P|61:297|53:162,1,220.999989883423,0|0,3:0|1:0,0:0:0:0:
251,253,168255,5,8,1:0:0:0:
244,285,168339,1,0,1:0:0:0:
237,317,168423,1,6,3:0:0:0:
228,349,168508,1,0,1:0:0:0:
246,376,168592,2,0,P|228:309|209:243,1,110.499994941712,6|8,3:0|1:0,0:0:0:0:
184,260,168845,1,0,1:0:0:0:
184,226,168929,1,0,1:0:0:0:
298,162,169097,1,4,1:2:0:0:
114,75,169266,2,0,P|200:92|207:139,1,110.499994941712,0|8,0:0|1:0,0:0:0:0:
372,195,169603,2,0,P|314:260|270:243,1,110.499994941712,8|6,1:0|3:0,0:0:0:0:
130,344,169940,6,0,P|101:261|138:231,1,110.499994941712,6|6,3:0|1:2,0:0:0:0:
127,129,170277,1,8,1:0:0:0:
224,197,170446,1,0,1:0:0:0:
324,91,170614,1,6,3:0:0:0:
333,201,170783,1,8,1:0:0:0:
459,210,170951,1,8,1:0:0:0:
386,293,171120,1,4,1:2:0:0:
484,306,171288,5,12,1:0:0:0:
388,209,171457,1,6,3:0:0:0:
304,324,171626,1,8,1:0:0:0:
284,207,171794,1,6,3:0:0:0:
157,254,171963,1,8,1:0:0:0:
168,152,172131,1,6,3:0:0:0:
67,154,172300,1,8,1:0:0:0:
108,68,172468,1,6,3:0:0:0:
24,21,172637,5,6,3:0:0:0:
24,21,172721,1,0,0:0:0:0:
24,21,172805,1,2,3:0:0:0:
24,21,172890,1,0,0:0:0:0:
24,21,172974,1,6,3:0:0:0:
24,21,173058,1,0,0:0:0:0:
24,21,173142,1,2,3:0:0:0:
24,21,173227,1,0,0:0:0:0:
34,69,173311,1,6,3:0:0:0:
44,117,173395,1,0,3:0:0:0:
54,165,173479,1,2,3:0:0:0:
64,214,173564,1,0,3:0:0:0:
73,262,173648,1,6,3:0:0:0:
122,258,173732,1,0,3:0:0:0:
172,256,173817,1,2,3:0:0:0:
221,254,173901,1,0,3:0:0:0:
270,249,173985,6,0,P|330:267|388:280,1,110.499994941712,4|0,1:0|1:0,0:0:0:0:
376,277,174238,1,0,0:0:0:0:
376,277,174322,1,8,1:0:0:0:
491,217,174491,2,0,P|458:149|393:-3,1,220.999989883423,4|0,1:2|1:0,0:0:0:0:
338,78,174996,2,0,P|305:133|268:188,1,110.499994941712,8|0,1:0|3:0,0:0:0:0:
183,152,175333,5,6,3:0:0:0:
247,259,175502,1,0,0:0:0:0:
358,195,175670,1,8,1:0:0:0:
247,89,175839,2,0,P|175:77|105:64,1,110.499994941712,0|6,3:0|3:0,0:0:0:0:
71,127,176176,1,8,1:0:0:0:
201,248,176345,5,8,1:0:0:0:
216,277,176429,1,0,1:0:0:0:
230,306,176513,1,8,1:0:0:0:
244,335,176597,1,0,1:0:0:0:
257,365,176682,2,0,P|311:374|365:383,1,110.499994941712,4|0,1:0|1:0,0:0:0:0:
396,369,176935,1,0,1:0:0:0:
398,336,177019,1,8,1:0:0:0:
326,240,177187,2,0,P|322:177|306:3,1,220.999989883423,4|0,0:2|1:0,0:0:0:0:
400,111,177693,6,0,P|473:137|513:146,1,110.499994941712,8|2,1:0|3:0,0:0:0:0:
505,144,177946,1,0,0:0:0:0:
505,144,178030,1,6,3:0:0:0:
421,197,178199,1,0,1:0:0:0:
374,92,178367,1,8,1:0:0:0:
475,51,178536,1,0,3:0:0:0:
306,22,178704,2,0,P|298:93|293:145,1,110.499994941712,6|0,3:0|1:0,0:0:0:0:
203,228,179041,5,8,1:0:0:0:
170,220,179126,1,0,1:0:0:0:
137,212,179210,1,6,3:0:0:0:
104,204,179294,1,0,1:0:0:0:
72,195,179378,2,0,P|66:140|60:85,1,110.499994941712,6|8,3:0|1:0,0:0:0:0:
60,85,179631,1,0,1:0:0:0:
60,85,179715,1,0,1:0:0:0:
257,155,179884,2,0,P|250:231|244:398,1,220.999989883423,4|8,1:2|1:0,0:0:0:0:
334,309,180390,6,0,P|383:271|374:216,1,110.499994941712,8|6,1:0|3:0,0:0:0:0:
351,212,180642,1,0,0:0:0:0:
360,179,180727,1,6,3:0:0:0:
240,220,180895,1,6,1:2:0:0:
210,50,181064,1,8,1:0:0:0:
276,89,181232,1,0,1:0:0:0:
161,155,181401,1,6,3:0:0:0:
68,54,181569,1,8,1:0:0:0:
153,2,181738,1,8,1:0:0:0:
233,178,181906,1,4,1:2:0:0:
40,212,182075,5,12,1:0:0:0:
35,244,182159,1,0,0:0:0:0:
30,277,182244,1,6,3:0:0:0:
25,309,182328,1,0,0:0:0:0:
20,341,182412,1,8,1:0:0:0:
51,331,182496,1,0,0:0:0:0:
83,321,182581,1,6,3:0:0:0:
114,311,182665,1,0,0:0:0:0:
145,301,182749,1,8,1:0:0:0:
198,314,182833,1,0,0:0:0:0:
251,328,182918,1,6,3:0:0:0:
304,342,183002,1,0,0:0:0:0:
357,356,183086,1,8,1:0:0:0:
340,303,183170,1,8,1:0:0:0:
324,249,183255,1,14,1:0:0:0:
310,195,183339,1,8,1:0:0:0:
290,143,183423,6,0,P|302:81|320:0,1,110.499994941712,14|0,1:0|0:0,0:0:0:0:
141,119,183760,2,0,P|152:173|162:227,1,110.499994941712,14|0,1:0|0:0,0:0:0:0:
418,326,184097,2,0,P|430:264|448:183,1,110.499994941712,14|0,1:0|1:0,0:0:0:0:
464,208,184350,1,8,1:0:0:0:
443,156,184435,1,8,1:0:0:0:
476,112,184519,1,8,1:0:0:0:
459,59,184603,1,8,1:0:0:0:
477,48,184687,1,8,1:0:0:0:
