osu file format v14

[General]
AudioFilename: audio.mp3
AudioLeadIn: 0
PreviewTime: 12187
Countdown: 0
SampleSet: Soft
StackLeniency: 0.7
Mode: 0
LetterboxInBreaks: 0
WidescreenStoryboard: 1

[Editor]
Bookmarks: 184097
DistanceSpacing: 1.2
BeatDivisor: 4
GridSize: 32
TimelineZoom: 1.9

[Metadata]
Title:S.A.R.I.E.L.
TitleUnicode:S.A.R.I.E.L.
Artist:Akatsuki Records
ArtistUnicode:暁Records
Creator:Mirash
Version:Insane
Source:東方靈異伝 ~ Highly Responsive to Prayers
Tags:app rock japanese C100 Request Song Jukebox Vol.01 Stack Bros. 東方 project touhou ZUN - いざ、倒れ逝くその時まで sariel
BeatmapID:4386843
BeatmapSetID:2091456

[Difficulty]
HPDrainRate:5
CircleSize:4
OverallDifficulty:7.5
ApproachRate:8.5
SliderMultiplier:1.5
SliderTickRate:1

[Events]
//Background and Video events
0,0,"sariel.jpg",0,0
//Break Periods
//Storyboard Layer 0 (Background)
//Storyboard Layer 1 (Fail)
//Storyboard Layer 2 (Pass)
//Storyboard Layer 3 (Foreground)
//Storyboard Layer 4 (Overlay)
//Storyboard Sound Samples

[TimingPoints]
53,337.078651685393,4,2,1,50,1,0
11850,-133.333333333333,4,2,1,60,0,0
12524,-133.333333333333,4,2,1,40,0,0
15052,-133.333333333333,4,2,1,60,0,0
16569,-133.333333333333,4,2,1,40,0,0
17581,-133.333333333333,4,2,1,60,0,0
18929,-133.333333333333,4,2,1,40,0,0
20446,-133.333333333333,4,2,1,60,0,0
21963,-133.333333333333,4,2,1,40,0,0
22974,-133.333333333333,4,2,1,60,0,0
23311,-100,4,2,1,60,0,0
32412,-100,4,2,1,70,0,0
33760,-100,4,2,1,60,0,0
35109,-100,4,2,1,40,0,0
36457,-100,4,2,1,60,0,0
37805,-100,4,2,1,40,0,0
39154,-100,4,2,1,60,0,0
40502,-100,4,2,1,40,0,0
41850,-100,4,2,1,60,0,0
44547,-100,4,2,1,65,0,0
55333,-100,4,2,1,55,0,0
60727,-100,4,2,1,60,0,0
63423,-100,4,2,1,65,0,0
64772,-133.333333333333,4,2,1,65,0,0
65951,-133.333333333333,4,2,1,10,0,0
66120,-83.3333333333333,4,2,1,70,0,0
75558,-83.3333333333333,4,2,1,75,0,0
76232,-83.3333333333333,4,2,1,80,0,0
76906,-83.3333333333333,4,2,1,70,0,0
86008,-83.3333333333333,4,2,1,75,0,0
86345,-83.3333333333333,4,2,1,80,0,0
87019,-83.3333333333333,4,2,1,65,0,0
87693,-100,4,2,1,60,0,0
89041,-100,4,2,1,50,0,0
90389,-100,4,2,1,60,0,0
91737,-100,4,2,1,50,0,0
93086,-100,4,2,1,60,0,0
94434,-100,4,2,1,50,0,0
95782,-100,4,2,1,60,0,0
98479,-100,4,2,1,65,0,0
109266,-100,4,2,1,55,0,0
114659,-100,4,2,1,60,0,0
117356,-100,4,2,1,65,0,0
119884,-100,4,2,1,10,0,0
120052,-83.3333333333333,4,2,1,70,0,0
129491,-83.3333333333333,4,2,1,75,0,0
130165,-83.3333333333333,4,2,1,80,0,0
130839,-83.3333333333333,4,2,1,70,0,0
139940,-83.3333333333333,4,2,1,75,0,0
140277,-83.3333333333333,4,2,1,80,0,0
140951,-83.3333333333333,4,2,1,65,0,0
141626,-83.3333333333333,4,2,1,70,0,0
142974,-200,4,2,1,50,0,0
144491,-83.3333333333333,4,2,1,70,0,0
145839,-83.3333333333333,4,2,1,50,0,0
146008,-200,4,2,1,50,0,0
147019,-83.3333333333333,4,2,1,70,0,0
148536,-200,4,2,1,50,0,0
149378,-200,4,2,1,60,0,0
149884,-83.3333333333333,4,2,1,70,0,0
151401,-100,4,2,1,50,0,0
151738,-133.333333333333,4,2,1,90,0,0
152412,-83.3333333333333,4,2,1,60,0,0
152749,-100,4,2,1,60,0,0
163030,-100,4,2,1,60,0,0
163199,-76.9230769230769,4,2,1,75,0,0
171288,-76.9230769230769,4,2,1,80,0,0
173311,-76.9230769230769,4,2,1,85,0,0
173985,-76.9230769230769,4,2,1,75,0,0
182075,-76.9230769230769,4,2,1,80,0,0
183423,-76.9230769230769,4,2,1,90,0,0

[Colours]
Combo1 : 92,206,49
Combo2 : 71,132,70
Combo3 : 111,135,162
Combo4 : 79,130,187

[HitObjects]
327,127,1064,5,2,0:0:0:0:
327,127,1148,1,2,0:0:0:0:
327,127,1232,1,2,0:0:0:0:
327,127,1317,1,2,0:0:0:0:
327,127,1401,2,0,P|326:182|335:256,2,112.5,4|0|0,1:0|0:0|0:0,0:0:0:0:
109,81,2581,1,0,0:0:0:0:
37,114,2749,2,0,P|38:169|29:243,2,112.5,2|0|2,0:0|0:0|0:0,0:0:0:0:
246,201,3592,1,0,0:0:0:0:
255,12,3760,5,2,0:0:0:0:
255,12,3844,1,2,0:0:0:0:
255,12,3928,1,2,0:0:0:0:
255,12,4013,1,2,0:0:0:0:
255,12,4097,2,0,P|256:67|247:141,2,112.5,4|0|2,1:0|0:0|0:0,0:0:0:0:
259,249,5277,1,0,0:0:0:0:
301,186,5446,2,0,P|300:241|309:315,2,112.5,2|0|2,0:0|0:0|0:0,0:0:0:0:
74,191,6288,1,0,0:0:0:0:
150,173,6457,5,2,0:0:0:0:
167,178,6541,1,2,0:0:0:0:
185,183,6626,1,2,0:0:0:0:
202,188,6710,1,2,0:0:0:0:
220,192,6794,2,0,P|287:187|350:182,2,112.5,4|0|4,1:0|0:0|0:0,0:0:0:0:
398,145,7974,1,2,0:0:0:0:
453,200,8142,2,0,P|467:245|473:319,1,112.5,2|0,0:0|0:0,0:0:0:0:
225,332,8648,2,0,P|229:276|266:190,1,150,2|0,0:0|0:0,0:0:0:0:
241,117,9154,1,2,0:0:0:0:
17,200,9491,6,0,P|66:211|144:219,1,112.5,4|0,1:0|0:0,0:0:0:0:
249,314,9996,2,0,P|305:303|413:293,1,150,2|0,1:2|0:0,0:0:0:0:
447,237,10502,1,0,1:0:0:0:
447,237,10670,1,0,0:0:0:0:
406,171,10839,1,2,1:0:0:0:
510,281,11176,1,2,1:0:0:0:
369,307,11513,1,2,1:0:0:0:
209,158,11850,5,8,1:0:0:0:
176,166,11935,1,8,1:0:0:0:
145,179,12019,1,8,1:0:0:0:
112,188,12103,1,8,1:0:0:0:
82,203,12187,1,12,1:0:0:0:
0,191,13536,6,0,P|41:201|229:243,1,225.000008583069,2|2,1:0|1:0,0:0:0:0:
325,172,14547,1,2,3:0:0:0:
470,349,15052,6,0,P|462:323|455:299,1,28.1250010728836,4|0,1:0|0:0,0:0:0:0:
494,221,15221,1,12,1:0:0:0:
304,238,15558,6,0,P|310:211|316:187,1,28.1250010728836,4|0,1:0|0:0,0:0:0:0:
409,128,15727,1,12,1:0:0:0:
186,115,16064,6,0,P|204:95|221:77,1,28.1250010728836,4|0,1:0|0:0,0:0:0:0:
366,28,16233,1,12,1:0:0:0:
489,128,16569,5,2,3:0:0:0:
485,138,16654,1,2,0:0:0:0:
481,148,16738,1,2,0:0:0:0:
477,158,16822,1,2,0:0:0:0:
473,168,16906,2,0,P|480:204|485:246,1,56.2500021457673,2|2,3:0|0:0,0:0:0:0:
342,304,17244,2,0,P|337:276|332:248,1,56.2500021457673,2|0,3:0|0:0,0:0:0:0:
282,81,17581,6,0,P|219:80|185:119,1,112.500004291535,12|0,1:0|1:0,0:0:0:0:
220,301,18086,2,0,P|252:246|236:196,1,112.500004291535,12|0,1:0|0:0,0:0:0:0:
61,135,18592,2,0,P|91:190|140:199,1,112.500004291535,12|2,1:0|3:0,0:0:0:0:
187,113,19097,5,2,0:0:0:0:
104,49,19266,1,2,3:0:0:0:
104,49,19350,1,2,0:0:0:0:
104,49,19435,1,2,0:0:0:0:
104,49,19519,1,2,0:0:0:0:
104,49,19603,1,2,3:0:0:0:
256,57,19940,2,0,L|247:-1,3,37.5000014305115,2|2|2|2,3:0|3:0|3:0|0:0,0:0:0:0:
351,97,20446,6,0,L|342:137,1,28.1250010728836,4|0,1:0|0:0,0:0:0:0:
266,203,20614,1,12,1:0:0:0:
165,142,20951,6,0,L|174:182,1,28.1250010728836,4|0,1:0|0:0,0:0:0:0:
263,277,21119,1,12,1:0:0:0:
378,234,21457,6,0,L|369:274,1,28.1250010728836,4|0,1:0|0:0,0:0:0:0:
252,353,21625,1,12,1:0:0:0:
256,192,21794,12,4,22974,1:0:0:0:
129,151,23311,6,0,P|126:94|126:50,1,75,10|0,1:0|0:0,0:0:0:0:
222,122,23648,1,2,3:0:0:0:
155,226,23817,1,2,0:0:0:0:
47,158,23985,1,10,1:0:0:0:
240,196,24154,6,0,P|232:253|226:370,1,150,2|0,0:1|0:0,0:0:0:0:
321,282,24659,2,0,P|359:238|357:190,1,75,10|2,1:0|0:0,0:0:0:0:
257,106,24996,1,0,3:0:0:0:
149,180,25165,1,2,0:0:0:0:
209,231,25333,1,10,1:0:0:0:
182,105,25502,6,0,P|186:49|188:9,2,75,2|2|0,0:1|3:0|0:0,0:0:0:0:
284,193,26008,2,0,P|343:203|370:209,1,75,10|0,1:0|0:0,0:0:0:0:
141,271,26345,2,0,P|132:319|125:361,1,75,2|2,3:0|0:0,0:0:0:0:
73,182,26682,2,0,P|25:173|-17:166,1,75,10|6,1:0|0:0,0:0:0:0:
144,140,27019,5,4,3:0:0:0:
226,189,27187,1,0,0:0:0:0:
152,229,27356,1,10,1:0:0:0:
254,147,27524,5,0,0:0:0:0:
311,270,27693,1,2,3:0:0:0:
193,305,27861,1,2,0:1:0:0:
366,219,28030,5,10,1:0:0:0:
353,358,28199,1,0,0:0:0:0:
353,358,28283,1,0,0:0:0:0:
353,358,28367,2,0,P|334:313|321:271,1,75,4|2,1:0|0:0,0:0:0:0:
209,203,28704,2,0,P|257:209|300:218,1,75,10|0,1:0|0:0,0:0:0:0:
412,160,29041,2,0,P|382:198|352:231,1,75,2|2,3:0|0:0,0:0:0:0:
255,290,29378,5,10,1:0:0:0:
306,148,29547,1,2,0:0:0:0:
246,81,29715,2,0,L|239:28,1,37.5,0|0,3:0|0:0,0:0:0:0:
317,51,29884,2,0,L|310:-2,1,37.5,0|0,3:0|0:0,0:0:0:0:
393,85,30052,2,0,P|389:144|389:192,1,75,10|0,3:0|3:0,0:0:0:0:
266,81,30390,2,0,L|273:28,1,37.5,0|0,3:0|1:0,0:0:0:0:
195,51,30559,2,0,L|202:-2,1,37.5,0|0,3:0|0:0,0:0:0:0:
119,85,30727,2,0,P|123:144|123:192,1,75,10|0,3:0|3:0,0:0:0:0:
256,221,31064,5,8,1:0:0:0:
255,228,31148,1,8,1:0:0:0:
254,235,31232,1,8,1:0:0:0:
253,242,31317,1,8,1:0:0:0:
252,249,31401,1,8,1:0:0:0:
251,256,31485,1,0,1:0:0:0:
250,263,31569,1,8,1:0:0:0:
249,270,31654,1,8,1:0:0:0:
248,277,31738,2,0,L|259:320,3,37.5,8|8|8|8,1:0|1:0|1:0|1:0,0:0:0:0:
181,316,32075,2,0,L|192:359,3,37.5,8|8|8|8,1:0|1:0|1:0|1:0,0:0:0:0:
105,291,32412,6,0,P|59:271|53:183,1,112.5,4|0,1:0|0:0,0:0:0:0:
57,207,32749,2,0,P|57:153|56:119,1,75,4|0,1:2|0:0,0:0:0:0:
211,66,33086,1,8,1:0:0:0:
208,82,33170,1,8,1:0:0:0:
205,99,33255,1,8,1:0:0:0:
201,116,33339,1,8,1:0:0:0:
198,132,33423,1,8,1:0:0:0:
195,149,33508,1,8,1:0:0:0:
191,166,33592,1,8,1:0:0:0:
188,182,33676,1,8,1:0:0:0:
186,197,33760,6,0,P|199:256|205:283,1,75,4|0,3:1|0:0,0:0:0:0:
363,265,34097,2,0,P|354:228|346:191,1,75,2|0,1:3|0:0,0:0:0:0:
278,153,34435,1,0,3:0:0:0:
412,85,34603,1,2,0:0:0:0:
468,220,34772,1,2,1:3:0:0:
416,163,34940,1,2,0:0:0:0:
492,147,35109,6,0,P|485:194|483:237,1,75,0|0,3:0|0:0,0:0:0:0:
350,281,35446,2,0,P|352:243|358:206,1,75,0|0,3:0|0:0,0:0:0:0:
311,142,35783,1,0,3:0:0:0:
238,131,35951,1,0,0:0:0:0:
191,193,36120,1,0,3:0:0:0:
231,259,36288,1,0,0:0:0:0:
104,217,36457,6,0,P|101:179|95:142,1,75,0|0,3:0|0:0,0:0:0:0:
31,51,36794,1,2,1:3:0:0:
149,76,36963,1,0,0:0:0:0:
15,129,37131,1,0,3:0:0:0:
100,11,37300,1,2,0:0:0:0:
98,148,37468,2,0,P|103:185|106:222,1,75,2|2,1:3|0:0,0:0:0:0:
55,286,37805,5,0,3:0:0:0:
100,346,37974,1,0,0:0:0:0:
176,331,38142,2,0,P|213:325|250:322,1,75,0|0,3:0|0:0,0:0:0:0:
300,263,38479,1,0,3:0:0:0:
377,266,38648,1,0,0:0:0:0:
432,331,38817,1,0,3:0:0:0:
432,331,38985,1,0,0:0:0:0:
300,263,39154,6,0,P|294:225|291:188,1,75,0|2,3:0|0:0,0:0:0:0:
465,109,39491,2,0,P|467:146|473:183,1,75,2|2,1:3|0:0,0:0:0:0:
433,247,39828,1,0,3:0:0:0:
341,129,39996,1,2,0:0:0:0:
463,34,40165,1,2,1:3:0:0:
386,21,40333,1,2,0:0:0:0:
415,94,40502,5,0,3:0:0:0:
308,58,40670,1,0,0:0:0:0:
353,198,40839,2,0,P|347:160|344:123,1,75,0|0,3:0|0:0,0:0:0:0:
205,38,41176,2,0,P|207:75|213:112,1,75,0|0,3:0|0:0,0:0:0:0:
270,167,41513,1,0,3:0:0:0:
230,234,41682,1,0,0:0:0:0:
31,176,41850,5,0,3:0:0:0:
139,115,42019,1,2,0:0:0:0:
45,94,42187,1,2,1:3:0:0:
119,194,42356,1,2,0:0:0:0:
19,267,42524,1,2,3:2:0:0:
144,360,42693,1,2,3:2:0:0:
256,263,42861,1,2,1:3:0:0:
176,277,43030,1,2,3:2:0:0:
286,358,43199,5,4,3:0:0:0:
310,347,43283,1,4,3:0:0:0:
334,337,43367,1,4,3:0:0:0:
358,327,43451,1,4,3:0:0:0:
382,317,43536,1,4,3:0:0:0:
413,187,43704,1,4,3:0:0:0:
426,180,43788,1,4,3:0:0:0:
439,173,43873,1,4,3:0:0:0:
452,167,43957,1,4,3:0:0:0:
465,161,44041,1,4,3:0:0:0:
457,49,44210,1,4,3:0:0:0:
463,46,44294,1,4,3:0:0:0:
469,43,44378,1,4,3:0:0:0:
475,40,44463,1,4,3:0:0:0:
481,36,44547,6,0,P|422:38|394:37,1,75,4|2,1:0|0:1,0:0:0:0:
289,101,44884,2,0,P|252:102|215:102,1,75,10|0,1:0|0:0,0:0:0:0:
113,39,45221,1,2,3:1:0:0:
66,147,45390,1,0,0:0:0:0:
143,115,45558,1,10,1:0:0:0:
39,70,45727,1,0,0:0:0:0:
29,218,45895,6,0,P|66:218|103:216,1,75,2|2,3:0|0:0,0:0:0:0:
214,172,46232,1,10,1:0:0:0:
205,297,46401,1,2,0:0:0:0:
173,233,46569,1,2,3:0:0:0:
282,274,46738,1,2,0:0:0:0:
154,355,46906,2,0,P|116:356|79:356,1,75,10|2,1:0|0:0,0:0:0:0:
225,381,47244,5,4,3:2:0:0:
334,335,47412,1,2,0:1:0:0:
252,303,47581,2,0,P|250:265|250:228,1,75,10|0,1:0|0:0,0:0:0:0:
210,137,47918,1,2,3:1:0:0:
308,181,48086,1,0,0:0:0:0:
177,226,48255,1,10,1:0:0:0:
132,158,48423,1,0,0:0:0:0:
208,62,48592,6,0,P|207:99|209:136,1,75,2|2,3:0|0:0,0:0:0:0:
327,256,48929,2,0,P|325:218|325:181,1,75,10|2,1:0|0:0,0:0:0:0:
154,198,49266,2,0,P|153:235|155:272,1,75,2|2,3:0|0:0,0:0:0:0:
243,342,49603,1,10,1:0:0:0:
245,243,49772,1,2,0:0:0:0:
150,353,49940,6,0,P|112:354|75:354,1,75,4|2,3:2|0:1,0:0:0:0:
33,253,50277,1,10,1:0:0:0:
33,253,50446,1,0,0:0:0:0:
150,249,50614,2,0,P|148:211|148:174,1,75,2|0,3:1|0:0,0:0:0:0:
23,87,50951,2,0,P|60:85|97:85,1,75,10|0,1:0|0:0,0:0:0:0:
183,9,51288,5,2,3:0:0:0:
253,88,51457,1,2,0:0:0:0:
175,89,51626,1,10,1:0:0:0:
258,9,51794,1,2,0:0:0:0:
255,163,51963,1,2,3:0:0:0:
407,91,52131,1,2,0:0:0:0:
315,79,52300,1,10,1:0:0:0:
354,177,52468,1,2,0:0:0:0:
484,150,52637,6,0,P|482:112|482:75,1,75,0|2,3:0|0:1,0:0:0:0:
285,145,52974,2,0,P|284:182|286:219,1,75,10|0,1:0|0:0,0:0:0:0:
355,300,53311,1,2,3:1:0:0:
263,318,53479,1,0,3:0:0:0:
376,204,53648,1,10,3:0:0:0:
288,220,53817,1,0,3:0:0:0:
411,357,53985,5,6,3:0:0:0:
434,345,54069,1,4,3:0:0:0:
457,333,54154,1,4,3:0:0:0:
480,321,54238,1,4,3:0:0:0:
502,308,54322,1,12,3:0:0:0:
411,172,54491,1,4,3:0:0:0:
397,178,54575,1,4,3:0:0:0:
383,184,54659,1,4,3:0:0:0:
369,190,54744,1,4,3:0:0:0:
355,196,54828,1,4,3:0:0:0:
194,91,54996,1,4,3:0:0:0:
201,89,55081,1,4,3:0:0:0:
208,87,55165,1,4,3:0:0:0:
215,85,55249,1,4,3:0:0:0:
222,83,55333,6,0,P|219:29|218:-7,1,75,4|2,1:0|3:0,0:0:0:0:
336,0,55670,2,0,P|337:37|339:74,1,75,8|2,1:0|3:0,0:0:0:0:
286,147,56008,1,6,3:0:0:0:
290,184,56176,1,2,3:0:0:0:
294,221,56345,1,8,1:0:0:0:
298,258,56513,1,2,3:0:0:0:
364,375,56682,6,0,P|363:338|361:301,1,75,4|2,3:0|3:0,0:0:0:0:
243,309,57019,2,0,P|245:346|247:384,1,75,8|2,1:0|3:0,0:0:0:0:
298,258,57356,1,6,3:0:0:0:
294,221,57524,1,2,3:0:0:0:
290,184,57693,1,8,1:0:0:0:
286,147,57861,1,2,3:0:0:0:
155,131,58030,6,0,P|156:93|158:56,1,75,4|2,1:0|3:0,0:0:0:0:
41,48,58367,2,0,P|38:85|37:122,1,75,8|2,1:0|3:0,0:0:0:0:
31,202,58704,1,6,3:0:0:0:
66,213,58873,1,2,3:0:0:0:
102,222,59041,1,8,1:0:0:0:
138,231,59210,1,2,3:0:0:0:
240,191,59378,5,6,3:0:0:0:
276,200,59547,1,2,3:0:0:0:
312,209,59715,2,0,L|297:261,3,37.5,8|2|2|2,1:0|0:0|3:0|0:0,0:0:0:0:
382,178,60052,2,0,P|394:134|403:100,1,75,6|2,3:0|3:0,0:0:0:0:
431,240,60390,2,0,P|421:276|411:312,1,75,8|2,1:0|3:0,0:0:0:0:
240,239,60727,5,4,1:0:0:0:
162,256,60895,1,2,3:0:0:0:
114,197,61064,2,0,P|123:160|133:124,1,75,8|2,1:0|3:0,0:0:0:0:
272,145,61401,1,6,3:0:0:0:
350,128,61569,1,2,3:0:0:0:
398,187,61738,2,0,P|388:223|378:259,1,75,8|2,1:0|3:0,0:0:0:0:
268,311,62075,5,6,3:0:0:0:
242,240,62244,1,2,3:0:0:0:
288,175,62412,1,8,1:0:0:0:
259,105,62581,1,2,3:0:0:0:
198,175,62749,5,6,3:0:0:0:
242,240,62918,1,2,3:0:0:0:
317,264,63086,1,8,1:0:0:0:
290,334,63255,1,2,3:0:0:0:
176,377,63423,5,8,1:0:0:0:
171,358,63508,1,8,1:0:0:0:
167,339,63592,1,8,1:0:0:0:
163,320,63676,1,8,1:0:0:0:
159,301,63760,1,8,1:0:0:0:
155,282,63845,1,8,1:0:0:0:
151,263,63929,1,8,1:0:0:0:
147,244,64013,1,8,1:0:0:0:
141,226,64097,2,0,L|150:178,3,37.5,8|8|8|8,1:0|1:0|1:0|1:0,0:0:0:0:
79,177,64435,2,0,L|88:129,3,37.5,8|8|8|8,1:0|1:0|1:0|1:0,0:0:0:0:
74,65,64772,6,0,B|105:25|105:25|202:97,1,168.750006437302,4|0,3:1|0:0,0:0:0:0:
238,161,65446,2,0,P|286:139|291:25,1,168.750006437302,2|0,0:0|0:0,0:0:0:0:
391,101,66120,6,0,P|388:157|386:202,1,89.9999972534181,4|0,1:0|1:0,0:0:0:0:
386,190,66373,1,0,1:0:0:0:
386,190,66457,1,8,1:0:0:0:
460,292,66626,1,4,1:2:0:0:
266,367,66794,2,0,P|281:304|393:291,1,179.999994506836,0|8,3:0|1:0,0:0:0:0:
358,357,67300,1,0,3:0:0:0:
189,306,67468,2,0,P|191:261|193:216,1,89.9999972534181,6|8,3:0|1:0,0:0:0:0:
106,132,67805,1,0,1:0:0:0:
298,47,67974,2,0,P|236:36|198:133,1,179.999994506836,0|8,3:0|1:0,0:0:0:0:
363,181,68479,5,8,1:0:0:0:
385,176,68564,1,0,1:0:0:0:
407,172,68648,1,8,1:0:0:0:
429,168,68732,1,0,1:0:0:0:
451,164,68817,2,0,P|458:239|465:273,1,89.9999972534181,4|0,1:0|1:0,0:0:0:0:
460,253,69069,1,0,1:0:0:0:
460,253,69154,1,8,1:0:0:0:
360,271,69322,1,4,0:2:0:0:
285,367,69491,2,0,P|278:322|252:153,1,179.999994506836,0|8,0:0|1:0,0:0:0:0:
83,199,69996,5,2,3:0:0:0:
83,199,70081,1,0,0:0:0:0:
83,199,70165,2,0,P|103:140|111:106,1,89.9999972534181,6|0,3:0|1:0,0:0:0:0:
57,33,70502,1,8,1:0:0:0:
151,49,70670,2,0,P|238:71|342:88,1,179.999994506836,0|0,3:0|1:0,0:0:0:0:
487,70,71176,5,8,1:0:0:0:
477,90,71260,1,0,1:0:0:0:
467,110,71345,1,6,3:0:0:0:
458,130,71429,1,0,1:0:0:0:
448,150,71513,2,0,P|465:206|478:244,1,89.9999972534181,6|8,3:0|1:0,0:0:0:0:
475,235,71766,1,0,1:0:0:0:
475,235,71850,1,0,1:0:0:0:
370,204,72019,1,4,1:2:0:0:
306,351,72187,2,0,P|364:338|378:204,1,179.999994506836,0|8,0:0|1:0,0:0:0:0:
243,251,72693,1,6,3:0:0:0:
202,140,72861,6,0,P|266:145|313:151,1,89.9999972534181,6|6,3:0|1:2,0:0:0:0:
282,330,73199,2,0,P|237:333|192:338,1,89.9999972534181,8|0,1:0|1:0,0:0:0:0:
104,191,73536,5,6,3:0:0:0:
181,262,73704,1,8,1:0:0:0:
91,278,73873,1,8,1:0:0:0:
196,172,74041,1,4,1:2:0:0:
32,135,74210,6,0,L|19:78,1,44.999998626709,12|0,1:0|0:0,0:0:0:0:
111,143,74378,2,0,L|98:86,1,44.999998626709,6|0,3:0|0:0,0:0:0:0:
175,88,74547,1,8,1:0:0:0:
215,21,74715,1,6,3:0:0:0:
318,135,74884,6,0,L|331:78,1,44.999998626709,8|0,1:0|0:0,0:0:0:0:
239,143,75052,2,0,L|252:86,1,44.999998626709,6|0,3:0|0:0,0:0:0:0:
175,88,75221,1,8,1:0:0:0:
135,21,75389,1,6,3:0:0:0:
261,10,75558,5,6,3:0:0:0:
261,10,75642,1,0,3:0:0:0:
261,10,75727,1,2,3:0:0:0:
261,10,75811,1,0,3:0:0:0:
261,10,75895,1,6,3:0:0:0:
283,13,75979,1,0,3:0:0:0:
305,17,76064,1,2,3:0:0:0:
327,21,76148,1,0,3:0:0:0:
348,26,76232,2,0,L|355:80,3,44.999998626709,6|0|2|0,3:0|3:0|3:0|3:0,0:0:0:0:
427,101,76569,5,6,3:0:0:0:
418,136,76654,1,0,3:0:0:0:
409,170,76738,1,2,3:0:0:0:
400,204,76822,1,0,3:0:0:0:
391,238,76906,2,0,P|402:304|402:352,1,89.9999972534181,4|0,1:0|1:0,0:0:0:0:
402,326,77159,1,0,0:0:0:0:
402,326,77244,1,8,1:0:0:0:
284,284,77412,1,4,1:2:0:0:
206,377,77581,2,0,P|150:342|158:221,1,179.999994506836,0|8,3:0|1:0,0:0:0:0:
89,112,78086,5,0,3:0:0:0:
202,145,78255,2,0,P|202:94|196:32,1,89.9999972534181,6|0,3:0|0:0,0:0:0:0:
8,68,78592,2,0,P|11:112|10:157,1,89.9999972534181,8|0,1:0|3:0,0:0:0:0:
228,225,78929,2,0,P|227:143|226:103,1,89.9999972534181,6|8,3:0|1:0,0:0:0:0:
351,201,79266,1,8,1:0:0:0:
381,182,79350,1,0,1:0:0:0:
362,150,79435,1,8,1:0:0:0:
459,162,79603,6,0,P|460:220|469:359,1,179.999994506836,4|8,1:0|1:0,0:0:0:0:
246,382,80109,2,0,P|252:292|254:202,1,179.999994506836,4|0,0:2|1:0,0:0:0:0:
132,126,80614,2,0,P|130:69|133:12,1,89.9999972534181,8|2,1:0|3:0,0:0:0:0:
131,36,80867,1,0,0:0:0:0:
131,36,80951,1,6,3:0:0:0:
219,109,81120,1,0,1:0:0:0:
137,200,81288,1,8,1:0:0:0:
56,122,81457,1,0,3:0:0:0:
56,122,81541,1,0,0:0:0:0:
56,122,81626,1,6,3:0:0:0:
134,109,81794,1,0,1:0:0:0:
200,251,81963,5,8,1:0:0:0:
196,268,82047,1,0,1:0:0:0:
192,285,82131,1,6,3:0:0:0:
188,302,82215,1,2,1:0:0:0:
186,320,82300,2,0,P|111:331|69:344,1,89.9999972534181,6|8,3:0|1:0,0:0:0:0:
97,334,82552,1,0,1:0:0:0:
97,334,82637,1,0,1:0:0:0:
130,247,82805,1,4,1:2:0:0:
260,338,82974,2,0,P|303:328|348:323,1,89.9999972534181,0|8,0:0|1:0,0:0:0:0:
486,201,83311,2,0,P|441:205|397:215,1,89.9999972534181,8|6,1:0|3:0,0:0:0:0:
321,144,83648,5,6,3:0:0:0:
209,200,83817,1,6,1:2:0:0:
324,255,83985,1,8,1:0:0:0:
256,102,84154,5,0,1:0:0:0:
174,202,84322,1,6,3:0:0:0:
310,245,84491,1,8,1:0:0:0:
196,51,84659,5,8,1:0:0:0:
133,205,84828,1,4,1:2:0:0:
293,233,84996,1,12,1:0:0:0:
309,239,85081,1,0,0:0:0:0:
325,245,85165,1,6,3:0:0:0:
341,251,85249,1,0,0:0:0:0:
357,257,85333,1,8,1:0:0:0:
373,263,85418,1,0,0:0:0:0:
389,269,85502,1,6,3:0:0:0:
405,275,85586,1,0,0:0:0:0:
421,282,85670,2,0,L|411:337,3,44.999998626709,8|0|6|0,1:0|1:0|3:0|1:0,0:0:0:0:
501,264,86008,2,0,L|491:319,3,44.999998626709,8|8|14|8,1:0|1:0|1:0|1:0,0:0:0:0:
458,186,86345,6,0,P|459:126|454:55,1,89.9999972534181,14|0,1:0|0:0,0:0:0:0:
250,25,86682,2,0,P|248:69|249:114,1,89.9999972534181,14|0,1:0|0:0,0:0:0:0:
229,234,87019,1,14,1:0:0:0:
232,251,87103,1,8,1:0:0:0:
235,268,87187,1,8,1:0:0:0:
238,285,87272,1,8,1:0:0:0:
241,302,87356,1,8,1:0:0:0:
244,319,87440,1,8,1:0:0:0:
248,336,87524,1,8,1:0:0:0:
254,353,87609,1,8,1:0:0:0:
260,366,87693,6,0,P|325:353|360:345,1,75,4|0,3:1|0:0,0:0:0:0:
405,287,88030,2,0,P|441:294|478:301,1,75,2|0,1:3|0:0,0:0:0:0:
410,372,88367,1,0,3:0:0:0:
326,276,88536,1,2,0:0:0:0:
370,213,88704,1,2,1:3:0:0:
268,122,88873,1,2,0:0:0:0:
341,67,89041,6,0,P|349:122|351:159,1,75,0|4,3:0|0:2,0:0:0:0:
193,144,89378,2,0,P|196:106|202:69,1,75,0|0,3:0|0:0,0:0:0:0:
268,32,89715,1,4,3:0:0:0:
268,32,89884,1,0,0:0:0:0:
276,188,90052,1,4,3:0:0:0:
276,188,90221,1,0,0:0:0:0:
129,170,90390,6,0,P|76:184|45:196,1,75,0|0,3:0|0:0,0:0:0:0:
12,128,90727,1,2,1:3:0:0:
36,266,90895,1,0,0:0:0:0:
244,254,91064,2,0,P|208:241|172:233,1,75,0|2,3:0|0:0,0:0:0:0:
248,176,91401,1,2,1:3:0:0:
231,328,91569,1,2,0:0:0:0:
346,222,91738,6,0,P|381:209|417:201,1,75,0|4,3:0|0:2,0:0:0:0:
512,304,92075,2,0,P|476:316|440:324,1,75,4|0,3:0|3:0,0:0:0:0:
362,318,92412,1,4,3:0:0:0:
298,267,92581,1,0,0:0:0:0:
176,327,92749,1,4,3:0:0:0:
124,275,92918,1,0,0:0:0:0:
223,198,93086,6,0,P|216:154|213:120,1,75,0|2,3:0|0:0,0:0:0:0:
401,70,93423,2,0,P|397:107|391:144,1,75,2|2,1:3|0:0,0:0:0:0:
327,212,93760,1,0,3:0:0:0:
302,128,93929,1,2,0:0:0:0:
406,222,94097,1,2,1:3:0:0:
315,297,94266,1,2,0:0:0:0:
208,224,94435,5,0,3:0:0:0:
133,227,94603,1,4,0:2:0:0:
220,305,94772,2,0,P|216:260|216:212,1,75,4|4,3:0|0:2,0:0:0:0:
55,186,95109,2,0,P|54:223|50:260,1,75,4|2,3:0|0:0,0:0:0:0:
172,163,95446,2,0,P|168:118|168:70,1,75,4|2,3:0|0:0,0:0:0:0:
295,25,95783,5,0,3:0:0:0:
376,111,95951,1,2,0:0:0:0:
271,117,96120,1,2,1:3:0:0:
397,16,96288,1,2,0:0:0:0:
433,173,96457,2,0,P|432:210|428:247,1,75,2|2,3:2|3:2,0:0:0:0:
315,291,96794,1,2,1:3:0:0:
412,362,96963,1,2,3:2:0:0:
340,172,97131,5,4,3:0:0:0:
314,176,97215,1,4,3:0:0:0:
288,181,97300,1,4,3:0:0:0:
262,186,97384,1,4,3:0:0:0:
236,191,97468,1,4,3:0:0:0:
46,74,97637,1,4,3:0:0:0:
72,78,97721,1,4,3:0:0:0:
98,83,97806,1,4,3:0:0:0:
124,88,97890,1,4,3:0:0:0:
150,93,97974,1,4,3:0:0:0:
289,11,98142,1,4,3:0:0:0:
307,14,98227,1,4,3:0:0:0:
325,17,98311,1,4,3:0:0:0:
343,20,98395,1,4,3:0:0:0:
361,21,98479,6,0,P|359:67|357:109,1,75,4|2,1:0|0:1,0:0:0:0:
286,170,98817,1,10,1:0:0:0:
381,230,98985,1,0,0:0:0:0:
457,132,99154,2,0,P|455:94|453:57,1,75,2|0,3:1|0:0,0:0:0:0:
506,197,99491,1,10,1:0:0:0:
506,197,99659,1,0,0:0:0:0:
384,257,99828,6,0,P|385:294|387:331,1,75,2|2,3:0|0:0,0:0:0:0:
264,245,100165,2,0,P|265:207|267:170,1,75,10|2,1:0|0:0,0:0:0:0:
211,86,100502,1,2,3:0:0:0:
166,170,100670,1,2,0:0:0:0:
307,95,100839,1,10,1:0:0:0:
170,15,101008,1,2,0:0:0:0:
116,102,101176,5,4,3:2:0:0:
192,91,101345,1,2,0:1:0:0:
83,33,101513,1,10,1:0:0:0:
60,155,101682,1,0,0:0:0:0:
133,180,101850,2,0,P|131:217|129:254,1,75,2|0,3:1|0:0,0:0:0:0:
15,284,102187,2,0,P|13:246|11:209,1,75,10|0,1:0|0:0,0:0:0:0:
94,333,102524,5,2,3:0:0:0:
189,357,102693,1,2,0:0:0:0:
243,276,102861,1,10,1:0:0:0:
400,341,103030,1,2,0:0:0:0:
330,375,103199,1,2,3:0:0:0:
320,302,103367,1,2,0:0:0:0:
390,267,103536,2,0,P|391:229|393:192,1,75,10|2,1:0|0:0,0:0:0:0:
233,113,103873,6,0,P|286:146|315:170,1,75,4|2,3:2|0:1,0:0:0:0:
410,45,104210,2,0,P|383:79|361:117,1,75,10|0,1:0|0:0,0:0:0:0:
282,23,104547,1,2,3:1:0:0:
282,23,104715,1,0,0:0:0:0:
156,106,104884,1,10,1:0:0:0:
156,106,105052,1,0,0:0:0:0:
255,193,105221,5,2,3:0:0:0:
250,103,105390,1,2,0:0:0:0:
181,232,105558,1,10,1:0:0:0:
328,248,105727,1,2,0:0:0:0:
358,178,105895,2,0,P|358:131|356:88,1,75,2|2,3:0|0:0,0:0:0:0:
109,175,106232,2,0,P|107:212|107:249,1,75,10|2,1:0|0:0,0:0:0:0:
164,300,106569,5,0,3:0:0:0:
31,227,106738,1,2,0:1:0:0:
180,151,106906,1,10,1:0:0:0:
180,151,107075,1,0,0:0:0:0:
107,214,107244,5,2,3:1:0:0:
129,59,107412,1,0,3:0:0:0:
272,138,107581,1,10,3:0:0:0:
272,138,107749,1,0,3:0:0:0:
236,252,107918,5,6,3:0:0:0:
240,277,108002,1,4,3:0:0:0:
244,302,108086,1,4,3:0:0:0:
249,327,108170,1,4,3:0:0:0:
254,352,108255,1,12,3:0:0:0:
399,293,108423,1,4,3:0:0:0:
401,278,108508,1,4,3:0:0:0:
403,263,108592,1,4,3:0:0:0:
405,248,108676,1,4,3:0:0:0:
408,233,108760,1,4,3:0:0:0:
295,107,108929,1,4,3:0:0:0:
293,99,109013,1,4,3:0:0:0:
292,91,109097,1,4,3:0:0:0:
291,83,109182,1,4,3:0:0:0:
289,75,109266,6,0,P|243:78|192:80,1,75,4|2,1:0|3:0,0:0:0:0:
211,179,109603,2,0,P|257:182|308:184,1,75,8|2,1:0|3:0,0:0:0:0:
369,133,109940,1,6,3:0:0:0:
405,140,110109,1,2,3:0:0:0:
441,148,110277,1,8,1:0:0:0:
477,156,110446,1,2,3:0:0:0:
434,226,110614,6,0,P|436:277|434:318,1,75,4|2,3:0|3:0,0:0:0:0:
345,322,110951,2,0,P|337:353|331:383,3,37.5,8|2|2|2,1:0|0:0|3:0|0:0,0:0:0:0:
261,354,111288,2,0,P|211:348|169:347,1,75,6|2,3:0|3:0,0:0:0:0:
93,253,111626,2,0,P|130:255|167:260,1,75,8|2,1:0|3:0,0:0:0:0:
304,179,111963,6,0,P|299:121|296:82,1,75,4|2,1:0|3:0,0:0:0:0:
246,44,112300,1,8,1:0:0:0:
209,50,112468,1,2,3:0:0:0:
171,56,112637,1,6,3:0:0:0:
134,62,112805,1,2,3:0:0:0:
80,117,112974,2,0,P|83:154|86:191,1,75,8|2,1:0|3:0,0:0:0:0:
233,270,113311,6,0,P|199:253|165:238,1,75,6|2,3:0|3:0,0:0:0:0:
59,305,113648,2,0,L|90:266,3,37.5,8|2|2|0,1:0|0:0|3:0|0:0,0:0:0:0:
40,332,113985,2,0,P|73:347|107:363,1,75,6|2,3:0|3:0,0:0:0:0:
196,313,114322,1,8,1:0:0:0:
268,376,114491,1,2,3:0:0:0:
365,265,114659,6,0,P|362:202|363:164,1,75,4|2,1:0|3:0,0:0:0:0:
238,111,114996,2,0,P|238:148|240:185,1,75,8|2,1:0|3:0,0:0:0:0:
412,129,115333,2,0,P|409:66|410:28,1,75,6|2,3:0|3:0,0:0:0:0:
169,3,115670,2,0,P|168:40|166:77,1,75,8|2,1:0|3:0,0:0:0:0:
291,203,116008,5,6,3:0:0:0:
343,127,116176,1,2,3:0:0:0:
245,125,116345,1,8,1:0:0:0:
393,211,116513,1,2,3:0:0:0:
259,273,116682,1,6,3:0:0:0:
169,201,116850,1,2,3:0:0:0:
289,197,117019,1,8,1:0:0:0:
271,347,117187,1,2,3:0:0:0:
141,317,117356,5,8,1:0:0:0:
123,310,117440,1,8,1:0:0:0:
105,303,117524,1,8,1:0:0:0:
87,296,117609,1,8,1:0:0:0:
69,288,117693,2,0,L|61:240,3,37.5,8|8|8|8,1:0|1:0|1:0|1:0,0:0:0:0:
131,207,118030,1,8,1:0:0:0:
149,200,118114,1,8,1:0:0:0:
167,193,118198,1,8,1:0:0:0:
185,186,118283,1,8,1:0:0:0:
203,178,118367,2,0,L|211:130,3,37.5,8|8|8|8,1:0|1:0|1:0|1:0,0:0:0:0:
146,86,118704,6,0,B|181:32|181:32|340:95,1,225,4|0,3:0|0:0,0:0:0:0:
400,57,119378,2,0,P|436:103|424:263,1,225,2|0,0:0|0:0,0:0:0:0:
367,349,120052,6,0,P|302:341|263:337,1,89.9999972534181,4|0,1:0|1:0,0:0:0:0:
277,338,120305,1,0,1:0:0:0:
277,338,120390,1,8,1:0:0:0:
217,268,120558,2,0,P|143:274|81:377,1,179.999994506836,4|0,1:2|1:0,0:0:0:0:
154,374,121064,1,8,1:0:0:0:
24,295,121232,1,0,3:0:0:0:
65,230,121401,6,0,P|66:173|64:110,1,89.9999972534181,6|8,3:0|1:0,0:0:0:0:
65,140,121654,1,0,1:0:0:0:
65,140,121738,1,8,1:0:0:0:
38,54,121906,1,0,3:0:0:0:
207,91,122075,2,0,P|140:88|114:84,1,89.9999972534181,6|8,3:0|1:0,0:0:0:0:
236,183,122412,5,8,1:0:0:0:
257,177,122496,1,0,1:0:0:0:
278,170,122581,1,8,1:0:0:0:
299,164,122665,1,0,1:0:0:0:
318,153,122749,2,0,P|385:150|411:146,1,89.9999972534181,4|0,1:0|1:0,0:0:0:0:
407,146,123002,1,0,1:0:0:0:
407,146,123086,1,8,1:0:0:0:
495,145,123255,2,0,P|489:225|491:331,1,179.999994506836,4|0,0:2|1:0,0:0:0:0:
425,364,123760,1,8,1:0:0:0:
367,313,123929,1,2,3:0:0:0:
257,359,124097,6,0,P|192:358|159:358,1,89.9999972534181,6|0,3:0|1:0,0:0:0:0:
167,357,124350,1,0,1:0:0:0:
167,357,124435,1,8,1:0:0:0:
51,261,124603,2,0,P|52:212|171:178,1,179.999994506836,0|0,3:0|1:0,0:0:0:0:
239,269,125109,5,8,1:0:0:0:
243,247,125193,1,0,1:0:0:0:
248,225,125277,1,6,3:0:0:0:
253,203,125361,1,0,1:0:0:0:
259,181,125446,2,0,P|263:132|263:91,1,89.9999972534181,6|8,3:0|1:0,0:0:0:0:
263,91,125699,1,0,1:0:0:0:
263,91,125783,1,8,1:0:0:0:
212,39,125951,1,4,1:2:0:0:
178,156,126120,1,0,0:0:0:0:
333,163,126288,1,8,1:0:0:0:
363,44,126457,1,8,1:0:0:0:
431,93,126626,5,6,3:0:0:0:
431,93,126710,1,0,0:0:0:0:
431,93,126794,2,0,P|430:137|426:182,1,89.9999972534181,6|6,3:0|1:2,0:0:0:0:
253,218,127131,2,0,P|253:262|257:307,1,89.9999972534181,8|0,1:0|1:0,0:0:0:0:
257,382,127468,1,6,3:0:0:0:
257,382,127637,1,8,1:0:0:0:
326,344,127805,1,8,1:0:0:0:
190,341,127974,1,4,1:2:0:0:
263,244,128142,6,0,L|269:189,1,44.999998626709,12|0,1:0|0:0,0:0:0:0:
192,197,128311,2,0,L|198:142,1,44.999998626709,6|0,3:0|0:0,0:0:0:0:
258,109,128479,1,8,1:0:0:0:
229,36,128648,1,6,3:0:0:0:
249,244,128817,6,0,L|243:189,1,44.999998626709,8|0,1:0|0:0,0:0:0:0:
320,197,128986,2,0,L|314:142,1,44.999998626709,6|0,3:0|0:0,0:0:0:0:
254,109,129154,1,8,1:0:0:0:
283,36,129323,1,6,3:0:0:0:
391,55,129491,5,6,3:0:0:0:
407,70,129575,1,0,3:0:0:0:
423,85,129659,1,2,3:0:0:0:
439,100,129744,1,0,3:0:0:0:
454,116,129828,2,0,L|443:164,3,44.999998626709,6|0|2|0,3:0|3:0|3:0|3:0,0:0:0:0:
494,215,130165,2,0,L|483:263,3,44.999998626709,6|0|2|0,3:0|3:0|3:0|3:0,0:0:0:0:
397,243,130502,5,6,3:0:0:0:
406,272,130586,1,0,3:0:0:0:
415,301,130670,1,2,3:0:0:0:
425,331,130755,1,0,3:0:0:0:
435,360,130839,2,0,P|369:352|321:344,1,89.9999972534181,4|0,1:0|1:0,0:0:0:0:
345,348,131092,1,0,0:0:0:0:
345,348,131176,1,8,1:0:0:0:
303,293,131345,2,0,P|228:296|98:313,1,179.999994506836,4|0,1:2|1:0,0:0:0:0:
31,370,131850,6,0,P|19:299|12:253,1,89.9999972534181,8|0,1:0|3:0,0:0:0:0:
16,281,132103,1,0,3:0:0:0:
16,281,132187,1,6,3:0:0:0:
106,200,132356,1,0,0:0:0:0:
3,186,132524,1,8,1:0:0:0:
127,296,132693,1,2,3:0:0:0:
174,130,132861,6,0,P|186:59|193:13,1,89.9999972534181,6|8,3:0|1:0,0:0:0:0:
64,150,133199,1,8,1:0:0:0:
78,167,133283,1,0,1:0:0:0:
92,184,133367,1,8,1:0:0:0:
106,200,133451,1,0,1:0:0:0:
120,217,133536,2,0,P|181:209|238:204,1,89.9999972534181,4|0,1:0|1:0,0:0:0:0:
209,206,133788,1,0,1:0:0:0:
209,206,133873,1,8,1:0:0:0:
305,132,134041,1,4,0:2:0:0:
317,245,134210,2,0,P|312:307|314:351,1,89.9999972534181,0|0,0:0|1:0,0:0:0:0:
188,384,134547,2,0,P|188:339|183:294,1,89.9999972534181,8|2,1:0|3:0,0:0:0:0:
359,171,134884,6,0,P|408:179|473:192,1,89.9999972534181,6|0,3:0|1:0,0:0:0:0:
447,186,135137,1,0,1:0:0:0:
447,186,135221,1,8,1:0:0:0:
321,247,135390,2,0,P|261:197|299:93,1,179.999994506836,0|0,3:0|1:0,0:0:0:0:
485,23,135895,5,8,1:0:0:0:
477,44,135979,1,0,1:0:0:0:
469,65,136064,1,6,3:0:0:0:
461,86,136148,1,2,1:0:0:0:
453,107,136232,2,0,P|455:167|459:200,1,89.9999972534181,6|8,3:0|1:0,0:0:0:0:
458,196,136485,1,0,1:0:0:0:
458,196,136569,1,0,1:0:0:0:
393,286,136738,1,4,1:2:0:0:
484,379,136906,2,0,P|479:334|478:289,1,89.9999972534181,0|8,0:0|1:0,0:0:0:0:
311,254,137244,2,0,P|311:298|316:343,1,89.9999972534181,8|6,1:0|3:0,0:0:0:0:
156,201,137581,5,6,3:0:0:0:
211,88,137749,1,6,1:2:0:0:
245,176,137918,1,8,1:0:0:0:
131,120,138086,1,0,1:0:0:0:
255,119,138255,5,6,3:0:0:0:
160,73,138423,1,8,1:0:0:0:
104,177,138592,1,8,1:0:0:0:
202,224,138760,1,4,1:2:0:0:
327,192,138929,5,12,1:0:0:0:
348,197,139013,1,0,0:0:0:0:
369,202,139097,1,6,3:0:0:0:
391,207,139182,1,0,0:0:0:0:
412,214,139266,2,0,L|412:267,3,44.999998626709,8|0|6|0,1:0|0:0|3:0|0:0,0:0:0:0:
266,252,139603,5,8,1:0:0:0:
245,257,139687,1,0,0:0:0:0:
224,262,139771,1,6,3:0:0:0:
202,267,139856,1,0,0:0:0:0:
181,274,139940,2,0,L|181:327,3,44.999998626709,8|8|14|8,1:0|1:0|1:0|1:0,0:0:0:0:
242,365,140277,6,0,P|309:367|340:373,1,89.9999972534181,14|0,1:0|0:0,0:0:0:0:
129,207,140614,2,0,P|62:209|31:215,1,89.9999972534181,14|0,1:0|0:0,0:0:0:0:
269,137,140951,1,14,1:0:0:0:
266,105,141036,1,8,1:0:0:0:
263,73,141120,1,8,1:0:0:0:
260,41,141204,1,8,1:0:0:0:
256,9,141288,2,0,L|306:25,3,44.999998626709,8|8|8|8,1:0|1:0|1:0|1:0,0:0:0:0:
190,46,141626,5,4,1:0:0:0:
28,187,142974,2,0,P|38:267|41:347,1,150,2|2,0:0|0:0,0:0:0:0:
254,271,144491,6,0,L|262:193,1,44.999998626709,4|0,1:0|0:0,0:0:0:0:
186,132,144659,1,12,1:0:0:0:
235,288,144996,6,0,L|227:210,1,44.999998626709,4|0,1:0|0:0,0:0:0:0:
358,117,145164,1,12,1:0:0:0:
265,311,145502,6,0,L|273:233,1,44.999998626709,4|0,1:0|0:0,0:0:0:0:
253,45,145670,1,12,1:0:0:0:
342,0,146008,6,0,L|347:29,4,18.75,2|2|2|2|2,0:0|0:0|0:0|0:0|3:0,0:0:0:0:
419,47,146513,1,0,0:0:0:0:
357,93,146682,2,0,P|349:117|343:136,1,37.5,2|0,3:0|0:0,0:0:0:0:
247,123,147019,5,12,1:0:0:0:
62,302,147524,1,12,1:0:0:0:
329,371,148030,1,12,1:0:0:0:
201,266,148367,5,0,0:0:0:0:
255,208,148704,2,0,L|250:178,4,18.75,2|2|2|2|2,0:0|0:0|0:0|0:0|3:0,0:0:0:0:
315,261,149210,1,2,3:0:0:0:
257,311,149378,2,0,P|251:336|249:353,1,37.5,2|2,3:0|0:0,0:0:0:0:
391,197,149884,6,0,P|378:153|375:137,1,44.999998626709,4|0,1:0|0:0,0:0:0:0:
419,49,150052,1,12,1:0:0:0:
256,51,150390,6,0,P|269:95|272:111,1,44.999998626709,4|0,1:0|0:0,0:0:0:0:
226,233,150558,1,12,1:0:0:0:
42,291,150895,6,0,P|29:247|26:231,1,44.999998626709,4|0,1:0|0:0,0:0:0:0:
66,56,151063,1,12,1:0:0:0:
251,178,151401,6,0,P|244:228|241:269,1,75,0|4,0:0|1:2,0:0:0:0:
269,327,151738,2,0,P|330:306|346:204,1,168.750006437302,4|0,0:0|0:0,0:0:0:0:
403,141,152412,5,4,1:0:0:0:
196,36,152749,2,0,P|147:49|108:59,1,75,8|2,3:0|3:0,0:0:0:0:
121,145,153086,2,0,P|157:135|193:125,1,75,6|0,3:0|3:0,0:0:0:0:
268,181,153423,1,10,3:0:0:0:
268,181,153592,1,0,3:0:0:0:
268,181,153760,1,4,3:0:0:0:
169,274,153929,2,0,P|205:264|241:254,1,75,2|8,3:0|3:0,0:0:0:0:
304,302,154266,1,0,3:0:0:0:
190,384,154435,2,0,P|226:374|262:364,1,75,6|0,3:0|3:0,0:0:0:0:
427,224,154772,2,0,P|391:234|355:244,1,75,10|4,3:0|3:0,0:0:0:0:
208,147,155109,5,4,3:1:0:0:
208,147,155277,1,0,3:0:0:0:
208,147,155446,2,0,P|171:156|135:166,1,75,8|2,3:0|3:0,0:0:0:0:
106,96,155783,2,0,P|69:105|33:115,1,75,4|0,3:0|3:0,0:0:0:0:
149,26,156120,2,0,P|185:16|221:6,1,75,10|0,3:0|3:0,0:0:0:0:
202,88,156457,1,4,3:0:0:0:
274,65,156626,2,0,P|310:55|346:45,1,75,2|8,3:0|3:0,0:0:0:0:
314,134,156963,1,0,3:0:0:0:
391,114,157131,2,0,P|427:104|463:94,1,75,6|0,3:0|3:0,0:0:0:0:
365,195,157468,2,0,P|328:204|292:214,1,75,10|0,3:0|3:0,0:0:0:0:
421,253,157805,5,6,3:1:0:0:
479,309,157974,1,0,3:0:0:0:
398,358,158142,2,0,P|401:305|400:275,1,75,6|2,3:0|3:0,0:0:0:0:
236,232,158479,5,4,3:0:0:0:
308,306,158648,1,2,3:0:0:0:
215,354,158816,2,0,P|218:301|217:271,1,75,4|2,3:0|3:0,0:0:0:0:
51,209,159154,5,4,3:0:0:0:
140,295,159323,1,2,3:0:0:0:
32,346,159491,2,0,P|35:293|34:263,1,75,4|2,3:0|3:0,0:0:0:0:
29,140,159828,5,4,3:0:0:0:
71,70,159996,1,2,3:0:0:0:
11,16,160165,1,4,3:0:0:0:
11,16,160333,1,2,3:0:0:0:
156,73,160502,5,4,3:1:0:0:
180,80,160586,1,0,3:0:0:0:
204,87,160670,1,8,3:1:0:0:
229,94,160755,1,0,3:0:0:0:
253,104,160839,2,0,L|262:161,3,37.5,6|0|6|2,3:0|3:0|3:0|3:0,0:0:0:0:
424,180,161176,5,8,3:1:0:0:
400,187,161260,1,0,3:0:0:0:
376,194,161344,1,4,3:0:0:0:
351,201,161429,1,2,3:0:0:0:
327,211,161513,2,0,L|318:268,3,37.5,4|0|0|0,3:0|0:0|1:0|1:0,0:0:0:0:
252,286,161850,6,0,P|243:236|241:60,1,225,4|2,3:1|0:0,0:0:0:0:
175,17,162524,2,0,B|85:28|48:144|90:208,1,225,2|2,3:1|0:0,0:0:0:0:
71,293,163199,6,0,P|124:308|166:317,1,97.4999955368044,4|0,1:0|1:0,0:0:0:0:
165,316,163451,1,0,1:0:0:0:
165,316,163536,1,8,1:0:0:0:
249,241,163704,1,4,1:2:0:0:
280,351,163873,2,0,P|327:340|374:327,1,97.4999955368044,0|0,0:0|1:0,0:0:0:0:
423,236,164210,1,8,1:0:0:0:
469,323,164378,1,0,3:0:0:0:
326,245,164547,6,0,P|326:182|323:137,1,97.4999955368044,6|8,3:0|1:0,0:0:0:0:
401,67,164884,1,0,1:0:0:0:
271,31,165052,2,0,P|216:50|200:182,1,194.999991073609,0|8,1:0|1:0,0:0:0:0:
24,204,165558,5,8,1:0:0:0:
47,211,165642,1,0,1:0:0:0:
70,218,165727,1,8,1:0:0:0:
92,226,165811,1,0,1:0:0:0:
114,234,165895,2,0,P|108:292|109:351,1,97.4999955368044,4|0,1:0|1:0,0:0:0:0:
107,331,166148,1,0,1:0:0:0:
107,331,166232,1,8,1:0:0:0:
221,308,166401,1,4,0:2:0:0:
197,206,166569,2,0,P|192:152|197:4,1,194.999991073609,0|8,0:0|1:0,0:0:0:0:
291,117,167075,5,2,3:0:0:0:
291,117,167159,1,0,0:0:0:0:
291,117,167244,2,0,P|360:107|401:98,1,97.4999955368044,6|0,3:0|1:0,0:0:0:0:
470,201,167581,1,8,1:0:0:0:
354,232,167749,2,0,P|306:241|257:247,1,97.4999955368044,0|6,3:0|3:0,0:0:0:0:
165,166,168086,1,0,1:0:0:0:
60,273,168255,5,8,1:0:0:0:
70,295,168339,1,0,1:0:0:0:
80,317,168423,1,6,3:0:0:0:
90,339,168508,1,0,1:0:0:0:
101,360,168592,2,0,P|149:353|197:344,1,97.4999955368044,6|8,3:0|1:0,0:0:0:0:
304,377,168929,1,0,1:0:0:0:
341,269,169097,1,4,1:2:0:0:
219,246,169266,1,0,0:0:0:0:
256,144,169435,1,8,1:0:0:0:
382,162,169603,1,8,1:0:0:0:
415,63,169772,1,6,3:0:0:0:
286,35,169940,6,0,P|224:52|180:60,1,97.4999955368044,6|6,3:0|1:2,0:0:0:0:
191,58,170193,1,0,0:0:0:0:
191,58,170277,1,8,1:0:0:0:
64,34,170446,1,0,1:0:0:0:
94,167,170614,2,0,P|156:184|200:192,1,97.4999955368044,6|8,3:0|1:0,0:0:0:0:
188,190,170867,1,0,0:0:0:0:
188,190,170951,1,8,1:0:0:0:
306,152,171120,1,4,1:2:0:0:
350,288,171288,6,0,P|329:344|313:383,1,97.4999955368044,12|6,1:0|3:0,0:0:0:0:
381,192,171626,2,0,P|437:213|476:229,1,97.4999955368044,8|6,1:0|3:0,0:0:0:0:
279,190,171963,2,0,P|300:134|316:95,1,97.4999955368044,8|6,1:0|3:0,0:0:0:0:
261,283,172300,2,0,P|205:262|166:246,1,97.4999955368044,8|6,1:0|3:0,0:0:0:0:
127,106,172637,5,6,3:0:0:0:
115,114,172721,1,0,0:0:0:0:
103,122,172805,1,2,3:0:0:0:
91,130,172890,1,0,0:0:0:0:
80,139,172974,2,0,L|29:130,3,48.7499977684022,6|0|2|0,3:0|0:0|3:0|0:0,0:0:0:0:
48,217,173311,2,0,L|-3:208,3,48.7499977684022,6|0|2|0,3:0|3:0|3:0|3:0,0:0:0:0:
53,302,173648,5,6,3:0:0:0:
85,290,173732,1,0,3:0:0:0:
117,278,173817,1,2,3:0:0:0:
149,267,173901,1,0,3:0:0:0:
180,254,173985,2,0,P|230:260|295:273,1,97.4999955368044,4|0,1:0|1:0,0:0:0:0:
276,268,174238,1,0,0:0:0:0:
276,268,174322,1,8,1:0:0:0:
367,201,174491,1,4,1:2:0:0:
387,307,174659,2,0,P|386:233|381:105,1,194.999991073609,0|8,0:0|1:0,0:0:0:0:
311,42,175165,1,0,3:0:0:0:
255,138,175333,6,0,P|202:137|148:135,1,97.4999955368044,6|0,3:0|0:0,0:0:0:0:
157,135,175586,1,0,0:0:0:0:
157,135,175670,1,8,1:0:0:0:
66,85,175839,1,0,3:0:0:0:
38,223,176008,2,0,P|86:224|135:225,1,97.4999955368044,6|8,3:0|1:0,0:0:0:0:
252,356,176345,5,8,1:0:0:0:
275,350,176429,1,0,1:0:0:0:
298,345,176513,1,8,1:0:0:0:
321,340,176597,1,0,1:0:0:0:
345,334,176682,2,0,P|340:258|331:203,1,97.4999955368044,4|0,1:0|1:0,0:0:0:0:
337,236,176935,1,0,1:0:0:0:
337,236,177019,1,8,1:0:0:0:
419,169,177187,1,4,0:2:0:0:
318,111,177356,2,0,P|263:112|242:240,1,194.999991073609,0|8,0:0|1:0,0:0:0:0:
351,266,177861,1,2,3:0:0:0:
419,169,178030,6,0,P|451:112|363:28,1,194.999991073609,6|8,3:0|1:0,0:0:0:0:
149,26,178536,2,0,P|138:97|245:142,1,194.999991073609,0|0,3:0|1:0,0:0:0:0:
376,25,179041,5,8,1:0:0:0:
351,29,179126,1,0,1:0:0:0:
327,33,179210,1,6,3:0:0:0:
303,37,179294,1,0,1:0:0:0:
279,43,179378,2,0,P|277:117|276:171,1,97.4999955368044,6|8,3:0|1:0,0:0:0:0:
276,140,179631,1,0,1:0:0:0:
276,140,179715,1,0,1:0:0:0:
312,297,179884,2,0,P|392:269|409:162,1,194.999991073609,4|8,1:2|1:0,0:0:0:0:
198,228,180390,2,0,P|216:283|222:328,1,97.4999955368044,8|6,1:0|3:0,0:0:0:0:
61,236,180727,5,6,3:0:0:0:
7,120,180895,1,6,1:2:0:0:
129,123,181064,1,8,1:0:0:0:
69,162,181232,1,0,1:0:0:0:
92,50,181401,1,6,3:0:0:0:
208,134,181569,1,8,1:0:0:0:
167,201,181738,1,8,1:0:0:0:
230,59,181906,1,4,1:2:0:0:
299,182,182075,5,12,1:0:0:0:
322,186,182159,1,0,0:0:0:0:
346,191,182244,1,6,3:0:0:0:
369,196,182328,1,0,0:0:0:0:
392,201,182412,2,0,L|398:260,3,48.7499977684022,8|0|6|0,1:0|0:0|3:0|0:0,0:0:0:0:
234,237,182749,5,8,1:0:0:0:
211,241,182833,1,0,0:0:0:0:
187,246,182918,1,6,3:0:0:0:
164,251,183002,1,0,0:0:0:0:
141,256,183086,2,0,L|135:315,3,48.7499977684022,8|8|14|8,1:0|1:0|1:0|1:0,0:0:0:0:
270,378,183423,6,0,P|265:308|261:245,1,97.4999955368044,14|0,1:0|0:0,0:0:0:0:
261,21,183760,2,0,P|257:69|254:118,1,97.4999955368044,14|0,1:0|0:0,0:0:0:0:
281,221,184097,1,14,1:0:0:0:
281,221,184182,1,0,0:0:0:0:
281,221,184266,1,0,1:0:0:0:
281,221,184350,1,8,1:0:0:0:
281,221,184435,1,8,1:0:0:0:
281,221,184519,1,8,1:0:0:0:
281,221,184603,1,8,1:0:0:0:
281,221,184687,1,8,1:0:0:0:
