osu file format v14

[General]
AudioFilename: audio.mp3
AudioLeadIn: 0
PreviewTime: 64582
Countdown: 1
SampleSet: Soft
StackLeniency: 0.4
Mode: 0
LetterboxInBreaks: 0
WidescreenStoryboard: 0

[Editor]
Bookmarks: 1400,13037,24673,30491,42128,53764,56673,65400,68309,71218,77037,82855,88673,94491,106128,117764,129400,141037,152673,164309,175946,181764,187582,193400,199218,203582,206491,209400,212309,213764,215218,221036,223946,226855,238491,250127
DistanceSpacing: 0.6
BeatDivisor: 4
GridSize: 32
TimelineZoom: 2.999999

[Metadata]
Title:Memories
TitleUnicode:Memories
Artist:Akatsuki Records
ArtistUnicode:暁Records
Creator:Gottagof4st
Version:Requiem to the Memory
Source:東方永夜抄 ~ Imperishable Night.
Tags:Black Man Fixxis ggf gottagofast DTM9 Nowa 東方Project
BeatmapID:1948749
BeatmapSetID:933447

[Difficulty]
HPDrainRate:5
CircleSize:4
OverallDifficulty:8.5
ApproachRate:9.3
SliderMultiplier:1.8
SliderTickRate:1

[Events]
//Background and Video events
0,0,"bg.jpg",0,0
//Break Periods
//Storyboard Layer 0 (Background)
//Storyboard Layer 1 (Fail)
//Storyboard Layer 2 (Pass)
//Storyboard Layer 3 (Foreground)
//Storyboard Layer 4 (Overlay)
//Storyboard Sound Samples

[TimingPoints]
-6,363.636363636364,4,2,1,25,1,0
1448,-200,4,2,1,25,0,0
7266,-166.666666666667,4,2,1,25,0,0
10175,-142.857142857143,4,2,1,25,0,0
11630,-142.857142857143,4,2,1,50,0,0
13084,-100,4,2,2,60,0,0
23266,-90.9090909090909,4,2,2,60,0,0
26175,-90.9090909090909,4,2,1,60,0,0
27630,-111.111111111111,4,2,1,60,0,0
29266,-111.111111111111,4,2,1,30,0,0
30175,-142.857142857143,4,2,2,30,0,0
30539,-111.111111111111,4,2,2,45,0,0
42175,-99.9999999999999,4,2,2,45,0,0
42448,-99.9999999999999,4,2,2,45,0,0
42539,-99.9999999999999,4,2,2,45,0,0
47448,-99.9999999999999,4,2,1,45,0,0
47630,-125,4,2,1,45,0,0
47994,-99.9999999999999,4,2,2,45,0,0
53266,-99.9999999999999,4,2,2,55,0,0
53812,-99.9999999999999,4,2,2,60,0,0
56721,-99.9999999999999,4,2,2,50,0,0
61084,-90.9090909090909,4,2,2,50,0,0
62175,-90.9090909090909,4,2,2,40,0,0
62357,-90.9090909090909,4,2,2,60,0,0
63810,-333.333333333333,4,2,2,60,0,0
63812,-333.333333333333,4,2,2,50,0,0
64721,-333.333333333333,4,2,2,40,0,0
65084,-333.333333333333,4,2,2,55,0,0
65266,-333.333333333333,4,2,2,40,0,0
65448,-76.9230769230769,4,2,2,70,0,1
88721,-90.9090909090909,4,2,2,60,0,1
90175,-90.9090909090909,4,2,1,60,0,1
91630,-111.111111111111,4,2,1,60,0,0
93084,-111.111111111111,4,2,2,60,0,0
94539,-111.111111111111,4,2,2,45,0,0
106175,-99.9999999999999,4,2,2,45,0,0
117266,-99.9999999999999,4,2,2,55,0,0
117812,-99.9999999999999,4,2,2,60,0,0
120721,-99.9999999999999,4,2,2,50,0,0
126175,-99.9999999999999,4,2,2,40,0,0
126357,-90.9090909090909,4,2,2,60,0,0
127812,-125,4,2,2,60,0,0
129448,-76.9230769230769,4,2,2,70,0,1
154903,-250,4,2,2,50,0,0
158539,-142.857142857143,4,2,2,50,0,0
165630,-333.333333333334,4,2,2,50,0,0
167266,-142.857142857143,4,2,2,50,0,0
168539,-333.333333333334,4,2,2,50,0,0
169266,-142.857142857143,4,2,2,50,0,0
181812,-111.111111111111,4,2,2,50,0,0
187994,-111.111111111111,4,2,1,50,0,0
193448,-111.111111111111,4,2,2,60,0,0
193471,-111.111111111111,4,2,1,60,0,0
197448,-111.111111111111,4,2,2,40,0,0
197812,-99.9999999999999,4,2,2,60,0,0
199266,-99.9999999999999,4,2,2,70,0,0
200539,-83.3333333333333,4,2,2,60,0,0
206539,-142.857142857143,4,2,2,60,0,0
209448,-100,4,2,2,50,0,0
212357,-100,4,2,2,40,0,0
213812,-83.3333333333333,4,2,2,60,0,0
215266,-71.4285714285714,4,2,2,70,0,1
221084,-83.3333333333333,4,2,2,60,0,1
223994,-76.9230769230769,4,2,2,60,0,1
226175,-71.4285714285714,4,2,2,70,0,1
229812,-76.9230769230769,4,2,2,70,0,1
232721,-76.9230769230769,4,2,2,70,0,1
238539,-83.3333333333333,4,2,2,70,0,0
239994,-83.3333333333333,4,2,1,70,0,0
245812,-100,4,2,1,70,0,0
247266,-83.3333333333333,4,2,2,70,0,0
250175,-83.3333333333333,4,2,1,40,0,0
251630,-200,4,2,1,40,0,0
253084,-250,4,2,1,40,0,0
254539,-333.333333333333,4,2,1,40,0,0

[Colours]
Combo1 : 205,165,120
Combo2 : 192,155,238
Combo3 : 168,168,168

[HitObjects]
55,159,721,5,0,0:0:0:0:
100,92,903,1,2,0:0:0:0:
180,87,1085,1,2,0:0:0:0:
229,150,1266,1,2,0:0:0:0:
175,233,1448,6,0,P|169:284|171:338,2,90,6|2|2,0:0|0:0|0:0,0:0:0:0:
175,233,2721,2,0,L|265:226,1,90,2|2,0:0|0:0,0:0:0:0:
316,290,3266,1,0,0:0:0:0:
316,290,3448,1,2,0:0:0:0:
384,223,3630,1,2,0:0:0:0:
420,324,3812,1,2,0:0:0:0:
405,202,3994,1,2,0:0:0:0:
398,345,4175,1,2,0:0:0:0:
499,237,4357,6,0,P|505:192|486:146,1,90,6|2,0:0|0:0,0:0:0:0:
489,151,5084,1,6,0:0:0:0:
455,57,5266,1,2,0:0:0:0:
372,111,5448,2,0,P|332:118|316:117,1,45,2|0,0:0|0:0,0:0:0:0:
494,138,5812,1,6,0:0:0:0:
460,44,5994,1,2,0:0:0:0:
359,124,6175,2,0,P|337:130|314:131,1,45,2|2,0:0|0:0,0:0:0:0:
203,28,6539,1,2,0:0:0:0:
241,123,6721,1,2,0:0:0:0:
197,217,6903,1,2,0:0:0:0:
197,217,7266,6,0,L|128:212,1,53.9999983520508,6|0,0:0|0:0,0:0:0:0:
35,321,7630,2,0,L|104:316,1,53.9999983520508,2|0,0:0|0:0,0:0:0:0:
94,145,7994,2,0,P|63:183|64:239,1,107.999996704102,6|0,0:0|0:0,0:0:0:0:
181,315,8539,2,0,L|291:307,1,107.999996704102,2|2,0:0|0:0,0:0:0:0:
359,357,9084,1,2,0:0:0:0:
407,256,9266,1,2,0:0:0:0:
347,151,9448,1,6,0:0:0:0:
347,151,9812,5,2,0:0:0:0:
407,256,9994,1,2,0:0:0:0:
447,117,10175,2,0,P|449:85|446:54,1,62.9999980773926,6|0,0:0|0:0,0:0:0:0:
335,166,10539,2,0,P|332:197|335:228,1,62.9999980773926,2|0,0:0|0:0,0:0:0:0:
358,64,10903,1,2,0:0:0:0:
292,15,11084,1,2,0:0:0:0:
210,23,11266,1,2,0:0:0:0:
155,83,11448,1,2,0:0:0:0:
155,164,11630,5,10,0:0:0:0:
162,171,12539,1,0,3:2:0:0:
162,171,12630,1,0,3:2:0:0:
162,171,12721,2,0,P|198:180|256:177,1,94.499997116089,2|0,3:2|0:0,0:0:0:0:
305,128,13084,6,0,B|285:163|285:163|308:269,1,135,6|0,3:1|0:0,0:0:0:0:
312,287,13448,2,0,L|413:293,1,90,10|2,0:0|0:0,0:0:0:0:
481,117,13812,2,0,L|347:124,1,135,2|0,3:2|0:0,0:0:0:0:
305,128,14175,1,8,0:0:0:0:
331,18,14357,1,0,0:0:0:0:
340,223,14539,5,2,3:2:0:0:
237,76,14721,1,2,0:0:0:0:
248,248,14903,1,10,0:0:0:0:
305,128,15084,1,2,3:2:0:0:
237,271,15266,5,2,3:2:0:0:
167,118,15448,1,0,3:2:0:0:
130,307,15630,1,8,0:0:0:0:
53,75,15812,1,2,0:0:0:0:
10,340,15994,6,0,B|31:305|31:305|16:212,1,135,2|0,3:2|0:0,0:0:0:0:
10,177,16357,2,0,P|74:164|115:164,1,90,10|0,0:0|0:0,0:0:0:0:
260,173,16721,1,2,3:2:0:0:
130,307,16903,1,2,3:2:0:0:
171,86,17084,1,10,0:0:0:0:
237,271,17266,1,0,0:0:0:0:
81,96,17448,5,2,3:2:0:0:
310,99,17630,1,2,0:0:0:0:
130,307,17812,1,10,0:0:0:0:
245,34,17994,1,0,3:2:0:0:
343,288,18175,5,2,3:2:0:0:
260,173,18357,1,2,3:2:0:0:
401,158,18539,1,10,0:0:0:0:
401,158,18903,6,0,P|432:110|423:33,1,135,2|0,3:2|0:0,0:0:0:0:
409,6,19266,2,0,L|319:2,1,90,10|2,0:0|0:0,0:0:0:0:
176,190,19630,2,0,P|230:155|230:90,1,135,2|0,3:2|0:0,0:0:0:0:
208,65,19994,1,8,0:0:0:0:
80,171,20175,1,0,0:0:0:0:
125,22,20357,5,2,3:2:0:0:
177,214,20539,1,2,0:0:0:0:
65,83,20721,1,10,0:0:0:0:
10,205,20903,1,2,3:2:0:0:
195,97,21084,5,2,3:2:0:0:
10,205,21266,1,0,3:2:0:0:
292,177,21448,1,8,0:0:0:0:
65,83,21630,1,2,0:0:0:0:
259,261,21812,6,0,B|321:292|321:230|389:265,1,135,2|0,3:2|0:0,0:0:0:0:
412,289,22175,2,0,L|422:385,1,90,10|0,0:0|0:0,0:0:0:0:
467,199,22539,1,2,3:2:0:0:
342,352,22721,1,2,3:2:0:0:
292,177,22903,1,10,0:0:0:0:
446,384,23084,1,2,0:0:0:0:
356,122,23266,6,0,P|307:93|258:97,1,99.0000030212403,2|0,3:2|0:0,0:0:0:0:
210,278,23630,2,0,P|259:250|280:205,1,99.0000030212403,10|0,0:0|3:2,0:0:0:0:
129,58,23994,5,10,0:0:0:0:
92,272,24175,1,0,3:2:0:0:
46,9,24357,5,10,0:0:0:0:
94,244,24539,1,0,0:0:0:0:
208,33,24721,6,0,B|253:5|253:5|358:33,1,148.50000453186,6|0,3:2|0:0,0:0:0:0:
373,50,25084,2,0,P|390:95|382:143,1,99.0000030212403,10|0,0:0|0:0,0:0:0:0:
260,242,25448,1,0,3:2:0:0:
313,99,25630,1,0,3:2:0:0:
429,244,25812,2,0,B|453:301|452:333|452:333|437:359|395:360,1,148.50000453186,8|0,0:0|0:0,0:0:0:0:
365,342,26175,6,0,P|313:336|261:338,1,99.0000030212403,2|0,3:2|0:0,0:0:0:0:
89,166,26539,2,0,P|120:208|144:254,1,99.0000030212403,10|0,0:0|3:2,0:0:0:0:
436,151,26903,2,0,P|387:171|343:199,1,99.0000030212403,2|0,3:2|3:2,0:0:0:0:
229,34,27266,2,0,P|235:86|233:138,1,99.0000030212403,10|0,0:0|0:0,0:0:0:0:
345,325,27630,6,0,P|293:319|241:321,1,80.9999975280763,2|0,3:2|0:0,0:0:0:0:
117,185,27994,2,0,P|148:227|172:273,1,80.9999975280763,10|0,0:0|0:0,0:0:0:0:
407,150,28357,2,0,P|358:170|314:198,1,80.9999975280763,2|0,3:2|3:2,0:0:0:0:
247,63,28721,2,0,P|253:115|251:167,1,80.9999975280763,10|0,0:0|3:2,0:0:0:0:
242,175,28994,1,0,3:2:0:0:
242,175,29084,5,8,0:0:0:0:
179,111,29266,1,0,0:0:0:0:
91,125,29448,1,0,0:0:0:0:
71,211,29630,1,0,0:0:0:0:
133,274,29812,1,0,0:0:0:0:
228,258,29994,1,0,0:0:0:0:
228,258,30084,1,0,0:0:0:0:
227,258,30175,2,0,P|261:255|321:276,1,94.499997116089,0|0,0:0|0:0,0:0:0:0:
344,300,30539,6,0,L|354:137,1,161.999995056153,2|10,3:2|3:2,0:0:0:0:
441,60,31084,2,0,L|451:223,1,161.999995056153,2|0,0:0|3:2,0:0:0:0:
277,179,31630,2,0,P|269:135|282:91,1,80.9999975280763,10|0,0:0|0:0,0:0:0:0:
375,1,31994,6,0,B|341:33|341:33|210:13,1,161.999995056153,2|10,3:2|3:2,0:0:0:0:
52,24,32539,2,0,P|102:40|126:150,1,161.999995056153,2|0,0:0|3:2,0:0:0:0:
22,225,33084,2,0,P|11:263|18:303,1,80.9999975280763,10|0,0:0|0:0,0:0:0:0:
195,270,33448,6,0,L|110:264,1,80.9999975280763,2|0,3:2|0:0,0:0:0:0:
303,160,33812,1,10,3:2:0:0:
303,160,33994,2,0,L|218:166,1,80.9999975280763,2|0,0:0|3:2,0:0:0:0:
365,306,34357,2,0,L|280:300,1,80.9999975280763,0|10,3:2|0:0,0:0:0:0:
375,216,34721,1,2,0:0:0:0:
460,356,34903,6,0,P|454:314|451:271,1,80.9999975280763,0|2,3:2|0:0,0:0:0:0:
505,204,35266,2,0,P|512:145|505:36,1,161.999995056153,8|0,3:2|3:2,0:0:0:0:
394,113,35812,1,0,3:2:0:0:
263,26,35994,1,8,0:0:0:0:
263,26,36357,6,0,P|215:42|208:151,1,161.999995056153,2|10,3:2|3:2,0:0:0:0:
324,165,36903,2,0,P|357:202|309:300,1,161.999995056153,2|0,0:0|3:2,0:0:0:0:
223,346,37448,2,0,L|137:339,1,80.9999975280763,10|0,0:0|0:0,0:0:0:0:
24,356,37812,6,0,P|40:316|41:256,1,80.9999975280763,2|0,3:2|0:0,0:0:0:0:
123,170,38175,1,10,3:2:0:0:
123,170,38357,2,0,P|121:213|141:269,1,80.9999975280763,2|0,0:0|3:2,0:0:0:0:
223,346,38721,1,0,3:2:0:0:
262,185,38903,1,10,0:0:0:0:
262,185,39266,5,2,3:2:0:0:
378,227,39448,2,0,L|385:132,1,80.9999975280763,2|10,0:0|3:2,0:0:0:0:
255,79,39812,2,0,L|262:174,1,80.9999975280763,2|0,0:0|3:2,0:0:0:0:
366,10,40175,2,0,B|287:36|287:-22|209:13,1,161.999995056153,2|2,3:2|0:0,0:0:0:0:
133,98,40721,6,0,L|130:188,1,80.9999975280763,2|0,3:2|0:0,0:0:0:0:
41,235,41084,1,10,3:2:0:0:
41,235,41266,2,0,L|44:325,1,80.9999975280763,2|0,0:0|3:2,0:0:0:0:
159,362,41630,1,0,3:2:0:0:
260,249,41812,2,0,P|306:272|308:350,1,121.499996292114,14|0,0:0|0:0,0:0:0:0:
291,374,42175,6,0,L|429:368,1,135,4|0,0:1|0:0,0:0:0:0:
463,368,42539,1,10,3:2:0:0:
416,175,42721,2,0,P|389:243|477:287,1,180,2|0,0:0|3:2,0:0:0:0:
459,107,43266,2,0,P|393:96|364:112,1,90,10|0,0:0|0:0,0:0:0:0:
236,230,43630,6,0,B|211:188|211:188|221:98,1,135,2|0,3:2|0:0,0:0:0:0:
226,56,43994,1,10,3:2:0:0:
74,17,44175,2,0,P|31:11|-23:24,2,90,2|0|0,0:0|3:2|3:2,0:0:0:0:
250,84,44721,2,0,P|296:94|390:86,1,135,10|0,0:0|0:0,0:0:0:0:
435,35,45084,6,0,B|418:72|418:72|442:163,1,135,2|0,3:2|0:0,0:0:0:0:
451,204,45448,1,10,3:2:0:0:
415,330,45630,2,0,P|371:341|326:340,1,90,2|0,0:0|3:2,0:0:0:0:
308,181,45994,2,0,P|339:212|361:252,1,90,2|10,3:2|0:0,0:0:0:0:
235,372,46357,1,2,0:0:0:0:
67,279,46539,6,0,L|52:96,1,180,0|8,3:2|3:2,0:0:0:0:
218,23,47084,2,0,L|210:114,1,90,0|0,0:0|3:2,0:0:0:0:
161,267,47448,1,2,3:2:0:0:
161,267,47539,1,2,0:0:0:0:
161,267,47630,2,0,P|211:252|279:263,1,108,10|0,0:0|0:0,0:0:0:0:
304,321,47994,6,0,L|316:156,1,135,2|0,3:2|0:0,0:0:0:0:
318,148,48357,1,10,3:2:0:0:
508,275,48539,2,0,P|424:274|390:194,1,180,2|0,0:0|3:2,0:0:0:0:
482,72,49084,2,0,P|443:94|399:102,1,90,10|0,0:0|0:0,0:0:0:0:
221,8,49448,6,0,B|250:43|250:43|242:135,1,135,2|0,3:2|0:0,0:0:0:0:
239,172,49812,1,10,3:2:0:0:
81,213,49994,2,0,L|67:32,1,180,2|0,0:0|3:2,0:0:0:0:
239,172,50539,2,0,L|232:262,1,90,10|0,0:0|0:0,0:0:0:0:
110,355,50903,5,2,3:2:0:0:
259,272,51084,2,0,P|311:281|350:298,1,90,2|10,0:0|3:2,0:0:0:0:
208,347,51448,1,2,0:0:0:0:
295,199,51630,2,0,P|344:180|386:176,1,90,0|2,3:2|3:2,0:0:0:0:
149,261,51994,2,0,P|96:261|54:251,1,90,8|2,0:0|0:0,0:0:0:0:
95,18,52357,6,0,B|120:57|120:57|115:153,1,135,2|0,3:2|0:0,0:0:0:0:
113,185,52721,1,10,3:2:0:0:
256,8,52903,1,2,3:2:0:0:
248,251,53084,1,8,0:0:0:0:
176,0,53266,5,2,3:2:0:0:
223,115,53448,1,8,0:0:0:0:
95,18,53630,1,2,3:2:0:0:
301,64,53812,5,6,3:2:0:0:
31,83,53994,1,2,0:0:0:0:
327,62,54175,1,8,0:0:0:0:
141,258,54357,2,0,P|102:271|52:275,1,90,6|8,0:1|0:0,0:0:0:0:
151,80,54721,5,2,3:2:0:0:
90,176,54903,1,10,0:0:0:0:
31,83,55084,1,2,3:2:0:0:
221,22,55266,5,6,3:2:0:0:
139,282,55448,1,2,0:0:0:0:
240,2,55630,1,10,0:0:0:0:
335,226,55812,2,0,P|342:270|344:317,1,90,6|8,0:1|0:0,0:0:0:0:
252,158,56175,5,2,3:2:0:0:
337,342,56357,1,10,0:0:0:0:
485,203,56539,1,10,3:2:0:0:
485,203,56630,1,8,3:2:0:0:
485,203,56721,6,0,P|492:158|494:112,1,90,6|0,3:2|0:0,0:0:0:0:
449,41,56994,1,0,0:0:0:0:
430,30,57084,2,0,L|327:27,1,90,10|0,0:0|0:0,0:0:0:0:
285,87,57357,1,0,0:0:0:0:
266,98,57448,2,0,L|263:153,2,45,2|0|0,3:2|0:0|0:0,0:0:0:0:
152,24,57812,1,8,0:0:0:0:
36,161,57994,1,0,0:0:0:0:
36,161,58084,1,0,0:0:0:0:
36,161,58175,6,0,P|30:208|30:264,1,90,2|0,3:2|0:0,0:0:0:0:
88,328,58448,1,0,0:0:0:0:
104,345,58539,2,0,P|144:358|193:348,1,90,10|0,0:0|0:0,0:0:0:0:
271,293,58812,1,0,0:0:0:0:
288,277,58903,2,0,P|294:257|289:232,2,45,2|0|2,3:2|0:0|0:0,0:0:0:0:
371,384,59266,1,10,0:0:0:0:
503,266,59448,1,2,0:0:0:0:
504,243,59539,1,0,0:0:0:0:
505,216,59630,6,0,L|509:114,1,90,2|0,3:2|0:0,0:0:0:0:
458,46,59903,1,2,0:0:0:0:
432,26,59994,2,0,P|382:16|335:13,1,90,10|0,0:0|0:0,0:0:0:0:
279,61,60266,1,0,0:0:0:0:
250,75,60357,1,2,3:2:0:0:
219,84,60448,1,0,0:0:0:0:
187,87,60539,1,0,0:0:0:0:
75,0,60721,2,0,P|96:55|89:131,1,135,10|0,0:0|0:0,0:0:0:0:
40,188,61084,6,0,L|139:183,1,99.0000030212403,2|0,3:2|0:0,0:0:0:0:
233,158,61357,1,0,0:0:0:0:
263,148,61448,2,0,L|362:153,1,99.0000030212403,8|0,0:0|0:0,0:0:0:0:
441,212,61721,1,0,0:0:0:0:
447,240,61812,1,0,3:2:0:0:
361,360,61994,1,2,0:0:0:0:
263,148,62175,1,14,0:0:0:0:
117,344,62357,6,0,L|55:337,1,49.5000015106202,14|0,0:2|0:0,0:0:0:0:
318,63,62721,6,0,L|380:56,1,49.5000015106202,12|0,0:2|0:0,0:0:0:0:
62,249,63084,6,0,L|0:242,1,49.5000015106202,14|0,0:2|0:0,0:0:0:0:
361,152,63448,6,0,L|423:145,1,49.5000015106202,12|0,0:2|0:0,0:0:0:0:
360,247,63630,5,0,3:2:0:0:
360,247,63721,1,8,0:0:0:0:
360,247,63812,2,0,L|219:240,1,134.999995880127,14|2,3:1|0:0,0:0:0:0:
204,324,64903,1,2,0:0:0:0:
235,160,65084,1,10,3:2:0:0:
100,110,65266,1,2,0:0:0:0:
44,317,65448,6,0,B|96:286|96:286|210:327,1,175.499991966248,6|0,3:1|0:0,0:0:0:0:
229,344,65812,2,0,P|283:361|339:345,1,116.999994644165,10|0,0:0|0:0,0:0:0:0:
364,107,66176,1,2,3:2:0:0:
286,275,66357,1,0,3:2:0:0:
447,188,66539,1,8,0:0:0:0:
249,50,66721,6,0,L|115:54,1,116.999994644165,2|0,0:0|3:2,0:0:0:0:
59,196,67085,1,2,0:0:0:0:
286,275,67266,2,0,P|303:220|287:164,1,116.999994644165,10|2,0:0|3:2,0:0:0:0:
132,53,67630,5,0,3:2:0:0:
20,274,67812,1,2,3:2:0:0:
70,6,67994,1,10,0:0:0:0:
182,250,68176,1,2,0:0:0:0:
305,33,68357,6,0,P|363:17|421:32,1,116.999994644165,2|0,3:2|0:0,0:0:0:0:
426,247,68721,2,0,P|383:204|367:147,1,116.999994644165,10|0,0:0|0:0,0:0:0:0:
512,70,69085,1,2,3:2:0:0:
382,324,69266,1,2,3:2:0:0:
305,33,69448,1,10,0:0:0:0:
463,160,69630,1,0,0:0:0:0:
132,117,69812,5,2,3:2:0:0:
417,29,69994,1,2,0:0:0:0:
142,204,70176,1,10,0:0:0:0:
512,237,70357,1,2,3:2:0:0:
221,292,70539,5,2,3:2:0:0:
305,33,70721,1,2,3:2:0:0:
463,160,70903,1,10,0:0:0:0:
463,160,71266,6,0,L|341:155,1,116.999994644165,2|0,3:2|0:0,0:0:0:0:
104,296,71630,2,0,L|226:291,1,116.999994644165,10|0,0:0|0:0,0:0:0:0:
175,3,71994,2,0,B|128:52|128:52|153:216,1,233.999989288331,2|8,3:2|0:0,0:0:0:0:
300,344,72539,1,2,0:0:0:0:
274,117,72721,5,0,3:2:0:0:
220,291,72903,1,2,0:0:0:0:
351,141,73085,1,10,0:0:0:0:
407,315,73267,1,2,3:2:0:0:
428,102,73448,6,0,P|387:61|329:59,1,116.999994644165,0|2,3:2|0:0,0:0:0:0:
224,190,73812,1,10,0:0:0:0:
419,184,73994,1,2,0:0:0:0:
227,34,74176,6,0,B|141:7|144:84|58:52,1,175.499991966248,2|0,3:2|0:0,0:0:0:0:
27,33,74539,2,0,L|18:155,1,116.999994644165,10|0,0:0|0:0,0:0:0:0:
247,362,74903,5,2,3:2:0:0:
190,109,75085,1,2,0:0:0:0:
71,308,75266,5,10,0:0:0:0:
137,0,75448,1,0,0:0:0:0:
274,246,75630,6,0,P|326:269|384:264,1,116.999994644165,6|8,3:1|0:0,0:0:0:0:
453,205,75903,1,8,0:0:0:0:
455,175,75994,1,10,0:0:0:0:
457,145,76085,1,0,3:2:0:0:
459,115,76176,2,0,P|432:105|395:108,1,58.4999973220826,6|0,3:2|0:0,0:0:0:0:
274,246,76357,6,0,L|269:315,1,58.4999973220826,2|0,3:2|3:2,0:0:0:0:
184,79,76539,2,0,L|179:10,1,58.4999973220826,10|0,3:2|3:2,0:0:0:0:
143,300,76721,2,0,L|138:369,1,58.4999973220826,10|8,0:0|3:2,0:0:0:0:
33,62,76903,1,8,3:2:0:0:
33,62,76994,1,8,3:2:0:0:
33,62,77085,6,0,B|-6:120|-6:120|12:230,1,175.499991966248,4|0,3:1|0:0,0:0:0:0:
16,257,77448,2,0,P|71:269|134:261,1,116.999994644165,12|0,0:0|0:0,0:0:0:0:
265,141,77812,1,2,3:2:0:0:
215,365,77994,1,0,0:0:0:0:
181,186,78176,1,8,0:0:0:0:
369,332,78357,6,0,P|428:336|486:338,1,116.999994644165,2|0,0:0|3:2,0:0:0:0:
345,145,78721,1,2,0:0:0:0:
288,327,78903,1,10,0:0:0:0:
467,191,79085,1,2,3:2:0:0:
279,218,79266,2,0,P|250:148|260:84,1,116.999994644165,0|2,3:2|3:2,0:0:0:0:
401,27,79630,1,10,0:0:0:0:
379,248,79812,1,2,0:0:0:0:
230,12,79994,6,0,P|158:4|52:0,1,175.499991966248,2|0,3:2|0:0,0:0:0:0:
20,15,80357,2,0,B|5:76|5:76|21:154,1,116.999994644165,10|0,0:0|0:0,0:0:0:0:
177,271,80721,1,2,3:2:0:0:
98,85,80903,1,2,3:2:0:0:
28,272,81085,1,10,0:0:0:0:
200,168,81266,1,0,0:0:0:0:
7,188,81448,5,2,3:2:0:0:
273,115,81630,1,2,0:0:0:0:
97,321,81812,1,10,0:0:0:0:
371,343,81994,1,2,3:2:0:0:
191,82,82176,5,2,3:2:0:0:
229,360,82357,1,2,3:2:0:0:
286,203,82539,1,10,0:0:0:0:
121,223,82721,1,0,3:2:0:0:
121,223,82812,1,0,3:2:0:0:
121,223,82903,6,0,B|119:157|119:157|98:106|98:106|97:45,1,175.499991966248,6|0,3:2|0:0,0:0:0:0:
100,13,83266,2,0,P|157:0|231:2,1,116.999994644165,10|0,0:0|0:0,0:0:0:0:
385,177,83630,2,0,P|303:172|296:88,1,175.499991966248,6|0,3:1|0:0,0:0:0:0:
316,64,83994,2,0,L|442:60,1,116.999994644165,8|2,0:0|0:0,0:0:0:0:
512,309,84357,6,0,B|399:356|401:254|287:312,1,233.999989288331,4|10,3:2|0:0,0:0:0:0:
173,378,84812,1,0,3:2:0:0:
138,384,84903,1,2,3:2:0:0:
102,384,84994,1,0,3:2:0:0:
68,372,85085,2,0,P|49:310|62:229,1,116.999994644165,4|2,3:1|0:0,0:0:0:0:
172,154,85448,1,10,0:0:0:0:
136,298,85630,1,2,3:2:0:0:
15,81,85812,6,0,L|156:76,1,116.999994644165,2|0,3:2|0:0,0:0:0:0:
342,246,86176,2,0,L|201:241,1,116.999994644165,10|0,0:0|0:0,0:0:0:0:
197,6,86539,5,2,3:2:0:0:
136,298,86721,1,2,0:0:0:0:
376,50,86903,5,10,0:0:0:0:
437,342,87085,1,0,0:0:0:0:
246,94,87266,6,0,P|176:78|116:77,1,116.999994644165,6|8,3:1|0:0,0:0:0:0:
41,129,87539,1,8,0:0:0:0:
38,164,87630,1,10,0:0:0:0:
35,199,87721,1,8,0:0:0:0:
32,234,87812,2,0,L|95:230,1,58.4999973220826,14|8,0:0|3:2,0:0:0:0:
254,188,87994,5,2,3:2:0:0:
254,188,88176,1,2,3:2:0:0:
206,370,88357,1,10,0:0:0:0:
181,263,88539,1,0,3:2:0:0:
373,309,88721,6,0,B|400:270|400:270|378:170,1,148.50000453186,4|0,3:1|0:0,0:0:0:0:
354,146,89084,2,0,P|342:87|351:35,1,99.0000030212403,10|0,0:0|0:0,0:0:0:0:
443,10,89448,1,0,3:2:0:0:
443,10,89630,1,0,3:2:0:0:
317,66,89812,2,0,P|261:73|209:74,1,99.0000030212403,8|0,0:0|0:0,0:0:0:0:
53,49,90175,6,0,L|162:35,1,99.0000030212403,2|0,3:2|0:0,0:0:0:0:
124,161,90539,2,0,L|233:175,1,99.0000030212403,10|0,0:0|3:2,0:0:0:0:
317,66,90903,2,0,L|426:52,1,99.0000030212403,2|0,3:2|0:0,0:0:0:0:
388,178,91267,2,0,L|497:192,1,99.0000030212403,10|0,0:0|0:0,0:0:0:0:
477,175,91630,6,0,L|387:163,1,80.9999975280763,2|0,3:2|0:0,0:0:0:0:
409,71,91994,2,0,L|319:82,1,80.9999975280763,10|0,0:0|0:0,0:0:0:0:
218,156,92357,2,0,L|128:144,1,80.9999975280763,2|0,3:2|3:2,0:0:0:0:
144,49,92721,2,0,L|54:60,1,80.9999975280763,10|0,0:0|3:2,0:0:0:0:
43,78,92994,1,0,3:2:0:0:
43,78,93084,6,0,P|37:117|31:201,1,121.499996292114,8|0,0:0|0:0,0:0:0:0:
34,227,93448,2,0,L|138:223,1,80.9999975280763,12|0,0:1|0:0,0:0:0:0:
222,284,93812,1,0,3:2:0:0:
70,326,93994,1,0,3:2:0:0:
70,326,94084,1,0,3:2:0:0:
70,326,94175,1,12,0:0:0:0:
70,326,94539,6,0,L|241:319,1,161.999995056153,6|10,3:1|3:2,0:0:0:0:
296,194,95084,2,0,L|467:201,1,161.999995056153,2|0,0:0|3:2,0:0:0:0:
388,318,95630,2,0,P|373:280|376:240,1,80.9999975280763,10|0,0:0|0:0,0:0:0:0:
462,97,95994,6,0,B|438:127|438:127|309:122,1,161.999995056153,2|10,3:2|3:2,0:0:0:0:
183,8,96539,2,0,P|217:50|201:157,1,161.999995056153,2|0,0:0|3:2,0:0:0:0:
80,201,97084,2,0,L|0:196,1,80.9999975280763,10|0,0:0|0:0,0:0:0:0:
81,339,97448,6,0,L|161:334,1,80.9999975280763,2|0,3:2|0:0,0:0:0:0:
230,224,97812,1,10,3:2:0:0:
230,224,97994,2,0,L|310:228,1,80.9999975280763,2|0,0:0|3:2,0:0:0:0:
316,373,98357,2,0,L|396:369,1,80.9999975280763,0|10,3:2|0:0,0:0:0:0:
469,291,98721,1,2,0:0:0:0:
310,228,98903,6,0,P|307:186|301:143,1,80.9999975280763,0|2,3:2|0:0,0:0:0:0:
210,27,99266,2,0,P|144:18|77:105,1,161.999995056153,8|0,3:2|3:2,0:0:0:0:
204,190,99812,1,0,3:2:0:0:
65,282,99994,1,8,0:0:0:0:
65,282,100357,6,0,P|142:276|237:279,1,161.999995056153,2|10,3:2|3:2,0:0:0:0:
301,147,100903,2,0,P|378:153|473:150,1,161.999995056153,2|0,0:0|3:2,0:0:0:0:
512,312,101448,2,0,P|471:306|431:305,1,80.9999975280763,10|0,0:0|0:0,0:0:0:0:
303,384,101812,6,0,P|308:338|295:296,1,80.9999975280763,2|0,3:2|0:0,0:0:0:0:
146,177,102175,1,10,3:2:0:0:
146,177,102357,2,0,P|141:223|154:265,1,80.9999975280763,2|0,0:0|3:2,0:0:0:0:
287,200,102721,1,0,3:2:0:0:
205,50,102903,1,10,0:0:0:0:
205,50,103266,5,2,3:2:0:0:
127,163,103448,2,0,L|32:156,1,80.9999975280763,2|10,0:0|3:2,0:0:0:0:
224,69,103812,2,0,L|319:62,1,80.9999975280763,2|0,0:0|3:2,0:0:0:0:
130,7,104175,2,0,P|117:50|121:99,1,80.9999975280763,2|8,3:2|0:0,0:0:0:0:
208,188,104539,1,2,0:0:0:0:
60,237,104721,6,0,L|57:327,1,80.9999975280763,2|0,3:2|0:0,0:0:0:0:
118,85,105084,1,10,3:2:0:0:
208,188,105266,2,0,L|211:278,1,80.9999975280763,2|0,0:0|3:2,0:0:0:0:
116,110,105630,1,0,3:2:0:0:
236,197,105812,2,0,P|300:208|359:197,1,121.499996292114,14|0,0:0|0:0,0:0:0:0:
385,172,106175,6,0,L|383:322,1,135,4|0,0:1|0:0,0:0:0:0:
383,348,106539,1,10,3:2:0:0:
461,136,106721,2,0,P|381:89|310:134,1,180,2|0,0:0|3:2,0:0:0:0:
210,268,107266,2,0,P|167:282|125:270,1,90,10|0,0:0|0:0,0:0:0:0:
39,57,107630,6,0,B|46:192,1,135,2|0,3:2|0:0,0:0:0:0:
48,229,107994,1,10,3:2:0:0:
154,105,108175,2,0,P|198:99|242:108,2,90,2|0|0,0:0|3:2|3:2,0:0:0:0:
125,270,108721,2,0,L|259:262,1,135,10|0,0:0|0:0,0:0:0:0:
302,245,109084,6,0,B|290:270|290:270|306:331,1,90,2|0,3:2|0:0,0:0:0:0:
393,218,109448,1,10,3:2:0:0:
501,370,109630,2,0,P|512:326|511:281,1,90,2|0,0:0|3:2,0:0:0:0:
372,131,109994,2,0,P|376:176|393:218,1,90,2|10,3:2|0:0,0:0:0:0:
512,95,110357,1,2,0:0:0:0:
311,9,110539,6,0,L|131:16,1,180,0|8,3:2|3:2,0:0:0:0:
226,186,111084,2,0,P|238:143|231:99,1,90,0|0,0:0|3:2,0:0:0:0:
63,74,111448,1,2,3:2:0:0:
102,271,111630,2,0,L|193:265,1,90,10|0,0:0|0:0,0:0:0:0:
356,384,111994,6,0,L|368:219,1,135,2|0,3:2|0:0,0:0:0:0:
369,212,112357,1,10,3:2:0:0:
227,324,112539,2,0,L|213:144,1,180,2|0,0:0|3:2,0:0:0:0:
383,25,113084,2,0,P|405:64|413:108,1,90,10|0,0:0|0:0,0:0:0:0:
200,64,113448,6,0,L|43:54,1,135,2|0,3:2|0:0,0:0:0:0:
24,52,113812,1,10,3:2:0:0:
81,230,113994,2,0,L|278:217,1,180,2|0,0:0|3:2,0:0:0:0:
300,48,114539,2,0,P|288:86|293:138,1,90,10|0,0:0|0:0,0:0:0:0:
419,236,114903,5,6,3:2:0:0:
241,316,115084,2,0,P|198:329|153:333,1,90,2|10,0:0|3:2,0:0:0:0:
335,336,115448,1,2,0:0:0:0:
177,222,115630,2,0,P|163:179|159:134,1,90,0|2,3:2|3:2,0:0:0:0:
292,135,115994,1,8,0:0:0:0:
241,316,116175,1,2,0:0:0:0:
88,182,116357,6,0,B|72:154|72:154|83:93,1,90,2|0,3:2|0:0,0:0:0:0:
293,26,116721,1,10,3:2:0:0:
157,125,116903,1,2,3:2:0:0:
375,171,117084,1,8,0:0:0:0:
210,48,117266,5,2,3:2:0:0:
259,184,117448,1,8,0:0:0:0:
362,83,117630,1,2,0:0:0:0:
157,125,117812,5,6,3:2:0:0:
404,180,117994,1,2,0:0:0:0:
136,119,118175,1,10,0:0:0:0:
327,266,118357,2,0,P|340:305|344:355,1,90,6|8,3:1|0:0,0:0:0:0:
170,244,118721,5,2,3:2:0:0:
154,356,118903,1,10,0:0:0:0:
259,322,119084,1,2,0:0:0:0:
79,297,119266,5,6,3:2:0:0:
312,191,119448,1,2,0:0:0:0:
56,307,119630,1,10,0:0:0:0:
233,156,119812,2,0,P|240:112|242:65,1,90,6|8,3:1|3:2,0:0:0:0:
101,22,120175,5,2,3:2:0:0:
270,72,120357,1,10,0:0:0:0:
65,184,120539,1,10,3:2:0:0:
65,184,120630,1,8,3:2:0:0:
65,184,120721,6,0,B|55:230|55:230|56:275,1,90,6|0,3:2|0:0,0:0:0:0:
135,357,120994,1,0,0:0:0:0:
154,368,121084,2,0,B|199:378|199:378|250:377,1,90,10|0,0:0|0:0,0:0:0:0:
329,346,121357,1,0,0:0:0:0:
348,339,121448,2,0,L|351:394,2,45,2|0|0,3:2|0:0|0:0,0:0:0:0:
270,247,121812,1,8,0:0:0:0:
445,232,121994,1,0,0:0:0:0:
445,232,122084,1,0,0:0:0:0:
445,232,122175,6,0,B|455:186|455:186|454:141,1,90,2|0,3:2|0:0,0:0:0:0:
396,52,122448,1,0,0:0:0:0:
378,33,122539,2,0,B|332:23|332:23|287:24,1,90,10|0,0:0|0:0,0:0:0:0:
208,92,122812,1,0,0:0:0:0:
191,108,122903,2,0,B|185:129|185:129|190:153,2,45,2|0|0,3:2|0:0|0:0,0:0:0:0:
290,169,123266,1,10,0:0:0:0:
183,240,123448,1,2,0:0:0:0:
158,242,123539,1,0,0:0:0:0:
140,240,123630,6,0,P|95:233|51:240,1,90,2|0,3:2|0:0,0:0:0:0:
8,351,123903,1,0,0:0:0:0:
34,371,123994,2,0,P|78:377|122:370,1,90,10|0,0:0|0:0,0:0:0:0:
226,320,124266,1,0,0:0:0:0:
257,316,124357,1,2,3:2:0:0:
288,312,124448,1,0,0:0:0:0:
319,308,124539,1,0,0:0:0:0:
444,383,124721,2,0,P|423:328|430:252,1,135,10|0,0:0|0:0,0:0:0:0:
496,113,125084,6,0,B|453:101|453:101|408:108,1,90,2|0,3:2|0:0,0:0:0:0:
289,199,125357,1,0,0:0:0:0:
265,217,125448,2,0,B|222:229|222:229|177:222,1,90,8|0,0:0|0:0,0:0:0:0:
98,163,125721,1,0,0:0:0:0:
92,135,125812,1,2,3:2:0:0:
219,148,125994,1,2,0:0:0:0:
42,290,126175,1,14,0:0:0:0:
275,316,126357,6,0,L|282:378,1,49.5000015106202,14|0,0:2|0:0,0:0:0:0:
159,62,126721,6,0,L|166:0,1,49.5000015106202,12|0,0:2|0:0,0:0:0:0:
361,308,127084,6,0,L|368:370,1,49.5000015106202,14|0,0:2|0:0,0:0:0:0:
245,54,127448,6,0,L|252:-8,1,49.5000015106202,12|0,0:2|0:0,0:0:0:0:
313,107,127630,5,0,3:2:0:0:
313,107,127721,1,8,0:0:0:0:
313,107,127812,2,0,P|260:135|213:129,1,108,12|0,0:1|0:0,0:0:0:0:
178,113,128175,2,0,P|161:108|137:106,1,36,0|0,3:2|3:2,0:0:0:0:
66,127,128357,1,4,0:0:0:0:
66,127,128721,5,2,0:0:0:0:
168,192,128903,1,2,3:2:0:0:
130,344,129084,1,10,0:0:0:0:
20,200,129266,1,2,0:0:0:0:
226,297,129448,6,0,B|308:271|311:342|400:305,1,175.499991966248,6|0,3:1|0:0,0:0:0:0:
427,285,129812,2,0,P|431:231|427:166,1,116.999994644165,10|0,0:0|0:0,0:0:0:0:
512,352,130175,1,2,3:2:0:0:
349,221,130356,1,0,3:2:0:0:
512,112,130538,1,8,0:0:0:0:
284,11,130721,6,0,P|227:1|170:12,1,116.999994644165,2|0,0:0|3:2,0:0:0:0:
107,177,131084,1,2,0:0:0:0:
340,190,131266,2,0,P|320:135|282:90,1,116.999994644165,10|2,0:0|3:2,0:0:0:0:
182,250,131630,5,0,3:2:0:0:
282,90,131812,1,2,3:2:0:0:
249,309,131994,1,10,0:0:0:0:
126,83,132175,1,2,0:0:0:0:
48,345,132357,6,0,P|103:360|160:348,1,116.999994644165,2|0,3:2|0:0,0:0:0:0:
307,213,132721,2,0,P|265:253|248:308,1,116.999994644165,10|0,0:0|0:0,0:0:0:0:
394,374,133085,1,2,3:2:0:0:
423,176,133266,1,2,3:2:0:0:
281,384,133448,1,10,0:0:0:0:
221,171,133630,1,0,0:0:0:0:
468,299,133812,5,2,3:2:0:0:
170,262,133994,1,2,0:0:0:0:
471,102,134176,1,10,0:0:0:0:
131,183,134357,1,2,3:2:0:0:
349,269,134539,5,2,3:2:0:0:
305,33,134721,1,2,3:2:0:0:
221,171,134903,1,10,0:0:0:0:
221,171,135266,6,0,P|237:112|217:63,1,116.999994644165,2|0,3:2|0:0,0:0:0:0:
10,86,135630,2,0,P|-6:145|14:194,1,116.999994644165,10|0,0:0|0:0,0:0:0:0:
186,287,135994,2,0,B|176:218|118:198|118:198|69:232|84:304,1,233.999989288331,2|8,3:2|0:0,0:0:0:0:
204,380,136539,1,2,0:0:0:0:
311,199,136721,5,0,3:2:0:0:
186,287,136903,1,2,0:0:0:0:
355,311,137085,1,10,0:0:0:0:
221,171,137267,1,2,3:2:0:0:
415,256,137448,6,0,P|439:308|421:363,1,116.999994644165,0|2,3:2|3:2,0:0:0:0:
186,287,137812,1,10,0:0:0:0:
402,159,137994,1,2,0:0:0:0:
135,130,138175,6,0,P|146:46|236:12,1,175.499991966248,2|0,3:2|0:0,0:0:0:0:
256,11,138539,2,0,B|284:47|284:47|285:121,1,116.999994644165,10|0,0:0|0:0,0:0:0:0:
113,240,138903,5,2,3:2:0:0:
402,159,139085,1,2,3:2:0:0:
135,130,139266,5,10,0:0:0:0:
437,252,139448,1,0,3:2:0:0:
222,321,139630,6,0,P|199:269|204:211,1,116.999994644165,6|8,3:1|0:0,0:0:0:0:
284,118,139903,1,8,0:0:0:0:
314,120,139994,1,10,0:0:0:0:
344,122,140085,1,8,0:0:0:0:
374,124,140176,2,0,P|379:158|377:185,1,58.4999973220826,6|0,3:2|0:0,0:0:0:0:
356,353,140357,6,0,L|296:348,1,58.4999973220826,2|0,3:2|3:2,0:0:0:0:
454,158,140539,2,0,L|514:153,1,58.4999973220826,10|0,3:2|3:2,0:0:0:0:
275,241,140721,2,0,L|215:236,1,58.4999973220826,10|8,0:0|3:2,0:0:0:0:
427,15,140903,1,8,3:2:0:0:
427,15,140994,1,8,3:2:0:0:
427,15,141084,6,0,B|335:-17|255:-1,1,175.499991966248,4|0,3:1|0:0,0:0:0:0:
227,19,141448,2,0,L|226:136,1,116.999994644165,12|0,0:2|0:0,0:0:0:0:
353,271,141812,1,2,3:2:0:0:
312,83,141994,1,0,3:2:0:0:
215,333,142175,1,8,0:0:0:0:
114,112,142357,6,0,P|60:97|-1:95,1,116.999994644165,2|0,0:0|3:2,0:0:0:0:
226,135,142721,1,2,0:0:0:0:
28,239,142903,1,10,0:0:0:0:
140,28,143085,1,2,3:2:0:0:
208,251,143266,2,0,P|262:266|323:268,1,116.999994644165,0|2,3:2|3:2,0:0:0:0:
478,139,143630,1,10,0:0:0:0:
449,379,143812,1,2,0:0:0:0:
272,193,143993,6,0,P|247:120|271:20,1,175.499991966248,2|0,3:2|0:0,0:0:0:0:
296,1,144357,2,0,B|354:-12|354:-12|409:2,1,116.999994644165,10|0,0:0|0:0,0:0:0:0:
478,139,144721,1,2,3:2:0:0:
267,26,144903,1,2,3:2:0:0:
500,58,145085,1,10,0:0:0:0:
272,193,145266,1,0,0:0:0:0:
409,2,145448,5,2,3:2:0:0:
358,293,145630,1,2,0:0:0:0:
185,13,145812,1,10,0:0:0:0:
246,294,145994,1,2,3:2:0:0:
390,126,146175,5,2,3:2:0:0:
186,100,146356,1,2,3:2:0:0:
338,209,146538,1,10,0:0:0:0:
101,171,146720,1,0,3:2:0:0:
101,171,146811,1,0,3:2:0:0:
101,170,146902,6,0,P|49:239|59:324,1,175.499991966248,6|0,3:1|0:0,0:0:0:0:
80,358,147266,2,0,L|211:354,1,116.999994644165,10|0,0:0|0:0,0:0:0:0:
338,209,147630,2,0,P|256:214|249:298,1,175.499991966248,6|0,3:2|0:0,0:0:0:0:
269,322,147994,2,0,L|395:326,1,116.999994644165,8|2,0:0|0:0,0:0:0:0:
510,124,148357,6,0,B|467:104|431:102|431:102|355:129|355:129|321:115|285:116,1,233.999989288331,4|10,3:1|3:2,0:0:0:0:
159,192,148811,1,0,3:2:0:0:
124,198,148902,1,2,3:2:0:0:
88,198,148993,1,0,3:2:0:0:
54,186,149084,2,0,P|35:124|48:43,1,116.999994644165,4|2,3:2|0:0,0:0:0:0:
217,13,149447,1,10,0:0:0:0:
258,248,149629,1,2,3:2:0:0:
38,72,149812,6,0,L|179:67,1,116.999994644165,2|0,3:2|0:0,0:0:0:0:
374,252,150175,2,0,L|233:247,1,116.999994644165,10|0,0:0|0:0,0:0:0:0:
81,289,150538,5,2,3:2:0:0:
323,148,150720,1,2,0:0:0:0:
54,186,150902,5,10,0:0:0:0:
367,338,151084,1,0,0:0:0:0:
172,182,151266,6,0,P|156:112|155:52,1,116.999994644165,6|8,3:1|0:0,0:0:0:0:
241,10,151538,1,8,0:0:0:0:
276,7,151629,1,10,0:0:0:0:
311,4,151720,1,8,0:0:0:0:
346,1,151812,2,0,L|342:64,1,58.4999973220826,6|0,3:2|3:2,0:0:0:0:
327,239,151993,5,2,3:2:0:0:
327,239,152175,1,2,3:2:0:0:
414,172,152356,1,10,0:0:0:0:
261,155,152538,1,0,3:2:0:0:
316,335,152720,5,6,3:1:0:0:
316,335,153448,5,0,3:2:0:0:
247,290,153630,1,0,3:2:0:0:
145,360,153812,1,0,0:0:0:0:
76,315,153994,1,0,3:2:0:0:
68,163,154175,5,14,0:1:0:0:
68,163,154903,6,0,L|177:155,1,108,0|8,3:2|0:0,0:0:0:0:
265,198,155630,1,6,3:2:0:0:
45,51,157084,5,6,0:1:0:0:
439,73,157812,5,2,0:0:0:0:
451,122,157994,1,2,0:0:0:0:
401,134,158175,1,2,0:0:0:0:
389,85,158357,1,2,0:0:0:0:
457,209,158539,6,0,P|475:250|478:348,2,125.999996154785,6|2|0,0:0|0:0|3:2,0:0:0:0:
379,247,159448,1,0,3:2:0:0:
278,157,159630,1,0,0:0:0:0:
200,195,159812,1,0,3:2:0:0:
108,330,159994,6,0,B|126:295|126:295|99:184,1,125.999996154785,14|0,0:1|0:0,0:0:0:0:
105,210,160721,1,2,3:2:0:0:
16,177,160903,1,0,0:0:0:0:
14,48,161084,1,0,0:0:0:0:
103,15,161266,1,0,3:2:0:0:
199,109,161448,5,14,0:0:0:0:
199,109,162175,2,0,L|204:39,1,62.9999980773926,2|0,0:0|0:0,0:0:0:0:
284,168,162539,2,0,L|289:238,1,62.9999980773926,2|0,0:0|0:0,0:0:0:0:
370,84,162903,5,6,3:1:0:0:
370,84,163630,5,2,0:0:0:0:
456,107,163812,1,2,3:2:0:0:
379,212,163994,1,10,0:0:0:0:
465,235,164176,1,2,0:0:0:0:
332,341,164357,6,0,B|270:353|270:353|190:339,2,125.999996154785,6|2|2,0:1|0:0|0:0,0:0:0:0:
249,72,165630,2,0,L|252:105,1,26.9999991760254,2|0,0:0|3:2,0:0:0:0:
33,193,166539,5,2,0:0:0:0:
21,296,166721,1,2,0:0:0:0:
117,338,166903,1,10,0:0:0:0:
187,260,167084,1,2,3:2:0:0:
32,164,167266,6,0,B|18:99|18:99|21:37,2,125.999996154785,6|2|2,0:0|0:0|0:0,0:0:0:0:
309,74,168539,2,0,L|276:77,1,26.9999991760254,2|0,0:0|3:2,0:0:0:0:
282,76,169266,2,0,L|277:211,1,125.999996154785,2|2,0:0|0:0,0:0:0:0:
339,265,169812,2,0,L|341:332,1,62.9999980773926,10|0,0:0|3:2,0:0:0:0:
263,373,170175,6,0,P|215:350|132:347,2,125.999996154785,6|2|2,0:1|0:0|0:0,0:0:0:0:
16,372,171630,1,2,3:2:0:0:
16,372,172357,5,2,0:0:0:0:
86,291,172539,1,2,0:0:0:0:
91,183,172721,1,10,0:0:0:0:
38,89,172903,1,2,0:0:0:0:
184,29,173084,5,6,0:0:0:0:
184,29,173266,2,0,L|315:32,2,125.999996154785,2|2|2,0:0|3:2|0:0,0:0:0:0:
28,186,174357,2,0,L|90:182,1,62.9999980773926,0|0,0:0|3:2,0:0:0:0:
90,182,175266,1,2,0:0:0:0:
143,288,175448,1,0,0:0:0:0:
198,133,175630,2,0,P|233:127|260:132,1,62.9999980773926,10|0,0:0|3:2,0:0:0:0:
290,145,175903,1,0,3:2:0:0:
290,145,175994,6,0,L|303:340,1,188.999994232178,14|0,0:1|0:0,0:0:0:0:
426,384,176721,1,0,0:0:0:0:
426,384,177084,1,10,0:0:0:0:
481,296,177266,1,2,3:2:0:0:
408,185,177448,6,0,P|393:145|480:25,1,188.999994232178,4|0,0:0|0:0,0:0:0:0:
491,128,178175,1,2,0:0:0:0:
422,207,178357,1,2,0:0:0:0:
316,189,178539,1,2,3:2:0:0:
235,118,178721,1,2,3:2:0:0:
130,110,178903,6,0,P|97:141|81:242,1,125.999996154785,14|0,0:1|0:0,0:0:0:0:
99,318,179448,1,0,3:2:0:0:
239,299,179630,2,0,P|228:254|149:190,1,125.999996154785,0|10,0:0|0:0,0:0:0:0:
25,281,180175,1,2,3:2:0:0:
10,114,180357,5,4,0:0:0:0:
10,114,181084,1,10,0:0:0:0:
102,59,181266,1,2,0:0:0:0:
191,117,181448,1,2,3:2:0:0:
281,58,181630,1,0,3:2:0:0:
281,58,181721,1,0,3:2:0:0:
281,58,181812,6,0,P|342:50|406:50,1,121.499996292114,2|0,3:2|0:0,0:0:0:0:
433,69,182175,2,0,L|437:153,1,80.9999975280763,2|2,0:0|0:0,0:0:0:0:
348,226,182539,1,0,3:2:0:0:
348,226,182721,1,0,0:0:0:0:
467,326,182903,2,0,B|428:314|428:314|368:320,1,80.9999975280763,8|0,0:0|0:0,0:0:0:0:
255,384,183266,6,0,L|261:248,1,121.499996292114,0|0,3:2|0:0,0:0:0:0:
261,226,183630,2,0,P|215:216|177:214,1,80.9999975280763,8|0,0:0|0:0,0:0:0:0:
76,265,183994,1,2,0:0:0:0:
38,365,184175,1,2,0:0:0:0:
2,187,184357,1,2,0:0:0:0:
81,296,184539,1,2,0:0:0:0:
156,163,184721,6,0,P|161:112|123:54,1,121.499996292114,6|0,0:1|0:0,0:0:0:0:
89,30,185084,2,0,L|201:24,1,80.9999975280763,2|2,0:0|0:0,0:0:0:0:
262,99,185448,1,0,0:0:0:0:
262,99,185630,1,2,0:0:0:0:
366,42,185812,2,0,P|387:97|387:134,1,80.9999975280763,8|0,0:0|3:2,0:0:0:0:
385,153,186084,1,0,3:2:0:0:
385,153,186175,1,4,0:0:0:0:
385,153,186539,5,10,0:0:0:0:
357,289,186721,1,0,3:2:0:0:
284,167,186903,5,14,0:1:0:0:
321,355,187084,1,0,0:0:0:0:
290,367,187175,1,0,0:0:0:0:
258,373,187266,1,2,0:0:0:0:
225,371,187357,1,0,0:0:0:0:
194,359,187448,2,0,L|186:300,1,40.4999987640381,0|0,3:2|3:2,0:0:0:0:
84,208,187630,6,0,P|95:275|93:384,1,161.999995056153,6|0,0:0|0:0,0:0:0:0:
94,368,188357,1,0,3:2:0:0:
6,259,188539,1,0,3:2:0:0:
97,167,188721,2,0,P|113:119|113:83,1,80.9999975280763,8|0,0:0|0:0,0:0:0:0:
11,23,189084,6,0,B|44:51|44:51|175:22,1,161.999995056153,2|0,0:0|0:0,0:0:0:0:
281,61,189630,2,0,P|291:107|284:143,1,80.9999975280763,0|0,3:2|0:0,0:0:0:0:
216,250,189994,1,0,3:2:0:0:
362,334,190175,1,8,0:0:0:0:
362,334,190539,6,0,P|348:288|441:203,1,161.999995056153,2|0,0:0|0:0,0:0:0:0:
412,205,191266,1,0,3:2:0:0:
487,286,191448,1,0,3:2:0:0:
499,122,191630,2,0,P|451:114|416:118,1,80.9999975280763,10|0,0:0|0:0,0:0:0:0:
300,192,191994,6,0,P|314:146|221:61,1,161.999995056153,6|0,0:1|0:0,0:0:0:0:
149,117,192539,1,0,3:2:0:0:
221,222,192721,5,10,0:0:0:0:
42,187,192903,1,0,3:2:0:0:
241,232,193084,2,0,L|251:341,1,80.9999975280763,14|0,0:1|0:0,0:0:0:0:
151,362,193448,5,4,3:2:0:0:
151,362,193630,1,0,0:0:0:0:
221,236,193812,1,2,3:2:0:0:
322,293,193994,2,0,P|368:300|415:300,1,80.9999975280763,0|2,0:0|3:2,0:0:0:0:
467,216,194357,1,2,0:0:0:0:
414,319,194539,1,10,0:0:0:0:
348,197,194721,1,0,0:0:0:0:
494,113,194903,6,0,P|417:130|353:84,1,161.999995056153,2|2,0:0|3:2,0:0:0:0:
470,4,195448,1,2,0:0:0:0:
470,4,195812,1,0,0:0:0:0:
368,112,195994,1,14,0:1:0:0:
258,10,196175,1,2,0:0:0:0:
212,184,196357,6,0,P|221:113|143:37,1,161.999995056153,2|10,3:2|0:0,0:0:0:0:
54,106,196903,1,2,0:0:0:0:
54,106,196994,1,0,0:0:0:0:
54,106,197084,2,0,L|49:191,1,80.9999975280763,0|0,3:2|0:0,0:0:0:0:
110,336,197448,1,14,0:1:0:0:
139,247,197630,1,2,0:0:0:0:
218,381,197812,6,0,L|315:376,1,90,6|0,3:2|0:0,0:0:0:0:
301,188,198175,2,0,L|204:183,1,90,10|0,0:0|0:0,0:0:0:0:
371,315,198539,2,0,L|468:310,1,90,2|0,3:2|3:2,0:0:0:0:
258,111,198903,1,10,0:0:0:0:
288,298,199084,1,2,0:0:0:0:
389,71,199266,5,10,0:0:0:0:
371,315,199448,1,0,0:0:0:0:
266,24,199630,5,8,0:0:0:0:
287,273,199812,1,2,0:0:0:0:
128,45,199994,5,10,0:0:0:0:
195,315,200175,1,0,0:0:0:0:
266,24,200357,1,8,0:0:0:0:
27,153,200539,6,0,P|17:214|16:314,1,161.999995056153,14|0,0:0|0:0,0:0:0:0:
17,346,200903,1,2,3:2:0:0:
260,280,201084,1,2,3:2:0:0:
258,247,201175,1,0,3:2:0:0:
252,215,201266,2,0,P|211:178|123:278,1,215.999993408203,6|0,3:2|0:0,0:0:0:0:
281,355,201812,1,0,3:2:0:0:
324,357,201903,1,0,3:2:0:0:
367,359,201994,1,0,3:2:0:0:
409,362,202084,1,0,3:2:0:0:
451,366,202175,6,0,P|460:315|459:256,1,107.999996704102,6|0,3:1|0:0,0:0:0:0:
280,155,202539,1,0,3:2:0:0:
282,198,202630,1,0,3:2:0:0:
299,237,202721,1,0,3:2:0:0:
332,264,202812,1,0,3:2:0:0:
373,276,202903,5,10,0:0:0:0:
340,77,203084,1,2,0:0:0:0:
340,77,203175,1,0,0:0:0:0:
340,77,203266,1,14,0:0:0:0:
189,266,203448,1,2,0:0:0:0:
99,2,203630,5,6,0:1:0:0:
441,55,204357,5,6,0:1:0:0:
30,277,205084,5,4,0:1:0:0:
418,57,205994,5,2,3:2:0:0:
418,57,206175,2,0,L|425:181,1,107.999996704102,10|2,0:0|0:0,0:0:0:0:
464,247,206539,6,0,P|380:212|301:257,1,188.999994232178,6|0,3:1|0:0,0:0:0:0:
271,326,207266,2,0,P|278:235|211:173,1,188.999994232178,4|2,3:2|3:2,0:0:0:0:
136,165,207994,2,0,P|224:144|262:61,1,188.999994232178,6|2,0:1|0:0,0:0:0:0:
195,3,208721,1,2,0:0:0:0:
122,78,208903,1,2,3:2:0:0:
291,132,209084,1,10,0:0:0:0:
291,132,209448,6,0,L|386:129,1,90,2|0,0:0|0:0,0:0:0:0:
512,235,209812,2,0,L|417:232,1,90,2|0,3:2|0:0,0:0:0:0:
422,232,210084,1,0,0:0:0:0:
422,232,210175,1,2,3:2:0:0:
310,346,210357,1,0,3:2:0:0:
296,348,210448,1,0,3:2:0:0:
283,351,210539,2,0,L|188:348,1,90,8|0,0:0|0:0,0:0:0:0:
102,171,210903,5,2,3:2:0:0:
229,271,211084,1,2,0:0:0:0:
57,290,211266,1,0,3:2:0:0:
192,194,211448,1,2,0:0:0:0:
192,194,211539,1,0,0:0:0:0:
192,194,211630,1,2,3:2:0:0:
129,332,211812,1,0,3:2:0:0:
125,345,211903,1,0,3:2:0:0:
122,358,211994,1,10,0:0:0:0:
43,177,212175,1,10,0:0:0:0:
34,150,212266,1,8,0:0:0:0:
28,123,212357,5,14,0:0:0:0:
28,123,213448,6,0,P|17:73|71:111,1,135,2|0,3:2|0:0,0:0:0:0:
92,160,213812,6,0,L|201:155,1,107.999996704102,6|8,0:0|0:0,0:0:0:0:
269,199,214084,1,0,3:2:0:0:
269,199,214175,2,0,P|283:256|283:270,1,53.9999983520508,0|0,3:2|3:2,0:0:0:0:
332,63,214357,1,12,0:0:0:0:
449,269,214539,1,10,0:0:0:0:
414,243,214630,1,8,0:0:0:0:
392,205,214721,1,10,3:2:0:0:
385,162,214812,1,8,3:2:0:0:
397,120,214903,6,0,L|455:117,1,53.9999983520508,2|0,3:2|3:2,0:0:0:0:
275,278,215084,2,0,L|217:275,1,53.9999983520508,2|0,3:2|3:2,0:0:0:0:
75,88,215266,6,0,B|111:131|111:131|91:262,1,188.999994232178,6|0,3:1|0:0,0:0:0:0:
29,309,215630,2,0,L|171:314,1,125.999996154785,10|0,0:0|0:0,0:0:0:0:
276,130,215994,2,0,P|228:224|289:282,1,188.999994232178,6|0,3:2|0:0,0:0:0:0:
306,289,216357,1,8,0:0:0:0:
449,153,216539,6,0,P|453:84|450:19,1,125.999996154785,2|0,0:0|3:2,0:0:0:0:
512,225,216903,1,2,0:0:0:0:
315,74,217084,2,0,P|311:143|314:208,1,125.999996154785,10|0,0:0|3:2,0:0:0:0:
239,15,217448,5,2,3:2:0:0:
389,220,217630,1,2,0:0:0:0:
181,102,217812,1,10,0:0:0:0:
449,153,217994,1,2,0:0:0:0:
189,260,218175,6,0,P|127:243|81:199,1,125.999996154785,2|0,3:2|0:0,0:0:0:0:
311,80,218539,2,0,P|328:141|312:203,1,125.999996154785,10|0,0:0|0:0,0:0:0:0:
67,97,218903,1,2,3:2:0:0:
318,0,219084,1,2,3:2:0:0:
46,103,219266,1,10,0:0:0:0:
393,46,219448,1,2,0:0:0:0:
49,10,219630,5,10,0:0:0:0:
183,290,219812,1,2,0:0:0:0:
239,5,219994,1,10,0:0:0:0:
82,332,220175,1,2,3:2:0:0:
247,148,220357,5,10,0:0:0:0:
210,138,220448,1,8,0:0:0:0:
172,134,220539,1,10,0:0:0:0:
135,144,220630,1,8,0:0:0:0:
101,162,220721,2,0,L|93:228,1,62.9999980773926,10|0,0:0|0:0,0:0:0:0:
205,384,220903,2,0,L|197:318,1,62.9999980773926,8|8,0:0|3:2,0:0:0:0:
290,130,221084,6,0,P|283:221|386:277,1,215.999993408203,6|2,3:1|3:2,0:0:0:0:
440,193,221539,1,0,3:2:0:0:
442,155,221630,1,0,3:2:0:0:
444,117,221721,1,0,3:2:0:0:
446,79,221812,2,0,B|394:32|394:32|236:48,1,215.999993408203,6|0,0:0|3:2,0:0:0:0:
174,122,222266,1,0,3:2:0:0:
143,144,222357,1,0,3:2:0:0:
106,154,222448,1,0,3:2:0:0:
68,155,222539,5,6,0:1:0:0:
95,28,222721,1,2,0:0:0:0:
199,197,222903,2,0,L|205:259,1,53.9999983520508,10|0,3:2|3:2,0:0:0:0:
285,54,223084,2,0,L|291:-8,1,53.9999983520508,10|0,3:2|3:2,0:0:0:0:
415,202,223266,6,0,P|367:178|313:182,1,107.999996704102,14|0,0:0|0:0,0:0:0:0:
186,282,223630,1,12,0:0:0:0:
417,311,223812,1,8,0:0:0:0:
230,119,223994,6,0,B|144:92|147:169|61:137,1,175.499991966248,6|0,3:2|0:0,0:0:0:0:
29,126,224357,2,0,L|20:4,1,116.999994644165,10|0,0:0|0:0,0:0:0:0:
213,12,224721,5,10,0:0:0:0:
183,309,224903,1,2,0:0:0:0:
102,55,225084,5,10,0:0:0:0:
268,350,225266,1,2,0:0:0:0:
445,70,225448,6,0,P|393:47|335:52,1,116.999994644165,14|0,0:0|0:0,0:0:0:0:
265,159,225721,1,0,3:2:0:0:
262,195,225812,1,0,3:2:0:0:
260,231,225903,1,0,3:2:0:0:
257,268,225994,2,0,L|334:276,1,58.4999973220826,0|0,3:2|3:2,0:0:0:0:
455,160,226175,6,0,P|460:133|460:91,1,62.9999980773926,10|0,3:2|3:2,0:0:0:0:
340,278,226357,2,0,P|344:305|358:344,1,62.9999980773926,8|0,3:2|3:2,0:0:0:0:
303,60,226539,2,0,P|289:36|262:3,1,62.9999980773926,10|0,3:2|3:2,0:0:0:0:
164,279,226721,1,8,3:2:0:0:
164,279,226812,1,8,3:2:0:0:
164,279,226903,6,0,B|212:310|212:310|343:277,1,188.999994232178,14|0,3:1|0:0,0:0:0:0:
365,244,227266,2,0,P|377:186|369:120,1,125.999996154785,10|0,0:0|0:0,0:0:0:0:
222,165,227630,1,2,3:2:0:0:
365,244,227812,1,0,0:0:0:0:
303,60,227994,1,8,0:0:0:0:
170,259,228175,6,0,P|111:260|38:265,1,125.999996154785,0|2,0:0|3:2,0:0:0:0:
222,165,228539,1,2,0:0:0:0:
198,356,228721,1,10,0:0:0:0:
54,183,228903,1,2,3:2:0:0:
291,252,229084,2,0,P|320:182|310:118,1,125.999996154785,2|0,3:2|0:0,0:0:0:0:
190,51,229448,1,10,0:0:0:0:
109,305,229630,1,2,0:0:0:0:
15,39,229812,6,0,P|87:47|193:51,1,175.499991966248,2|0,3:2|0:0,0:0:0:0:
229,38,230175,2,0,B|244:99|244:99|228:177,1,116.999994644165,10|0,0:0|0:0,0:0:0:0:
109,305,230539,1,2,3:2:0:0:
320,252,230721,1,2,3:2:0:0:
45,244,230903,1,10,0:0:0:0:
353,332,231084,1,2,0:0:0:0:
140,130,231266,5,2,3:2:0:0:
180,372,231448,1,2,0:0:0:0:
326,99,231630,1,10,0:0:0:0:
267,324,231812,1,2,3:2:0:0:
140,130,231994,5,2,3:2:0:0:
196,290,232175,1,2,3:2:0:0:
279,196,232357,1,10,0:0:0:0:
363,246,232539,1,10,0:0:0:0:
363,246,232630,1,8,3:2:0:0:
363,246,232721,6,0,B|368:181|368:181|343:136|343:136|346:71,1,175.499991966248,2|0,3:2|0:0,0:0:0:0:
353,40,233084,2,0,L|486:32,1,116.999994644165,10|0,0:0|0:0,0:0:0:0:
279,196,233448,2,0,L|146:188,1,116.999994644165,2|0,3:2|0:0,0:0:0:0:
47,3,233812,2,0,P|57:61|62:128,1,116.999994644165,8|0,0:0|0:0,0:0:0:0:
26,321,234175,5,2,3:2:0:0:
162,188,234357,1,2,0:0:0:0:
122,358,234539,1,10,0:0:0:0:
51,211,234721,1,2,3:2:0:0:
243,289,234903,5,2,3:2:0:0:
30,205,235084,1,2,0:0:0:0:
306,152,235266,1,8,0:0:0:0:
5,53,235448,1,0,0:0:0:0:
310,6,235630,6,0,P|371:0|428:7,1,116.999994644165,2|0,3:2|0:0,0:0:0:0:
427,243,235994,2,0,P|365:248|308:242,1,116.999994644165,10|0,2:0|0:0,0:0:0:0:
167,174,236357,5,2,3:2:0:0:
454,113,236539,1,2,0:0:0:0:
176,51,236721,1,10,0:0:0:0:
411,226,236903,1,0,0:0:0:0:
162,303,237084,5,2,3:2:0:0:
279,51,237266,1,0,0:0:0:0:
269,345,237448,5,8,0:0:0:0:
170,28,237630,1,0,0:0:0:0:
345,268,237812,5,2,3:2:0:0:
99,236,237994,1,2,3:2:0:0:
367,118,238175,2,0,L|504:127,1,116.999994644165,10|0,0:0|0:0,0:0:0:0:
236,258,238539,6,0,P|218:198|212:95,1,161.999995056153,6|0,3:1|0:0,0:0:0:0:
214,65,238903,2,0,L|104:72,1,107.999996704102,10|0,0:0|0:0,0:0:0:0:
99,214,239266,1,2,3:2:0:0:
155,17,239448,1,0,0:0:0:0:
7,194,239630,2,0,P|-2:241|0:304,1,107.999996704102,8|0,0:0|0:0,0:0:0:0:
200,358,239994,6,0,L|91:346,1,107.999996704102,2|0,3:2|0:0,0:0:0:0:
313,231,240357,2,0,L|204:243,1,107.999996704102,10|0,0:0|0:0,0:0:0:0:
397,122,240721,2,0,L|288:110,1,107.999996704102,2|0,3:2|3:2,0:0:0:0:
483,0,241084,2,0,L|374:12,1,107.999996704102,10|0,0:0|0:0,0:0:0:0:
230,160,241448,6,0,P|255:98|203:20,1,161.999995056153,0|0,3:2|0:0,0:0:0:0:
177,9,241812,2,0,L|68:7,1,107.999996704102,8|0,0:0|0:0,0:0:0:0:
163,101,242175,1,0,3:2:0:0:
18,170,242357,1,0,3:2:0:0:
205,242,242539,2,0,L|314:240,1,107.999996704102,10|0,0:0|0:0,0:0:0:0:
512,134,242903,6,0,P|448:170|423:202,1,107.999996704102,2|0,3:2|0:0,0:0:0:0:
347,115,243266,2,0,P|310:178|304:218,1,107.999996704102,10|0,0:0|0:0,0:0:0:0:
196,182,243630,2,0,P|196:255|210:292,1,107.999996704102,2|0,3:2|3:2,0:0:0:0:
90,299,243994,2,0,P|126:362|158:387,1,107.999996704102,10|0,0:0|0:0,0:0:0:0:
24,238,244357,6,0,B|51:193|51:193|36:85,1,161.999995056153,2|0,3:2|0:0,0:0:0:0:
28,50,244721,2,0,P|85:40|148:39,1,107.999996704102,10|0,0:0|0:0,0:0:0:0:
294,92,245084,1,2,3:2:0:0:
212,209,245266,1,0,3:2:0:0:
211,0,245448,1,8,0:0:0:0:
211,0,245812,6,0,L|318:2,1,90,2|0,3:2|0:0,0:0:0:0:
142,122,246175,2,0,L|35:124,1,90,10|0,0:0|0:0,0:0:0:0:
234,231,246539,2,0,L|341:233,1,90,2|0,3:2|3:2,0:0:0:0:
165,353,246902,2,0,L|58:355,1,90,10|0,0:0|0:0,0:0:0:0:
225,207,247266,6,0,L|332:209,1,107.999996704102,2|0,3:2|0:0,0:0:0:0:
439,353,247630,2,0,P|397:289|429:202,1,161.999995056153,14|0,0:1|0:0,0:0:0:0:
443,188,247994,1,2,3:2:0:0:
336,358,248175,1,0,3:2:0:0:
199,187,248357,2,0,P|216:261|156:332,1,161.999995056153,12|0,0:0|0:0,0:0:0:0:
140,341,248721,6,0,L|30:339,1,107.999996704102,2|0,3:2|0:0,0:0:0:0:
26,74,249084,1,10,0:0:0:0:
127,248,249266,1,2,0:0:0:0:
123,14,249448,5,10,0:0:0:0:
34,267,249630,1,2,3:2:0:0:
201,95,249812,5,2,3:2:0:0:
244,92,249903,1,0,3:2:0:0:
287,89,249994,1,10,3:2:0:0:
329,86,250084,1,8,3:2:0:0:
372,83,250175,1,14,0:1:0:0:
12,179,250903,5,2,0:0:0:0:
418,283,251448,5,0,0:0:0:0:
418,283,251539,1,0,0:0:0:0:
418,283,251630,2,0,L|323:288,2,90,2|2|2,0:0|0:0|0:0,0:0:0:0:
130,193,253084,2,0,L|204:196,2,72,2|2|2,0:0|0:0|0:0,0:0:0:0:
316,97,254539,2,0,L|252:100,2,53.9999983520508,2|2|2,0:0|0:0|0:0,0:0:0:0:
256,0,255994,5,0,0:0:0:0:
