osu file format v14

[General]
AudioFilename: audio.mp3
AudioLeadIn: 0
PreviewTime: 180041
Countdown: 0
SampleSet: Soft
StackLeniency: 0.4
Mode: 0
LetterboxInBreaks: 0
WidescreenStoryboard: 0

[Editor]
Bookmarks: 41,12041,24041,36041,54041,66041,78041,90041,102041,114041,126041,132041,155666,156041,180041,192041,204041,227666,228041,252041,262541
DistanceSpacing: 0.8
BeatDivisor: 4
GridSize: 32
TimelineZoom: 1

[Metadata]
Title:Lullaby for Lost child
TitleUnicode:Lullaby for Lost child
Artist:Akatsuki Records
ArtistUnicode:暁Records
Creator:eiri-
Version:Alice
Source:東方怪綺談 ~ Mystic Square
Tags:Ayyri Japanese Video Game Rock Touhou 東方Project Team Shanghai Alice Margatroid ZUN Soft Amusement Makers ねこ☆まんじゅう Stack 少女救世論 Shoujo Kyouseiron Maiden's Salvation Theory RTS14 Reitaisai 14 TH05 MS アリス・マーガトロイド Kaikidan Bizarre Romantic Story DRCD-0021 the Grimoire of Alice in Wonderland Romantic Children 不思議の国のアリス
BeatmapID:2351288
BeatmapSetID:1125331

[Difficulty]
HPDrainRate:5
CircleSize:6
OverallDifficulty:8
ApproachRate:8
SliderMultiplier:1.4
SliderTickRate:1

[Events]
//Background and Video events
0,0,"Alice 572.jpg",0,0
//Break Periods
//Storyboard Layer 0 (Background)
//Storyboard Layer 1 (Fail)
//Storyboard Layer 2 (Pass)
//Storyboard Layer 3 (Foreground)
//Storyboard Layer 4 (Overlay)
//Storyboard Sound Samples

[TimingPoints]
41,750,4,2,1,30,1,0
12041,-100,4,2,1,40,0,0
36041,-66.6666666666667,4,2,1,50,0,0
51041,-66.6666666666667,4,2,1,55,0,0
51791,-62.5,4,2,1,60,0,0
52541,-58.8235294117647,4,2,1,65,0,0
53291,-66.6666666666667,4,2,1,70,0,0
54041,-57.1428571428571,4,2,1,75,0,0
78041,-66.6666666666667,4,2,1,60,0,0
90041,-66.6666666666667,4,2,1,70,0,0
114041,-57.1428571428571,4,2,1,75,0,0
126041,-55.5555555555556,4,2,1,80,0,0
129041,-52.6315789473684,4,2,1,85,0,0
132041,-33.3333333333333,4,2,1,90,0,1
155666,-33.3333333333333,4,2,1,90,0,0
156041,-50,4,2,1,80,0,1
180041,-100,4,2,1,60,0,0
192041,-80,4,2,1,75,0,0
201041,-80,4,2,1,80,0,0
203291,-200,4,2,1,85,0,0
204041,-31.7460317460317,4,2,1,90,0,1
227666,-33.3333333333333,4,2,1,90,0,0
228041,-46.5116279069767,4,2,1,80,0,1
252041,-200,4,2,1,50,0,0

[Colours]
Combo1 : 159,208,208
Combo2 : 142,193,150
Combo3 : 201,184,146
Combo4 : 215,167,159

[HitObjects]
437,294,41,5,2,0:0:0:0:
437,294,791,1,2,0:0:0:0:
437,294,1541,1,2,0:0:0:0:
426,226,1916,1,0,0:0:0:0:
437,294,2291,1,2,0:0:0:0:
448,362,2666,1,0,0:0:0:0:
415,158,3041,5,2,0:0:0:0:
415,158,3791,1,2,0:0:0:0:
437,294,4541,1,2,0:0:0:0:
383,265,4916,1,0,0:0:0:0:
285,335,5291,1,2,0:0:0:0:
246,267,5666,1,0,0:0:0:0:
75,294,6041,5,2,0:0:0:0:
75,294,6791,1,2,0:0:0:0:
75,294,7541,1,2,0:0:0:0:
75,294,8291,1,2,0:0:0:0:
104,121,9041,5,2,0:0:0:0:
75,294,9791,1,2,0:0:0:0:
104,121,10541,1,2,0:0:0:0:
172,181,10916,1,0,0:0:0:0:
219,146,11103,1,0,0:0:0:0:
262,203,11291,1,2,0:0:0:0:
262,203,11478,1,2,0:0:0:0:
238,262,11666,2,0,L|249:306,1,35,2|0,0:0|0:0,0:0:0:0:
270,383,12041,5,2,0:0:0:0:
337,348,12416,1,0,0:0:0:0:
337,348,12603,1,0,0:0:0:0:
337,348,12791,2,0,L|421:356,1,70,2|0,0:0|0:0,0:0:0:0:
407,362,13541,1,2,0:0:0:0:
384,248,13916,2,0,L|388:204,1,35,0|0,0:0|0:0,0:0:0:0:
380,282,14291,1,2,0:0:0:0:
443,135,14666,1,2,0:0:0:0:
385,116,14853,1,2,0:0:0:0:
496,76,15041,6,0,L|486:2,1,70,2|0,0:0|0:0,0:0:0:0:
505,145,15791,2,0,L|495:71,1,70,2|0,0:0|0:0,0:0:0:0:
463,228,16541,1,2,0:0:0:0:
376,128,16916,1,2,0:0:0:0:
328,159,17103,1,2,0:0:0:0:
266,117,17291,2,0,L|225:111,1,35,2|0,0:0|0:0,0:0:0:0:
149,157,17666,1,2,0:0:0:0:
184,212,17853,1,2,0:0:0:0:
127,280,18041,6,0,L|115:362,1,70,2|0,0:0|0:0,0:0:0:0:
116,349,18603,1,0,0:0:0:0:
134,252,18791,1,2,0:0:0:0:
343,315,19166,1,2,0:0:0:0:
343,315,19541,1,2,0:0:0:0:
375,373,19728,1,2,0:0:0:0:
375,373,19916,2,0,L|419:367,1,35,2|0,0:0|0:0,0:0:0:0:
380,281,20291,2,0,L|336:275,1,35,2|0,0:0|0:0,0:0:0:0:
312,187,20666,1,2,0:0:0:0:
346,181,20853,6,0,L|381:176,1,35,2|2,0:0|0:0,0:0:0:0:
381,176,21416,2,0,L|304:189,1,70,2|0,0:0|0:0,0:0:0:0:
419,126,22166,1,2,0:0:0:0:
458,258,22541,1,2,0:0:0:0:
500,55,22916,1,2,0:0:0:0:
447,26,23103,1,2,0:0:0:0:
362,65,23291,2,0,L|314:56,1,35,2|2,0:0|0:0,0:0:0:0:
204,23,23666,2,0,L|156:32,1,35,2|0,0:0|0:0,0:0:0:0:
50,134,24041,6,0,P|81:160|114:171,1,70,2|2,0:0|0:0,0:0:0:0:
165,134,24603,1,2,0:0:0:0:
165,134,24791,1,2,0:0:0:0:
176,314,25166,2,0,L|225:306,1,35,2|0,0:0|0:0,0:0:0:0:
121,367,25541,2,0,L|37:352,1,70,2|0,0:0|0:0,0:0:0:0:
244,302,26103,1,2,0:0:0:0:
236,240,26291,2,0,L|285:248,1,35,2|0,0:0|0:0,0:0:0:0:
326,354,26666,1,2,0:0:0:0:
364,312,26853,1,2,0:0:0:0:
384,228,27041,6,0,P|379:178|367:139,1,70,2|0,0:0|0:0,0:0:0:0:
326,121,27603,1,0,0:0:0:0:
326,121,27791,1,2,0:0:0:0:
475,182,28166,1,0,0:0:0:0:
305,251,28541,2,0,L|256:243,1,35,2|0,0:0|0:0,0:0:0:0:
418,222,28916,2,0,L|369:230,1,35,2|0,0:0|0:0,0:0:0:0:
477,349,29291,2,0,L|428:341,1,35,2|0,0:0|0:0,0:0:0:0:
512,209,29666,1,2,0:0:0:0:
418,222,29853,1,2,0:0:0:0:
441,151,30041,6,0,L|435:109,2,35,2|0|0,0:0|0:0|0:0,0:0:0:0:
423,210,30603,1,2,0:0:0:0:
370,194,30791,1,2,0:0:0:0:
370,214,31166,1,2,0:0:0:0:
317,198,31354,1,0,0:0:0:0:
389,292,31728,1,2,0:0:0:0:
336,276,31916,2,0,L|330:318,1,35,2|0,0:0|0:0,0:0:0:0:
298,184,32291,2,0,L|304:226,1,35,2|0,0:0|0:0,0:0:0:0:
350,74,32666,1,2,0:0:0:0:
286,207,32853,1,2,0:0:0:0:
280,36,33041,6,0,B|248:19|241:51|202:33,1,70,2|0,0:0|0:0,0:0:0:0:
156,18,33603,1,0,0:0:0:0:
156,18,33791,1,2,0:0:0:0:
125,200,34166,1,2,0:0:0:0:
125,200,34353,1,2,0:0:0:0:
201,252,34541,6,0,L|260:244,1,35,2|0,0:0|0:0,0:0:0:0:
346,241,34916,1,2,0:0:0:0:
332,185,35103,1,2,0:0:0:0:
418,64,35291,1,2,0:0:0:0:
417,121,35478,1,2,0:0:0:0:
200,53,35666,1,2,0:0:0:0:
211,153,36041,6,0,P|192:89|210:36,1,105.000004005432,2|0,0:0|0:0,0:0:0:0:
322,121,36603,2,0,P|329:172|311:220,1,105.000004005432,2|0,0:0|0:0,0:0:0:0:
223,288,37166,1,2,0:0:0:0:
188,244,37353,1,2,0:0:0:0:
123,305,37541,6,0,L|50:311,1,52.5000020027161,2|0,0:0|0:0,0:0:0:0:
70,309,37916,1,2,0:0:0:0:
36,253,38103,2,0,L|43:185,1,52.5000020027161,2|0,0:0|0:0,0:0:0:0:
17,122,38478,1,0,0:0:0:0:
113,159,38666,2,0,L|170:154,1,52.5000020027161,2|0,0:0|0:0,0:0:0:0:
333,137,39041,6,0,P|343:192|343:228,1,52.5000020027161,2|0,0:0|0:0,0:0:0:0:
338,282,39416,1,2,0:0:0:0:
338,282,39603,2,0,P|401:270|495:310,1,157.500006008148,2|2,0:0|0:0,0:0:0:0:
447,259,40353,1,2,0:0:0:0:
507,212,40541,2,0,L|499:92,1,105.000004005432,2|2,0:0|0:0,0:0:0:0:
511,82,41103,1,2,0:0:0:0:
430,190,41478,1,2,0:0:0:0:
380,226,41666,2,0,L|311:220,1,52.5000020027161,2|0,0:0|0:0,0:0:0:0:
222,194,42041,6,0,P|242:164|281:135,1,52.5000020027161,2|0,0:0|0:0,0:0:0:0:
279,284,42416,1,2,0:0:0:0:
224,259,42603,2,0,B|157:241|177:292|112:281,1,105.000004005432,2|0,0:0|0:0,0:0:0:0:
126,293,43166,2,0,L|130:345,1,52.5000020027161,2|0,0:0|0:0,0:0:0:0:
69,192,43541,6,0,P|89:162|128:133,1,52.5000020027161,2|0,0:0|0:0,0:0:0:0:
126,293,43916,1,2,0:0:0:0:
78,341,44103,2,0,L|18:336,1,52.5000020027161,2|0,0:0|0:0,0:0:0:0:
78,341,44478,2,0,L|130:345,1,52.5000020027161,2|0,0:0|0:0,0:0:0:0:
211,374,44853,1,2,0:0:0:0:
266,344,45041,6,0,L|260:274,1,52.5000020027161,2|0,0:0|0:0,0:0:0:0:
252,202,45416,1,2,0:0:0:0:
305,234,45603,1,2,0:0:0:0:
368,182,45791,2,0,P|435:192|453:290,1,157.500006008148,2|0,0:0|0:0,0:0:0:0:
462,269,46541,2,0,B|378:240|383:311|313:295,1,157.500006008148,2|0,0:0|0:0,0:0:0:0:
313,295,47291,1,2,0:0:0:0:
201,194,47666,2,0,L|206:261,1,52.5000020027161,2|0,0:0|0:0,0:0:0:0:
255,326,48041,6,0,L|263:214,1,105.000004005432,2|2,0:0|0:0,0:0:0:0:
314,169,48603,1,2,0:0:0:0:
218,115,48791,1,2,0:0:0:0:
261,63,48978,1,2,0:0:0:0:
261,63,49166,2,0,L|190:46,1,52.5000020027161,2|0,0:0|0:0,0:0:0:0:
333,7,49541,6,0,P|374:34|397:92,1,105.000004005432,2|2,0:0|0:0,0:0:0:0:
361,135,50103,1,2,0:0:0:0:
361,135,50291,1,2,0:0:0:0:
397,23,50666,1,2,0:0:0:0:
414,87,50853,1,2,0:0:0:0:
258,76,51041,6,0,L|195:70,1,52.5000020027161,2|0,0:0|0:0,0:0:0:0:
205,71,51416,1,2,0:0:0:0:
304,235,51791,6,0,L|380:228,1,56,2|0,0:0|0:0,0:0:0:0:
359,229,52166,1,2,0:0:0:0:
174,365,52541,6,0,L|97:358,1,59.5000011348725,2|0,0:0|0:0,0:0:0:0:
114,359,52916,1,2,0:0:0:0:
437,321,53291,6,0,P|472:280|442:160,1,157.500006008148,2|0,0:0|0:0,0:0:0:0:
463,193,54041,5,6,0:0:0:0:
295,119,54416,1,2,0:0:0:0:
295,119,54603,2,0,L|481:105,1,183.750001752377,2|2,0:0|0:0,0:0:0:0:
411,88,55353,1,2,0:0:0:0:
302,241,55541,6,0,P|230:216|185:156,1,122.500001168251,2|0,0:0|0:0,0:0:0:0:
179,130,56103,1,0,0:0:0:0:
202,58,56291,2,0,L|270:49,1,61.2500005841255,2|0,0:0|0:0,0:0:0:0:
132,22,56666,1,2,0:0:0:0:
79,0,56853,1,2,0:0:0:0:
13,67,57041,6,0,P|44:137|93:205,1,122.500001168251,2|2,0:0|0:0,0:0:0:0:
131,247,57603,2,0,L|124:329,1,61.2500005841255,2|0,0:0|0:0,0:0:0:0:
117,379,57978,1,2,0:0:0:0:
178,355,58166,1,2,0:0:0:0:
64,295,58353,1,2,0:0:0:0:
211,223,58541,6,0,P|269:260|295:331,1,122.500001168251,2|0,0:0|0:0,0:0:0:0:
262,361,59041,1,2,0:0:0:0:
257,304,59166,1,2,0:0:0:0:
272,212,59291,2,0,P|309:154|440:144,1,183.750001752377,2|0,0:0|0:0,0:0:0:0:
429,156,60041,6,0,L|346:143,1,61.2500005841255,2|0,0:0|0:0,0:0:0:0:
502,115,60416,1,2,0:0:0:0:
502,115,60603,2,0,P|506:192|488:271,1,122.500001168251,2|0,0:0|0:0,0:0:0:0:
452,285,61166,1,2,0:0:0:0:
332,221,61541,6,0,L|249:208,1,61.2500005841255,2|0,0:0|0:0,0:0:0:0:
405,180,61916,1,2,0:0:0:0:
405,180,62103,2,0,P|409:257|391:336,1,122.500001168251,2|0,0:0|0:0,0:0:0:0:
355,350,62666,1,2,0:0:0:0:
271,293,62853,1,2,0:0:0:0:
121,379,63041,6,0,L|-5:371,1,122.500001168251,2|2,0:0|0:0,0:0:0:0:
0,371,63603,1,2,0:0:0:0:
204,304,63978,1,2,0:0:0:0:
204,304,64166,2,0,L|97:310,1,61.2500005841255,2|0,0:0|0:0,0:0:0:0:
303,373,64541,2,0,L|453:364,2,122.500001168251,2|0|2,0:0|0:0|0:0,0:0:0:0:
303,373,65666,1,2,0:0:0:0:
416,342,65853,1,2,0:0:0:0:
318,220,66041,6,0,P|376:178|443:191,1,122.500001168251,2|2,0:0|0:0,0:0:0:0:
452,210,66603,2,0,P|363:181|275:102,1,183.750001752377,2|2,0:0|0:0,0:0:0:0:
292,61,67353,1,2,0:0:0:0:
488,95,67541,6,0,B|497:5|497:5|471:50,1,122.500001168251,2|0,0:0|0:0,0:0:0:0:
502,154,68103,1,0,0:0:0:0:
428,101,68291,2,0,L|360:110,1,61.2500005841255,2|0,0:0|0:0,0:0:0:0:
322,62,68666,1,2,0:0:0:0:
385,23,68853,1,2,0:0:0:0:
445,158,69041,6,0,P|430:238|410:285,1,122.500001168251,2|2,0:0|0:0,0:0:0:0:
336,247,69603,2,0,L|343:329,1,61.2500005841255,2|0,0:0|0:0,0:0:0:0:
341,308,69978,1,2,0:0:0:0:
279,290,70166,1,2,0:0:0:0:
169,360,70353,1,2,0:0:0:0:
72,238,70541,6,0,P|96:165|152:119,1,122.500001168251,2|0,0:0|0:0,0:0:0:0:
131,147,71041,1,2,0:0:0:0:
137,184,71166,1,2,0:0:0:0:
148,287,71291,2,0,P|75:263|19:149,1,183.750001752377,2|0,0:0|0:0,0:0:0:0:
229,209,72041,6,0,L|313:201,1,61.2500005841255,2|0,0:0|0:0,0:0:0:0:
330,155,72416,1,2,0:0:0:0:
360,259,72603,2,0,L|346:415,1,122.500001168251,2|0,0:0|0:0,0:0:0:0:
389,334,73166,1,2,0:0:0:0:
292,282,73353,1,2,0:0:0:0:
330,155,73541,6,0,B|417:128|412:203|514:190,1,183.750001752377,2|0,0:0|0:0,0:0:0:0:
504,191,74291,2,0,P|478:156|489:55,1,122.500001168251,2|2,0:0|0:0,0:0:0:0:
479,90,74853,1,2,0:0:0:0:
348,162,75041,2,0,L|206:152,1,122.500001168251,2|2,0:0|0:0,0:0:0:0:
176,188,75603,1,2,0:0:0:0:
176,188,75978,1,2,0:0:0:0:
212,240,76166,2,0,P|214:271|192:315,1,61.2500005841255,2|0,0:0|0:0,0:0:0:0:
265,375,76541,6,0,L|81:361,1,183.750001752377,2|0,0:0|0:0,0:0:0:0:
28,343,77291,2,0,L|208:330,1,122.500001168251,2|0,0:0|0:0,0:0:0:0:
150,334,78041,5,14,0:0:0:0:
28,343,78791,1,0,1:0:0:0:
150,334,79916,1,10,0:0:0:0:
28,343,80291,1,0,1:0:0:0:
150,334,80478,1,10,0:0:0:0:
87,269,81041,5,10,0:0:0:0:
209,278,81791,1,0,1:0:0:0:
87,269,82916,1,10,0:0:0:0:
209,278,83291,1,0,1:0:0:0:
87,269,83478,1,10,0:0:0:0:
268,334,84041,5,10,0:0:0:0:
146,343,84791,1,0,1:0:0:0:
268,334,85916,1,10,0:0:0:0:
146,343,86291,1,0,1:0:0:0:
268,334,86478,1,10,0:0:0:0:
205,269,87041,5,10,0:0:0:0:
327,278,87791,1,0,1:0:0:0:
205,269,88916,1,10,0:0:0:0:
327,278,89291,1,0,1:0:0:0:
205,269,89478,1,10,0:0:0:0:
268,334,90041,5,14,0:0:0:0:
232,197,90416,1,2,0:0:0:0:
232,197,90603,1,10,0:0:0:0:
232,197,90791,2,0,P|267:212|309:211,1,52.5000020027161,2|0,1:2|0:0,0:0:0:0:
383,247,91166,2,0,P|418:232|447:202,1,52.5000020027161,2|0,0:0|0:0,0:0:0:0:
489,140,91541,2,0,P|424:123|376:125,1,105.000004005432,2|10,0:0|0:0,0:0:0:0:
259,134,92291,2,0,L|250:67,1,52.5000020027161,2|8,1:2|0:0,0:0:0:0:
281,19,92666,1,2,0:0:0:0:
233,106,92853,1,2,0:0:0:0:
252,82,93041,6,0,P|297:57|349:51,1,105.000004005432,10|0,0:0|0:0,0:0:0:0:
336,72,93603,1,10,0:0:0:0:
317,4,93791,1,2,1:2:0:0:
288,224,94166,2,0,L|153:197,1,105.000004005432,2|0,0:0|0:0,0:0:0:0:
103,247,94728,1,2,0:0:0:0:
103,247,94916,2,0,L|115:172,1,52.5000020027161,10|0,0:0|0:0,0:0:0:0:
172,338,95291,2,0,L|160:263,1,52.5000020027161,2|8,1:2|0:0,0:0:0:0:
38,380,95666,1,2,0:0:0:0:
173,349,95853,1,2,0:0:0:0:
231,377,96041,6,0,P|295:356|301:252,1,157.500006008148,10|10,0:0|0:0,0:0:0:0:
281,211,96791,1,2,1:2:0:0:
281,211,97166,2,0,P|329:245|397:242,1,105.000004005432,2|0,0:0|0:0,0:0:0:0:
439,221,97728,1,2,0:0:0:0:
439,221,97916,2,0,L|417:146,1,52.5000020027161,10|0,0:0|0:0,0:0:0:0:
340,128,98291,2,0,L|362:53,1,52.5000020027161,2|8,1:2|0:0,0:0:0:0:
374,18,98666,1,2,0:0:0:0:
479,71,98853,1,2,0:0:0:0:
479,71,99041,6,0,B|455:47|455:47|349:64,1,105.000004005432,10|2,0:0|0:0,0:0:0:0:
307,76,99603,1,10,0:0:0:0:
357,218,99791,1,2,1:2:0:0:
357,218,100166,2,0,P|331:191|293:181,1,52.5000020027161,2|0,0:0|0:0,0:0:0:0:
215,224,100541,2,0,P|208:249|210:275,1,52.5000020027161,2|0,0:0|0:0,0:0:0:0:
294,119,100916,2,0,P|300:93|298:67,1,52.5000020027161,10|0,0:0|0:0,0:0:0:0:
151,124,101291,2,0,P|167:144|190:157,1,52.5000020027161,2|8,1:2|0:0,0:0:0:0:
220,11,101666,2,0,L|211:62,1,52.5000020027161,2|0,0:0|0:0,0:0:0:0:
179,245,102041,6,0,L|74:224,1,105.000004005432,10|2,0:0|0:0,0:0:0:0:
100,240,102603,2,0,L|189:227,1,52.5000020027161,10|2,0:0|1:2,0:0:0:0:
288,288,103166,1,2,0:0:0:0:
288,288,103541,2,0,P|343:260|416:247,1,105.000004005432,2|8,0:0|0:0,0:0:0:0:
453,253,104103,2,0,L|467:176,2,52.5000020027161,2|2|10,0:0|1:2|0:0,0:0:0:0:
446,291,104666,1,2,0:0:0:0:
369,146,104853,1,2,0:0:0:0:
369,146,105041,6,0,P|426:171|508:108,1,157.500006008148,10|10,0:0|0:0,0:0:0:0:
435,141,105791,1,2,1:2:0:0:
435,141,106166,2,0,L|451:54,1,52.5000020027161,2|0,0:0|0:0,0:0:0:0:
309,44,106541,2,0,L|325:131,1,52.5000020027161,2|0,0:0|0:0,0:0:0:0:
193,95,106916,2,0,L|203:44,1,52.5000020027161,10|0,0:0|0:0,0:0:0:0:
67,89,107291,2,0,L|77:141,1,52.5000020027161,2|8,1:2|0:0,0:0:0:0:
99,264,107666,1,2,0:0:0:0:
102,153,107853,1,2,0:0:0:0:
142,338,108041,5,10,0:0:0:0:
142,338,108228,1,2,0:0:0:0:
142,338,108416,1,2,0:0:0:0:
99,264,108603,1,10,0:0:0:0:
240,242,108791,2,0,L|224:386,1,105.000004005432,2|2,1:2|0:0,0:0:0:0:
228,346,109353,1,2,0:0:0:0:
178,174,109728,1,2,0:0:0:0:
178,174,109916,2,0,L|273:190,1,52.5000020027161,10|0,0:0|0:0,0:0:0:0:
306,114,110291,2,0,L|401:98,1,52.5000020027161,2|8,1:2|0:0,0:0:0:0:
467,179,110666,1,2,0:0:0:0:
370,80,110853,1,2,0:0:0:0:
408,207,111041,6,0,L|434:32,1,157.500006008148,10|10,0:0|0:0,0:0:0:0:
466,274,111791,1,2,1:2:0:0:
466,274,112166,1,2,0:0:0:0:
489,260,112353,2,0,P|433:248|427:345,1,157.500006008148,2|10,0:0|0:0,0:0:0:0:
467,179,113291,5,2,1:2:0:0:
403,353,113478,1,10,0:0:0:0:
395,138,113666,5,2,1:2:0:0:
395,138,113853,1,2,1:2:0:0:
395,138,114041,6,0,L|302:127,1,61.2500005841255,14|0,0:0|0:0,0:0:0:0:
197,187,114416,1,2,0:0:0:0:
197,187,114603,2,0,P|177:113|141:51,1,122.500001168251,2|0,0:0|0:0,0:0:0:0:
236,63,115166,2,0,P|215:86|202:114,1,61.2500005841255,10|0,0:0|0:0,0:0:0:0:
153,248,115541,2,0,P|220:276|205:341,1,122.500001168251,2|10,0:0|0:0,0:0:0:0:
201,354,116103,2,0,L|215:280,1,61.2500005841255,2|2,0:0|1:2,0:0:0:0:
212,293,116478,1,2,0:0:0:0:
337,382,116666,2,0,P|378:357|389:329,1,61.2500005841255,2|0,0:0|0:0,0:0:0:0:
430,248,117041,6,0,P|344:281|295:251,1,122.500001168251,10|2,0:0|0:0,0:0:0:0:
270,208,117603,2,0,L|303:358,1,122.500001168251,2|0,0:0|0:0,0:0:0:0:
263,171,118166,2,0,L|344:191,1,61.2500005841255,10|0,0:0|0:0,0:0:0:0:
171,234,118541,2,0,L|111:248,1,61.2500005841255,2|0,0:0|0:0,0:0:0:0:
50,214,118916,1,10,0:0:0:0:
50,214,119103,2,0,P|105:158|82:100,1,122.500001168251,2|0,0:0|0:0,0:0:0:0:
75,95,119666,2,0,P|89:140|121:130,1,61.2500005841255,2|0,0:0|0:0,0:0:0:0:
152,50,120041,6,0,P|104:10|8:38,2,122.500001168251,10|2|2,0:0|0:0|1:2,0:0:0:0:
183,109,120978,1,2,0:0:0:0:
183,109,121166,2,0,L|276:115,1,61.2500005841255,10|0,0:0|0:0,0:0:0:0:
360,119,121541,1,2,0:0:0:0:
317,80,121916,1,10,0:0:0:0:
317,80,122103,2,0,L|337:-8,1,61.2500005841255,2|0,0:0|1:0,0:0:0:0:
389,107,122478,2,0,L|445:83,1,61.2500005841255,2|0,0:0|0:0,0:0:0:0:
407,178,122853,1,2,0:0:0:0:
407,178,123041,6,0,L|518:248,1,122.500001168251,10|2,0:0|0:0,0:0:0:0:
497,244,123603,1,2,0:0:0:0:
497,244,123791,2,0,P|466:283|478:323,1,61.2500005841255,2|0,1:2|0:0,0:0:0:0:
314,297,124166,2,0,P|343:305|363:329,1,61.2500005841255,10|0,0:0|0:0,0:0:0:0:
294,179,124541,2,0,P|253:232|211:201,1,122.500001168251,2|8,0:0|0:0,0:0:0:0:
303,239,125103,1,2,0:0:0:0:
303,239,125291,5,2,1:2:0:0:
246,301,125478,1,10,0:0:0:0:
388,335,125666,5,2,1:2:0:0:
359,366,125853,1,2,1:2:0:0:
410,202,126041,6,0,L|394:91,1,62.9999980773926,14|0,0:0|0:0,0:0:0:0:
389,35,126416,1,2,0:0:0:0:
389,35,126603,2,0,P|472:70|524:73,1,125.999996154785,2|0,0:0|0:0,0:0:0:0:
487,53,127166,1,10,0:0:0:0:
343,114,127353,1,2,0:0:0:0:
294,73,127541,6,0,L|199:64,1,62.9999980773926,2|0,0:0|0:0,0:0:0:0:
96,197,127916,1,10,0:0:0:0:
145,156,128104,2,0,L|240:147,1,62.9999980773926,2|0,0:0|1:0,0:0:0:0:
207,150,128478,1,0,0:0:0:0:
43,91,128666,1,2,0:0:0:0:
43,91,128853,1,2,0:0:0:0:
315,20,129041,5,10,0:0:0:0:
315,20,129228,2,0,L|300:211,1,132.999996448517,2|0,1:2|0:0,0:0:0:0:
289,344,129791,2,0,L|272:248,1,66.4999982242585,2|0,1:2|0:0,0:0:0:0:
468,255,130166,1,10,0:0:0:0:
479,320,130353,1,10,0:0:0:0:
457,190,130541,6,0,P|404:142|297:158,1,132.999996448517,10|8,0:0|0:0,0:0:0:0:
345,135,131103,1,8,0:0:0:0:
496,80,131291,2,0,L|483:4,1,66.4999982242585,2|8,1:2|0:0,0:0:0:0:
416,192,131666,1,2,1:2:0:0:
256,96,131853,1,2,1:2:0:0:
96,192,132041,6,0,B|145:152|202:169|202:169|153:279,1,210.000008010865,14|2,0:0|0:0,0:0:0:0:
108,362,132603,1,10,0:0:0:0:
108,362,132791,2,0,P|60:240|-8:161,1,210.000008010865,0|10,1:0|0:0,0:0:0:0:
42,250,133353,1,2,0:0:0:0:
42,250,133541,6,0,B|161:232|103:139|282:158,1,210.000008010865,10|10,0:0|0:0,0:0:0:0:
320,180,134103,1,10,3:2:0:0:
319,186,134197,1,2,3:2:0:0:
318,192,134291,5,2,1:2:0:0:
299,121,134478,1,2,0:0:0:0:
464,149,134666,5,10,0:0:0:0:
426,291,134853,1,10,0:0:0:0:
392,22,135041,6,0,P|437:120|507:13,1,210.000008010865,10|2,0:0|0:0,0:0:0:0:
311,88,135603,1,10,0:0:0:0:
412,36,135791,1,0,1:0:0:0:
208,23,135978,2,0,L|221:146,2,105.000004005432,2|10|2,0:0|0:0|0:0,0:0:0:0:
231,244,136541,6,0,P|153:164|16:167,1,210.000008010865,10|0,0:0|0:0,0:0:0:0:
34,182,137041,1,2,0:0:0:0:
3,240,137166,1,2,0:0:0:0:
99,319,137291,2,0,L|142:0,1,315.000012016297,2|0,1:2|0:0,0:0:0:0:
148,17,138041,6,0,L|162:146,1,105.000004005432,10|0,0:0|0:0,0:0:0:0:
68,94,138416,1,2,0:0:0:0:
241,52,138603,2,0,B|306:66|306:66|283:244,1,210.000008010865,10|0,0:0|0:0,0:0:0:0:
260,378,139166,2,0,L|237:254,1,105.000004005432,10|0,0:0|0:0,0:0:0:0:
460,336,139541,6,0,P|493:247|467:216,1,105.000004005432,10|0,0:0|0:0,0:0:0:0:
394,358,139916,1,10,0:0:0:0:
358,297,140103,2,0,P|357:245|391:207,1,105.000004005432,10|0,0:0|1:0,0:0:0:0:
390,207,140478,1,0,0:0:0:0:
275,194,140666,2,0,L|159:211,1,105.000004005432,10|10,0:0|0:0,0:0:0:0:
19,134,141041,6,0,P|135:154|75:270,1,210.000008010865,10|2,0:0|0:0,0:0:0:0:
103,280,141603,1,10,0:0:0:0:
61,82,141791,1,0,1:0:0:0:
61,82,141978,2,0,L|177:99,1,105.000004005432,2|10,0:0|0:0,0:0:0:0:
241,82,142353,1,0,0:0:0:0:
264,274,142541,6,0,P|402:304|515:242,1,210.000008010865,10|2,0:0|0:0,0:0:0:0:
507,236,143103,1,10,3:2:0:0:
506,242,143197,1,2,3:2:0:0:
505,248,143291,5,2,1:2:0:0:
363,206,143478,1,10,0:0:0:0:
432,188,143666,5,2,1:2:0:0:
230,240,143853,1,2,1:2:0:0:
368,82,144041,6,0,P|274:28|118:20,1,210.000008010865,14|2,0:0|0:0,0:0:0:0:
189,190,144603,1,10,0:0:0:0:
189,190,144791,2,0,P|292:173|359:140,1,105.000004005432,0|0,1:0|0:0,0:0:0:0:
79,79,145166,1,10,0:0:0:0:
113,281,145353,1,2,0:0:0:0:
68,45,145541,6,0,L|49:293,1,210.000008010865,10|10,0:0|0:0,0:0:0:0:
93,209,146103,1,10,3:2:0:0:
94,215,146197,1,2,3:2:0:0:
95,221,146291,5,2,1:2:0:0:
178,272,146478,1,2,0:0:0:0:
122,271,146666,5,10,0:0:0:0:
254,190,146853,1,10,0:0:0:0:
338,373,147041,6,0,B|466:348|466:348|451:238,1,210.000008010865,10|2,0:0|0:0,0:0:0:0:
437,149,147603,2,0,L|422:299,1,105.000004005432,10|0,0:0|1:0,0:0:0:0:
399,68,147978,1,2,0:0:0:0:
466,125,148166,1,10,0:0:0:0:
272,176,148353,1,2,0:0:0:0:
272,176,148541,6,0,B|149:160|222:44|34:82,1,210.000008010865,10|0,0:0|0:0,0:0:0:0:
57,83,149041,1,2,0:0:0:0:
5,132,149166,1,2,0:0:0:0:
131,274,149291,2,0,P|235:276|269:65,1,315.000012016297,2|0,1:2|0:0,0:0:0:0:
272,70,150041,6,0,P|305:168|395:173,1,105.000004005432,10|0,0:0|0:0,0:0:0:0:
412,48,150416,1,2,0:0:0:0:
424,78,150603,2,0,L|378:302,1,210.000008010865,10|0,0:0|0:0,0:0:0:0:
361,384,151166,1,10,0:0:0:0:
361,384,151353,1,2,0:0:0:0:
174,342,151541,6,0,P|212:239|316:328,1,210.000008010865,10|0,0:0|0:0,0:0:0:0:
63,323,152103,1,10,3:2:0:0:
62,329,152197,1,2,3:2:0:0:
61,335,152291,6,0,P|29:197|5:116,1,210.000008010865,2|10,1:2|0:0,0:0:0:0:
6,141,152853,1,10,0:0:0:0:
209,208,153041,5,10,0:0:0:0:
245,51,153228,1,10,0:0:0:0:
262,114,153416,1,2,0:0:0:0:
144,78,153603,1,10,0:0:0:0:
401,17,153791,1,0,1:0:0:0:
430,81,153978,1,2,0:0:0:0:
415,111,154166,2,0,L|428:225,1,105.000004005432,2|0,0:0|0:0,0:0:0:0:
446,384,154541,5,10,0:0:0:0:
495,304,154728,1,8,0:0:0:0:
241,344,154916,1,2,0:0:0:0:
368,371,155103,1,10,3:2:0:0:
369,377,155197,1,2,3:2:0:0:
370,383,155291,5,2,1:2:0:0:
332,306,155478,1,10,0:0:0:0:
169,272,155666,5,2,1:2:0:0:
247,89,155853,1,2,1:2:0:0:
272,270,156041,6,0,P|228:156|122:211,1,210,14|8,0:0|0:0,0:0:0:0:
109,205,156791,1,2,1:2:0:0:
109,205,157166,2,0,L|229:210,1,93.3333333333333,10|2,0:0|0:0,0:0:0:0:
274,170,157541,2,0,L|131:191,1,140,10|0,0:0|0:0,0:0:0:0:
427,195,158103,1,10,3:2:0:0:
428,201,158197,1,2,3:2:0:0:
429,207,158291,5,2,1:2:0:0:
325,177,158478,1,2,0:0:0:0:
384,261,158666,5,10,0:0:0:0:
434,113,158853,1,10,0:0:0:0:
466,367,159041,6,0,P|412:303|268:322,1,210,10|8,0:0|0:0,0:0:0:0:
242,338,159791,1,2,1:2:0:0:
242,338,160166,1,10,0:0:0:0:
254,252,160353,1,10,0:0:0:0:
242,348,160541,2,0,L|319:372,1,70,10|0,0:0|0:0,0:0:0:0:
176,297,160916,2,0,L|99:321,1,70,10|10,0:0|3:2,0:0:0:0:
110,323,161197,1,2,3:2:0:0:
111,329,161291,5,2,1:2:0:0:
401,329,161666,5,2,0:0:0:0:
256,288,162041,6,0,L|256:64,1,210,10|8,0:0|0:0,0:0:0:0:
256,32,162791,1,2,1:2:0:0:
256,32,163166,2,0,P|307:28|328:65,1,93.3333333333333,10|2,0:0|0:0,0:0:0:0:
289,56,163541,2,0,P|395:62|459:1,1,140,2|2,0:0|0:0,0:0:0:0:
454,172,164103,1,10,3:2:0:0:
453,178,164197,1,2,3:2:0:0:
452,184,164291,5,2,1:2:0:0:
429,89,164666,1,10,0:0:0:0:
495,56,164853,1,10,0:0:0:0:
313,24,165041,6,0,L|340:250,1,210,10|8,0:0|0:0,0:0:0:0:
344,318,165791,2,0,L|355:164,2,140,2|10|10,1:2|0:0|0:0,0:0:0:0:
344,318,166916,1,10,0:0:0:0:
212,255,167103,1,10,3:2:0:0:
211,261,167197,1,2,3:2:0:0:
210,267,167291,5,2,1:2:0:0:
366,240,167478,1,10,0:0:0:0:
289,360,167666,5,2,1:2:0:0:
54,319,167853,1,2,1:2:0:0:
229,260,168041,6,0,L|247:7,1,210,14|8,0:0|0:0,0:0:0:0:
248,11,168791,1,2,1:2:0:0:
248,11,169166,2,0,L|269:136,1,93.3333333333333,10|2,0:0|0:0,0:0:0:0:
214,27,169541,2,0,B|166:43|166:43|67:14,1,140,2|2,0:0|0:0,0:0:0:0:
79,184,170103,1,10,3:2:0:0:
80,190,170197,1,2,3:2:0:0:
81,196,170291,5,2,1:2:0:0:
116,113,170478,1,2,0:0:0:0:
245,154,170666,5,10,0:0:0:0:
178,309,170853,1,10,0:0:0:0:
256,128,171041,6,0,P|353:114|434:199,1,210,10|8,0:0|0:0,0:0:0:0:
446,247,171791,1,2,1:2:0:0:
446,247,172166,1,10,0:0:0:0:
476,139,172353,1,10,0:0:0:0:
444,256,172541,2,0,L|455:346,1,70,10|0,0:0|0:0,0:0:0:0:
379,173,172916,2,0,L|368:263,1,70,10|10,0:0|3:2,0:0:0:0:
371,248,173197,1,2,3:2:0:0:
372,254,173291,5,2,1:2:0:0:
140,254,173666,5,2,0:0:0:0:
256,320,174041,6,0,L|256:96,1,210,10|8,0:0|0:0,0:0:0:0:
256,64,174791,1,2,1:2:0:0:
256,64,175166,2,0,P|304:47|327:81,1,93.3333333333333,10|2,0:0|0:0,0:0:0:0:
290,80,175541,2,0,P|382:64|426:32,1,140,2|2,0:0|0:0,0:0:0:0:
426,173,176103,1,10,3:2:0:0:
427,179,176197,1,2,3:2:0:0:
428,185,176291,5,2,1:2:0:0:
370,51,176666,1,10,0:0:0:0:
334,115,176853,1,10,0:0:0:0:
179,79,177041,5,10,0:0:0:0:
208,210,177228,1,10,0:0:0:0:
208,210,177603,5,10,0:0:0:0:
243,18,177791,1,2,1:2:0:0:
243,18,178166,6,0,L|253:113,1,70,10|0,0:0|0:0,0:0:0:0:
270,273,178541,1,10,0:0:0:0:
274,265,178728,5,10,0:0:0:0:
177,306,178916,1,10,0:0:0:0:
338,341,179103,1,10,3:2:0:0:
339,347,179197,1,2,3:2:0:0:
340,353,179291,5,2,1:2:0:0:
313,223,179478,1,10,0:0:0:0:
484,194,179666,1,2,1:2:0:0:
445,0,179853,1,2,1:2:0:0:
401,49,180041,5,6,0:0:0:0:
401,49,180791,1,2,0:0:0:0:
256,0,181541,1,2,0:0:0:0:
401,49,182291,1,2,0:0:0:0:
256,0,182666,1,0,0:0:0:0:
111,49,183041,5,2,0:0:0:0:
111,49,183791,1,2,0:0:0:0:
256,98,184166,1,0,0:0:0:0:
207,144,184541,1,2,0:0:0:0:
207,144,184916,1,2,0:0:0:0:
237,270,185291,1,2,0:0:0:0:
237,270,185666,1,2,0:0:0:0:
176,306,186041,5,2,0:0:0:0:
176,306,186791,1,2,0:0:0:0:
198,334,187166,1,0,0:0:0:0:
159,382,187541,1,2,0:0:0:0:
159,382,188291,1,2,0:0:0:0:
273,368,188666,1,0,0:0:0:0:
256,256,189041,5,2,0:0:0:0:
416,320,189791,1,2,0:0:0:0:
96,320,190541,1,2,0:0:0:0:
160,288,190916,1,0,0:0:0:0:
32,352,191291,1,2,0:0:0:0:
224,256,191666,1,2,0:0:0:0:
64,192,192041,6,0,L|167:203,1,87.5,2|2,0:0|0:0,0:0:0:0:
180,183,192603,2,0,L|283:172,1,87.5,2|0,0:0|0:0,0:0:0:0:
328,208,193166,1,2,0:0:0:0:
328,208,193353,1,2,0:0:0:0:
328,208,193541,2,0,L|351:12,1,175,2|0,0:0|0:0,0:0:0:0:
360,90,194478,1,2,0:0:0:0:
239,51,194666,1,2,0:0:0:0:
239,51,194853,1,2,0:0:0:0:
239,51,195041,6,0,L|129:76,1,87.5,2|2,0:0|0:0,0:0:0:0:
99,116,195603,2,0,L|-11:91,1,87.5,2|2,0:0|0:0,0:0:0:0:
79,87,196166,1,2,0:0:0:0:
47,180,196353,1,2,0:0:0:0:
110,212,196541,2,0,L|123:326,1,87.5,2|0,0:0|0:0,0:0:0:0:
126,343,197041,1,2,0:0:0:0:
178,305,197166,1,2,0:0:0:0:
210,326,197291,2,0,L|314:344,1,87.5,2|0,0:0|0:0,0:0:0:0:
427,367,198041,6,0,L|402:240,1,87.5,2|2,0:0|0:0,0:0:0:0:
394,251,198603,2,0,L|431:155,1,87.5,2|0,0:0|0:0,0:0:0:0:
468,94,199166,1,2,0:0:0:0:
468,94,199353,1,2,0:0:0:0:
468,94,199541,2,0,L|395:108,1,43.75,2|0,0:0|0:0,0:0:0:0:
340,141,199916,2,0,L|267:127,1,43.75,2|2,0:0|0:0,0:0:0:0:
197,195,200291,2,0,L|178:78,1,87.5,2|2,0:0|0:0,0:0:0:0:
207,51,200853,1,2,0:0:0:0:
207,51,201041,6,0,P|159:87|61:62,1,131.25,2|0,0:0|0:0,0:0:0:0:
36,51,201791,1,2,0:0:0:0:
95,13,201978,1,2,0:0:0:0:
125,244,202353,1,2,0:0:0:0:
168,175,202728,1,2,0:0:0:0:
196,196,202916,1,2,0:0:0:0:
271,177,203103,1,2,0:0:0:0:
401,208,203291,6,2,L|395:263,1,52.5,2|0,0:0|0:0,0:1:0:0:
394,270,204041,6,0,B|252:270|358:134|129:190,1,220.500006518841,14|2,0:0|0:0,0:0:0:0:
84,244,204603,1,10,0:0:0:0:
84,244,204791,2,0,P|187:200|138:110,1,220.500006518841,0|10,1:0|0:0,0:0:0:0:
75,75,205353,1,2,0:0:0:0:
75,75,205541,6,0,P|177:36|287:31,1,220.500006518841,10|10,0:0|0:0,0:0:0:0:
459,81,206103,1,10,3:2:0:0:
458,87,206197,1,2,3:2:0:0:
457,93,206291,5,2,1:2:0:0:
435,17,206478,1,2,0:0:0:0:
265,200,206666,5,10,0:0:0:0:
313,33,206853,1,10,0:0:0:0:
369,277,207041,6,0,P|389:146|364:30,1,220.500006518841,10|2,0:0|0:0,0:0:0:0:
358,100,207603,2,0,P|390:145|410:197,1,110.25000325942,10|0,0:0|1:0,0:0:0:0:
273,340,207978,1,2,0:0:0:0:
289,280,208166,1,10,0:0:0:0:
145,206,208353,1,2,0:0:0:0:
129,146,208541,6,0,P|185:190|255:78,1,220.500006518841,10|0,0:0|0:0,0:0:0:0:
256,56,209041,1,2,0:0:0:0:
216,10,209166,1,2,0:0:0:0:
48,114,209291,2,0,L|80:338,1,220.500006518841,2|0,1:2|0:0,0:0:0:0:
79,332,209853,1,0,0:0:0:0:
239,242,210041,6,0,L|380:272,1,110.25000325942,10|0,0:0|0:0,0:0:0:0:
176,340,210416,1,2,0:0:0:0:
86,195,210603,2,0,L|330:143,1,220.500006518841,10|0,0:0|0:0,0:0:0:0:
407,179,211166,2,0,L|346:78,1,110.25000325942,10|0,0:0|0:0,0:0:0:0:
477,20,211541,6,0,L|471:152,1,110.25000325942,10|0,0:0|0:0,0:0:0:0:
461,305,211916,1,10,0:0:0:0:
502,211,212103,2,0,L|391:234,1,110.25000325942,10|0,0:0|1:0,0:0:0:0:
209,259,212478,1,0,0:0:0:0:
209,259,212666,2,0,P|265:281|226:308,1,110.25000325942,10|10,0:0|0:0,0:0:0:0:
155,373,213041,6,0,P|176:255|233:135,1,220.500006518841,10|2,0:0|0:0,0:0:0:0:
215,236,213603,1,10,0:0:0:0:
41,191,213791,1,0,1:0:0:0:
41,191,213978,2,0,L|69:332,1,110.25000325942,2|10,0:0|0:0,0:0:0:0:
111,98,214353,1,0,0:0:0:0:
111,98,214541,6,0,L|85:323,1,220.500006518841,10|2,0:0|0:0,0:0:0:0:
161,205,215103,1,10,3:2:0:0:
160,211,215197,1,2,3:2:0:0:
159,217,215291,5,2,1:2:0:0:
17,175,215478,1,10,0:0:0:0:
278,140,215666,5,2,1:2:0:0:
233,341,215853,1,2,1:2:0:0:
288,100,216041,6,0,P|419:153|348:267,1,220.500006518841,14|2,0:0|0:0,0:0:0:0:
373,346,216603,2,0,P|429:309|518:301,1,110.25000325942,10|0,0:0|1:0,0:0:0:0:
308,306,216978,1,2,0:0:0:0:
308,306,217166,2,0,P|257:257|241:173,1,110.25000325942,10|2,0:0|0:0,0:0:0:0:
279,53,217541,6,0,P|221:161|125:105,1,220.500006518841,10|10,0:0|0:0,0:0:0:0:
58,75,218103,1,10,3:2:0:0:
59,81,218197,1,2,3:2:0:0:
60,87,218291,5,2,1:2:0:0:
180,16,218478,1,2,0:0:0:0:
215,222,218666,5,10,0:0:0:0:
179,4,218853,1,10,0:0:0:0:
213,209,219041,6,0,P|248:140|431:152,1,220.500006518841,10|2,0:0|0:0,0:0:0:0:
481,195,219603,2,0,L|324:175,1,110.25000325942,10|0,0:0|1:0,0:0:0:0:
499,81,219978,1,2,0:0:0:0:
362,15,220166,1,10,0:0:0:0:
467,1,220353,1,2,0:0:0:0:
357,200,220541,6,0,B|242:235|258:127|117:202,1,220.500006518841,10|0,0:0|0:0,0:0:0:0:
114,215,221041,1,2,0:0:0:0:
77,268,221166,1,2,0:0:0:0:
170,367,221291,2,0,P|108:254|27:381,1,330.750009778261,2|0,1:2|0:0,0:0:0:0:
208,306,222041,6,0,P|231:210|202:137,1,110.25000325942,10|0,0:0|0:0,0:0:0:0:
200,117,222416,1,2,0:0:0:0:
389,109,222603,2,0,P|293:86|220:115,1,110.25000325942,10|0,0:0|1:0,0:0:0:0:
200,117,222978,1,2,0:0:0:0:
369,208,223166,1,10,0:0:0:0:
400,89,223353,1,0,0:0:0:0:
464,279,223541,6,0,P|381:239|217:285,1,220.500006518841,10|0,0:0|0:0,0:0:0:0:
134,309,224103,1,10,3:2:0:0:
135,315,224197,1,2,3:2:0:0:
136,321,224291,5,2,1:2:0:0:
224,352,224478,1,0,0:0:0:0:
50,371,224666,5,10,0:0:0:0:
96,192,224853,1,10,0:0:0:0:
320,256,225041,6,0,L|211:274,1,110.25000325942,10|10,0:0|0:0,0:0:0:0:
352,192,225416,1,2,0:0:0:0:
411,224,225603,1,10,0:0:0:0:
372,52,225791,1,0,1:0:0:0:
271,113,225978,1,2,0:0:0:0:
253,91,226166,2,0,L|362:109,1,110.25000325942,2|0,0:0|0:0,0:0:0:0:
505,137,226541,6,0,B|458:137|430:181|430:181|487:348,1,220.500006518841,10|2,0:0|0:0,0:0:0:0:
480,224,227103,1,10,3:2:0:0:
479,230,227197,1,2,3:2:0:0:
478,236,227291,5,2,1:2:0:0:
447,360,227478,1,10,0:0:0:0:
393,149,227666,5,2,1:2:0:0:
439,335,227853,1,2,1:2:0:0:
456,81,228041,6,0,P|357:116|225:43,1,225.750003444672,14|8,0:0|0:0,0:0:0:0:
206,29,228791,1,2,1:2:0:0:
206,29,229166,2,0,P|214:64|223:120,1,75.2500011482239,10|0,0:0|0:0,0:0:0:0:
118,235,229541,2,0,P|133:166|160:74,1,150.500002296448,10|2,0:0|0:0,0:0:0:0:
174,306,230103,1,10,3:2:0:0:
175,312,230197,1,2,3:2:0:0:
176,318,230291,5,2,1:2:0:0:
256,288,230478,1,2,0:0:0:0:
408,368,230666,5,10,0:0:0:0:
258,311,230853,1,10,0:0:0:0:
464,271,231041,6,0,L|479:96,1,150.500002296448,10|2,0:0|0:0,0:0:0:0:
449,64,231603,1,10,0:0:0:0:
449,64,231791,2,0,P|404:92|357:88,1,75.2500011482239,2|0,1:2|0:0,0:0:0:0:
256,32,232166,2,0,B|221:12|221:12|86:32,2,150.500002296448,10|2|10,0:0|0:0|0:0,0:0:0:0:
319,63,233103,1,10,3:2:0:0:
320,69,233197,1,2,3:2:0:0:
321,75,233291,6,0,L|293:209,1,75.2500011482239,2|0,1:2|0:0,0:0:0:0:
352,227,233666,2,0,L|380:361,1,75.2500011482239,2|2,0:0|0:0,0:0:0:0:
443,375,234041,6,0,P|352:339|238:358,1,150.500002296448,10|0,0:0|0:0,0:0:0:0:
196,373,234603,1,10,0:0:0:0:
196,373,234791,2,0,L|211:268,1,75.2500011482239,2|0,1:2|0:0,0:0:0:0:
270,148,235166,2,0,L|285:253,1,75.2500011482239,10|0,0:0|0:0,0:0:0:0:
321,89,235541,6,0,P|249:107|206:15,1,150.500002296448,10|0,0:0|0:0,0:0:0:0:
384,32,236103,1,10,3:2:0:0:
385,38,236197,1,2,3:2:0:0:
386,44,236291,6,0,L|505:65,1,75.2500011482239,2|0,1:2|0:0,0:0:0:0:
459,182,236666,2,0,L|340:203,1,75.2500011482239,10|10,0:0|0:0,0:0:0:0:
507,120,237041,6,0,P|484:229|483:319,1,150.500002296448,10|2,0:0|0:0,0:0:0:0:
493,359,237603,1,10,0:0:0:0:
493,359,237791,2,0,B|509:328|509:328|493:315|436:335,1,75.2500011482239,2|0,1:2|0:0,0:0:0:0:
368,369,238166,1,10,0:0:0:0:
224,320,238353,1,2,0:0:0:0:
224,320,238541,2,0,L|254:112,1,150.500002296448,10|0,0:0|0:0,0:0:0:0:
268,64,239103,1,10,3:2:0:0:
269,70,239197,1,2,3:2:0:0:
270,76,239291,5,2,1:2:0:0:
112,162,239478,1,10,0:0:0:0:
305,136,239666,5,2,1:2:0:0:
423,200,239853,1,2,1:2:0:0:
422,28,240041,6,0,L|388:230,1,150.500002296448,14|0,0:0|0:0,0:0:0:0:
374,303,240603,1,10,0:0:0:0:
374,303,240791,2,0,P|324:265|325:217,1,75.2500011482239,2|0,1:2|0:0,0:0:0:0:
480,224,241166,1,10,0:0:0:0:
448,384,241353,1,2,0:0:0:0:
448,384,241541,2,0,L|279:368,1,150.500002296448,10|2,0:0|0:0,0:0:0:0:
134,355,242103,1,10,3:2:0:0:
135,361,242197,1,2,3:2:0:0:
136,367,242291,5,2,1:2:0:0:
256,320,242478,1,2,0:0:0:0:
83,309,242666,5,10,0:0:0:0:
263,379,242853,1,10,0:0:0:0:
242,202,243041,6,0,B|337:219|283:129|414:152,1,150.500002296448,10|0,0:0|0:0,0:0:0:0:
496,176,243603,1,10,0:0:0:0:
496,176,243791,2,0,P|464:118|481:72,1,75.2500011482239,2|0,1:2|0:0,0:0:0:0:
484,24,244166,1,10,0:0:0:0:
352,64,244353,1,2,0:0:0:0:
352,64,244541,2,0,L|251:41,1,75.2500011482239,10|0,0:0|0:0,0:0:0:0:
181,165,244916,2,0,L|282:142,1,75.2500011482239,10|10,0:0|3:2,0:0:0:0:
255,154,245197,1,2,3:2:0:0:
256,160,245291,5,2,1:2:0:0:
256,224,245666,5,2,0:0:0:0:
256,32,246041,6,0,P|180:109|114:66,1,150.500002296448,10|0,0:0|0:0,0:0:0:0:
94,63,246603,1,10,0:0:0:0:
94,63,246791,2,0,L|119:-12,1,75.2500011482239,2|0,1:2|0:0,0:0:0:0:
59,152,247166,1,10,0:0:0:0:
14,113,247353,1,2,0:0:0:0:
116,135,247541,2,0,L|166:283,1,150.500002296448,10|0,0:0|0:0,0:0:0:0:
194,372,248103,1,10,3:2:0:0:
195,378,248197,1,2,3:2:0:0:
196,384,248291,6,0,L|320:365,1,75.2500011482239,2|0,1:2|0:0,0:0:0:0:
436,349,248666,2,0,L|312:330,1,75.2500011482239,10|2,0:0|0:0,0:0:0:0:
217,319,249041,5,10,0:0:0:0:
256,160,249228,1,10,0:0:0:0:
256,160,249603,5,10,0:0:0:0:
288,384,249791,2,0,L|314:120,1,225.750003444672,2|0,1:2|0:0,0:0:0:0:
320,60,250541,5,10,0:0:0:0:
324,70,250728,1,10,0:0:0:0:
261,51,250916,1,10,0:0:0:0:
128,96,251103,1,10,3:2:0:0:
129,102,251197,1,2,3:2:0:0:
130,108,251291,5,2,1:2:0:0:
160,32,251478,1,10,0:0:0:0:
384,192,251666,5,2,1:2:0:0:
324,40,251853,1,2,1:2:0:0:
288,96,252041,5,2,0:0:0:0:
288,96,252791,1,2,0:0:0:0:
448,64,253541,1,2,0:0:0:0:
448,64,254291,1,2,0:0:0:0:
416,128,254666,1,0,0:0:0:0:
224,96,255041,5,2,0:0:0:0:
224,96,255791,1,2,0:0:0:0:
224,104,255978,1,2,0:0:0:0:
288,128,256166,1,2,0:0:0:0:
288,136,256353,1,2,0:0:0:0:
256,192,256541,5,2,0:0:0:0:
256,64,256916,1,0,0:0:0:0:
256,48,257103,1,0,0:0:0:0:
256,32,257291,1,2,0:0:0:0:
256,128,257666,1,0,0:0:0:0:
256,192,258041,5,2,0:0:0:0:
256,192,258791,1,2,0:0:0:0:
256,224,258978,1,0,0:0:0:0:
256,256,259166,1,0,0:0:0:0:
256,352,259541,5,2,0:0:0:0:
256,352,260291,1,2,0:0:0:0:
256,256,260666,1,0,0:0:0:0:
256,96,261041,5,2,0:0:0:0:
256,288,261791,5,2,0:0:0:0:
256,192,262541,5,2,0:0:0:0:
