osu file format v14

[General]
AudioFilename: say_yes.mp3
AudioLeadIn: 0
PreviewTime: 53581
Countdown: 0
SampleSet: Soft
StackLeniency: 0.7
Mode: 0
LetterboxInBreaks: 0
WidescreenStoryboard: 1

[Editor]
Bookmarks: 34,4056,9419,20145,25508,30871,34894,40089,45452,48302,53665,59028,64391,69754,73777,76458,78469,79140,84503,86514,87184,92547,96570,97911,101933,107128,112492,115341,119363,120704,122045,127408,132771,142156,144838,147520,152883,160927,163609,166290,171486,176849,179698,183721,184726,186402,187743,193106,195788,198469,203832,209196,214559,218581,221263,223944,226626,227966,228637,229307,229978,235341,240704,244726,245397,246067
DistanceSpacing: 1.2
BeatDivisor: 4
GridSize: 4
TimelineZoom: 1

[Metadata]
Title:Komanoeru Zenryoku koken-chu!!
TitleUnicode:コマノエール -全力貢献中!!
Artist:Akatsuki Records
ArtistUnicode:暁Records
Creator:Project Railgun
Version:Normal
Source:東方天空璋 ~ Hidden Star in Four Seasons
Tags:project_railgun めらみぽっぷ 古賀れじに 籠 一対の神獣 東方天空璋 ACTRock kaztora 森羅万象 ZUN 上海アリス幻樂団 東方Project Touhou
BeatmapID:1688666
BeatmapSetID:804436

[Difficulty]
HPDrainRate:4
CircleSize:3
OverallDifficulty:5
ApproachRate:5
SliderMultiplier:0.999999999999998
SliderTickRate:2

[Events]
//Background and Video events
Video,0,"say_yes.avi"
0,0,"say_yes.png",0,0
//Break Periods
2,187743,191906
//Storyboard Layer 0 (Background)
//Storyboard Layer 1 (Fail)
//Storyboard Layer 2 (Pass)
//Storyboard Layer 3 (Foreground)
//Storyboard Sound Samples

[TimingPoints]
34,335.195530726257,4,2,1,100,1,0
9419,-100,4,2,1,100,0,1
20145,-100,4,2,1,100,0,0
25844,-100,4,2,1,100,0,1
25927,-100,4,2,1,100,0,0
27184,-100,4,2,1,100,0,1
27268,-100,4,2,1,100,0,0
45452,-100,4,2,1,100,0,1
48302,-100,4,2,1,100,0,0
53665,-100,4,2,1,100,0,1
64307,-100,4,2,1,100,0,0
64391,-100,4,2,1,100,0,1
66989,-100,4,2,1,100,0,0
67073,-100,4,2,1,100,0,1
73777,-100,4,2,1,100,0,0
76458,-100,4,2,1,100,0,1
78469,-100,4,2,1,100,0,0
79140,-100,4,2,1,100,0,1
84419,-100,4,2,1,100,0,0
84503,-100,4,2,1,100,0,1
86514,-100,4,2,1,100,0,0
92883,-100,4,2,1,100,0,1
92966,-100,4,2,1,100,0,0
93218,-100,4,2,1,100,0,0
93888,-100,4,2,1,100,0,1
94559,-100,4,2,1,100,0,0
95229,-100,4,2,1,100,0,1
96570,-100,4,2,1,100,0,0
97911,-100,4,2,1,100,0,1
101933,-100,4,2,1,100,0,0
112492,-100,4,2,1,100,0,1
115341,-100,4,2,1,100,0,0
122045,-100,4,2,1,100,0,1
132687,-100,4,2,1,100,0,0
132771,-100,4,2,1,100,0,1
135369,-100,4,2,1,100,0,0
135452,-100,4,2,1,100,0,1
142156,-100,4,2,1,100,0,0
144838,-100,4,2,1,100,0,1
147520,-100,4,2,1,100,0,0
152883,-100,4,2,1,100,0,1
160844,-100,4,2,1,100,0,0
160927,-100,4,2,1,100,0,1
163525,-100,4,2,1,100,0,0
163609,-100,4,2,1,100,0,1
166290,-100,4,2,1,100,0,0
176849,-100,4,2,1,100,0,1
179698,-100,4,2,1,100,0,0
183721,-100,4,2,1,100,0,1
183804,-100,4,2,1,100,0,0
195788,-100,4,2,1,100,0,1
195871,-100,4,2,1,100,0,0
197128,-100,4,2,1,100,0,1
197212,-100,4,2,1,100,0,0
198469,-100,4,2,1,100,0,1
209112,-100,4,2,1,100,0,0
209196,-100,4,2,1,100,0,1
211793,-100,4,2,1,100,0,0
211877,-100,4,2,1,100,0,1
218581,-100,4,2,1,100,0,0
221263,-100,4,2,1,100,0,1
223944,-100,4,2,1,100,0,1
226626,-100,4,2,1,100,0,1
227966,-100,4,2,1,100,0,0
228637,-100,4,2,1,100,0,1
229894,-100,4,2,1,100,0,0
229978,-100,4,2,1,100,0,1
240704,-100,4,2,1,100,0,0

[Colours]
Combo1 : 125,121,166
Combo2 : 160,204,102
Combo3 : 239,63,217
Combo4 : 72,242,213

[HitObjects]
468,240,2045,6,0,L|460:140,1,99.9999999999998,2|2,0:0|0:0,0:0:0:0:
364,64,2715,1,2,0:0:0:0:
248,88,3050,1,2,0:0:0:0:
132,112,3385,1,2,0:0:0:0:
132,112,3553,2,0,L|116:32,1,49.9999999999999,0|2,3:0|3:0,0:0:0:0:
44,152,4056,6,0,P|66:195|111:212,1,99.9999999999998,4|0,0:0|0:0,0:0:0:0:
172,212,4559,2,0,L|271:202,1,99.9999999999998,2|2,0:0|0:0,0:0:0:0:
388,236,5229,1,0,0:0:0:0:
388,236,5397,2,0,L|397:335,1,99.9999999999998,2|2,0:0|0:0,0:0:0:0:
280,367,6067,2,0,P|255:372|230:368,1,49.9999999999999,2|2,0:0|0:0,0:0:0:0:
140,292,6570,6,0,P|124:244|128:195,1,99.9999999999998,4|0,0:0|0:0,0:0:0:0:
156,140,7073,1,2,0:0:0:0:
156,140,7240,1,2,0:0:0:0:
256,72,7575,1,2,0:0:0:0:
356,140,7911,1,2,0:0:0:0:
356,140,8078,6,0,P|404:144|444:128,2,74.9999999999999,4|2|2,0:0|0:0|0:0,0:0:0:0:
312,180,8749,2,0,L|318:279,1,99.9999999999998,4|2,0:0|0:0,0:0:0:0:
216,344,9419,6,0,P|167:350|112:324,1,99.9999999999998,4|2,0:0|0:0,0:0:0:0:
76,292,9922,1,0,0:0:0:0:
44,240,10089,2,0,L|54:140,1,99.9999999999998,2|2,0:0|0:0,0:0:0:0:
108,32,10760,2,0,L|207:39,1,99.9999999999998,4|2,0:0|0:0,0:0:0:0:
256,76,11263,1,0,0:0:0:0:
308,108,11430,2,0,L|407:115,1,99.9999999999998,2|2,0:0|0:0,0:0:0:0:
388,236,12101,6,0,P|336:288|300:288,1,99.9999999999998,4|2,0:0|0:0,0:0:0:0:
256,276,12603,1,0,0:0:0:0:
198,290,12771,2,0,P|151:276|124:236,1,99.9999999999998,2|2,0:0|0:0,0:0:0:0:
96,120,13441,2,0,L|204:108,1,99.9999999999998,4|2,0:0|0:0,0:0:0:0:
316,108,14112,2,0,L|416:120,1,99.9999999999998,4|2,0:0|0:0,0:0:0:0:
496,212,14782,6,0,P|501:261|481:306,1,99.9999999999998,4|2,0:0|0:0,0:0:0:0:
428,336,15285,1,0,0:0:0:0:
368,352,15452,2,0,L|260:344,1,99.9999999999998,2|2,0:0|0:0,0:0:0:0:
156,296,16123,2,0,P|135:250|136:201,1,99.9999999999998,4|2,0:0|0:0,0:0:0:0:
152,144,16626,1,0,0:0:0:0:
192,100,16793,2,0,L|296:108,1,99.9999999999998,2|2,0:0|0:0,0:0:0:0:
368,200,17464,6,0,P|356:248|312:280,1,99.9999999999998,4|2,0:0|0:0,0:0:0:0:
194,278,18134,2,0,P|155:247|144:200,1,99.9999999999998,4|2,0:0|0:0,0:0:0:0:
148,140,18637,2,0,L|300:116,1,150,4|2,0:0|0:0,0:0:0:0:
412,92,19475,1,4,0:0:0:0:
476,192,19810,1,4,0:0:0:0:
400,284,20145,6,0,P|361:315|311:316,1,99.9999999999998,4|2,0:0|0:0,0:0:0:0:
256,297,20648,1,0,0:0:0:0:
200,316,20816,2,0,P|150:315|111:284,1,99.9999999999998,2|2,0:0|0:0,0:0:0:0:
126,166,21486,2,0,P|150:123|194:102,1,99.9999999999998,2|2,0:0|0:0,0:0:0:0:
317,102,22156,2,0,P|361:123|386:166,1,99.9999999999998,2|2,0:0|0:0,0:0:0:0:
340,275,22827,6,0,P|287:325|214:318,1,150,2|0,0:0|0:0,0:0:0:0:
172,275,23497,2,0,L|163:225,2,49.9999999999999,2|0|2,0:0|0:0|0:0,0:0:0:0:
76,348,24168,2,0,L|56:199,1,150,2|0,0:0|0:0,0:0:0:0:
48,140,24838,2,0,P|94:156|144:136,1,99.9999999999998,2|2,0:0|0:0,0:0:0:0:
212,44,25508,5,4,0:0:0:0:
212,44,25844,2,0,L|311:46,1,99.9999999999998,4|2,0:0|0:0,0:0:0:0:
420,100,26514,1,2,0:0:0:0:
348,196,26849,1,4,0:0:0:0:
348,196,27184,2,0,L|248:198,1,99.9999999999998,4|2,0:0|0:0,0:0:0:0:
156,276,27855,1,2,0:0:0:0:
56,212,28190,6,0,L|64:148,1,49.9999999999999,4|0,0:0|0:0,0:0:0:0:
112,128,28525,2,0,L|118:78,1,49.9999999999999,2|0,0:0|0:0,0:0:0:0:
152,28,28860,2,0,P|194:52|244:52,1,99.9999999999998,2|2,0:0|0:0,0:0:0:0:
360,28,29531,2,0,P|409:27|452:52,1,99.9999999999998,4|4,0:0|0:0,0:0:0:0:
492,164,30201,2,0,L|480:272,1,99.9999999999998,2|2,0:0|0:0,0:0:0:0:
444,312,30704,1,0,0:0:0:0:
396,347,30871,6,0,P|347:358|299:346,1,99.9999999999998,4|2,0:0|0:0,0:0:0:0:
252,308,31374,2,0,P|184:280|116:307,1,150,2|2,0:0|0:0,0:0:0:0:
64,340,32045,2,0,L|56:240,1,99.9999999999998,4|2,0:0|0:0,0:0:0:0:
56,180,32547,1,2,0:0:0:0:
120,80,32883,1,4,0:0:0:0:
300,104,33385,2,0,L|436:100,1,99.9999999999998,6|0,0:0|0:0,0:0:0:0:
440,144,33888,1,2,0:0:0:0:
448,264,34223,2,0,P|404:312|304:288,1,150,2|0,0:0|0:0,0:0:0:0:
284,260,34894,6,0,P|166:221|195:341,1,299.999999999999,0|2,3:0|0:0,0:0:0:0:
312,364,36235,2,0,L|372:56,1,299.999999999999,0|2,3:0|0:0,0:0:0:0:
472,132,37575,6,0,P|342:184|254:75,1,299.999999999999,0|2,3:0|0:0,0:0:0:0:
140,36,38916,2,0,B|108:132|176:132|143:231,1,200,2|2,3:0|0:0,0:0:0:0:
64,320,39922,1,2,0:0:0:0:
64,320,40089,6,0,L|213:307,1,150,4|2,0:0|0:0,0:0:0:0:
308,232,40927,2,0,P|356:226|397:253,1,99.9999999999998,2|2,0:0|0:0,0:0:0:0:
476,344,41598,6,0,L|484:244,1,99.9999999999998,4|2,0:0|0:0,0:0:0:0:
468,124,42268,1,2,0:0:0:0:
384,40,42603,1,2,0:0:0:0:
280,100,42939,2,0,L|196:92,1,49.9999999999999,4|0,0:0|0:0,0:0:0:0:
128,156,43441,2,0,P|123:205|143:250,1,99.9999999999998,4|2,0:0|0:0,0:0:0:0:
224,340,44112,2,0,L|356:332,1,99.9999999999998,4|0,0:0|0:0,0:0:0:0:
380,308,44615,1,2,0:0:0:0:
452,212,44950,6,0,L|524:216,2,49.9999999999999,2|0|2,0:0|0:0|0:0,0:0:0:0:
408,168,45452,2,0,P|341:137|264:164,1,150,4|2,0:0|0:0,0:0:0:0:
192,248,46290,1,2,0:0:0:0:
88,304,46626,1,2,0:0:0:0:
8,212,46961,1,2,0:0:0:0:
62,104,47296,1,2,0:0:0:0:
180,132,47631,1,2,0:0:0:0:
192,248,47966,1,2,0:0:0:0:
306,213,48302,6,0,P|353:157|352:83,1,150,2|2,0:0|0:0,0:0:0:0:
256,12,49140,1,2,0:0:0:0:
160,84,49475,1,2,0:0:0:0:
160,84,49642,2,0,L|60:91,1,99.9999999999998,2|2,0:0|0:0,0:0:0:0:
24,207,50313,2,0,P|24:232|29:257,1,49.9999999999999,2|0,0:0|0:0,0:0:0:0:
128,328,50816,1,2,0:0:0:0:
128,328,50983,2,0,P|255:261|383:328,1,299.999999999999,2|0,0:0|0:0,0:0:0:0:
440,219,52324,6,0,P|464:221|490:226,2,49.9999999999999,4|0|2,0:0|0:0|0:0,0:0:0:0:
408,168,52827,2,0,L|258:178,1,150,4|2,0:0|0:0,0:0:0:0:
152,236,53665,6,0,P|105:220|74:182,1,99.9999999999998,4|2,0:0|0:0,0:0:0:0:
64,124,54168,1,0,0:0:0:0:
96,72,54335,2,0,L|204:52,1,99.9999999999998,2|2,0:0|0:0,0:0:0:0:
317,53,55006,2,0,L|416:72,1,99.9999999999998,4|2,0:0|0:0,0:0:0:0:
448,124,55508,1,0,0:0:0:0:
437,182,55676,2,0,P|406:220|360:236,1,99.9999999999998,2|2,0:0|0:0,0:0:0:0:
256,176,56346,6,0,L|256:76,2,99.9999999999998,4|2|4,0:0|0:0|0:0,0:0:0:0:
200,284,57352,1,2,0:0:0:0:
200,284,57520,2,0,P|152:299|103:295,1,99.9999999999998,4|2,0:0|0:0,0:0:0:0:
52,260,58022,1,4,0:0:0:0:
80,144,58358,1,4,0:0:0:0:
172,64,58693,1,2,0:0:0:0:
288,104,59028,6,0,L|387:98,1,99.9999999999998,4|2,0:0|0:0,0:0:0:0:
444,116,59531,1,0,0:0:0:0:
467,171,59698,2,0,P|470:221|452:267,1,99.9999999999998,2|2,0:0|0:0,0:0:0:0:
348,332,60369,2,0,L|248:323,1,99.9999999999998,4|2,0:0|0:0,0:0:0:0:
196,292,60871,1,0,0:0:0:0:
160,244,61039,2,0,P|148:195|160:147,1,99.9999999999998,2|2,0:0|0:0,0:0:0:0:
256,76,61709,6,0,L|355:84,2,99.9999999999998,4|2|4,0:0|0:0|0:0,0:0:0:0:
148,24,62715,1,2,0:0:0:0:
148,24,62883,2,0,P|98:20|50:34,1,99.9999999999998,4|2,0:0|0:0,0:0:0:0:
16,84,63385,2,0,L|27:183,1,99.9999999999998,4|4,0:0|0:0,0:0:0:0:
96,284,64056,1,2,0:0:0:0:
180,196,64391,6,0,L|196:92,1,99.9999999999998,4|2,0:0|0:0,0:0:0:0:
316,97,65061,2,0,L|332:196,1,99.9999999999998,4|2,0:0|0:0,0:0:0:0:
412,284,65732,1,2,0:0:0:0:
316,356,66067,1,2,0:0:0:0:
196,356,66402,1,2,0:0:0:0:
100,284,66737,1,2,0:0:0:0:
180,195,67073,6,0,P|198:150|192:100,1,99.9999999999998,4|2,0:0|0:0,0:0:0:0:
319,100,67743,2,0,P|313:150|331:195,1,99.9999999999998,4|2,0:0|0:0,0:0:0:0:
388,299,68413,2,0,P|361:341|315:358,1,99.9999999999998,2|2,0:0|0:0,0:0:0:0:
256,348,68916,1,0,0:0:0:0:
204,316,69084,2,0,L|212:216,1,99.9999999999998,2|2,0:0|0:0,0:0:0:0:
256,104,69754,5,4,0:0:0:0:
352,32,70089,1,2,0:0:0:0:
460,88,70425,1,2,0:0:0:0:
464,208,70760,1,2,0:0:0:0:
364,276,71095,1,4,0:0:0:0:
256,224,71430,1,2,0:0:0:0:
256,104,71765,1,2,0:0:0:0:
356,36,72101,1,2,0:0:0:0:
460,88,72436,6,0,P|469:136|460:185,1,99.9999999999998,4|0,0:0|0:0,0:0:0:0:
428,236,72939,1,2,0:0:0:0:
332,308,73274,2,0,L|200:316,1,99.9999999999998,2|0,0:0|0:0,0:0:0:0:
176,296,73777,1,4,0:0:0:0:
88,216,74112,2,0,L|80:156,2,49.9999999999999,2|0|2,0:0|0:0|0:0,0:0:0:0:
232,108,74950,2,0,L|331:116,1,99.9999999999998,4|2,0:0|0:0,0:0:0:0:
384,144,75452,2,0,L|433:137,2,49.9999999999999,2|0|2,0:0|0:0|0:0,0:0:0:0:
340,256,76123,1,2,0:0:0:0:
255,340,76458,6,0,P|207:348|159:333,1,99.9999999999998,4|2,0:0|0:0,0:0:0:0:
116,292,76961,2,0,L|121:192,1,99.9999999999998,4|2,0:0|0:0,0:0:0:0:
80,152,77464,2,0,L|76:102,1,49.9999999999999,2|0,0:0|0:0,0:0:0:0:
100,48,77799,2,0,P|149:52|196:35,1,99.9999999999998,4|2,0:0|0:0,0:0:0:0:
315,35,78469,2,0,P|362:52|412:48,1,99.9999999999998,4|2,0:0|0:0,0:0:0:0:
484,144,79140,6,0,L|472:243,1,99.9999999999998,4|2,0:0|0:0,0:0:0:0:
447,299,79642,2,0,P|390:344|317:340,1,150,4|2,0:0|0:0,0:0:0:0:
220,272,80480,2,0,L|120:285,1,99.9999999999998,4|2,0:0|0:0,0:0:0:0:
48,192,81151,1,2,0:0:0:0:
48,192,81318,2,0,P|92:133|163:114,1,150,4|4,0:0|0:0,0:0:0:0:
256,196,82156,5,2,0:0:0:0:
349,114,82492,1,4,0:0:0:0:
256,36,82827,1,2,0:0:0:0:
163,114,83162,2,0,L|63:110,1,99.9999999999998,4|2,0:0|0:0,0:0:0:0:
23,154,83665,1,0,0:0:0:0:
7,210,83832,2,0,P|15:258|51:291,1,99.9999999999998,4|2,0:0|0:0,0:0:0:0:
164,251,84503,6,0,P|199:217|211:169,1,99.9999999999998,4|2,0:0|0:0,0:0:0:0:
256,128,85006,1,0,0:0:0:0:
300,169,85173,2,0,P|312:217|347:251,1,99.9999999999998,4|2,0:0|0:0,0:0:0:0:
444,324,85844,2,0,L|496:312,2,49.9999999999999,4|0|2,0:0|0:0|0:0,0:0:0:0:
332,363,86514,2,0,P|262:346|239:278,1,150,4|0,0:0|0:0,0:0:0:0:
280,232,87184,6,0,L|384:244,1,99.9999999999998,2|0,0:0|0:0,0:0:0:0:
432,216,87687,1,0,0:0:0:0:
476,176,87855,2,0,P|484:128|464:72,1,99.9999999999998,2|0,0:0|0:0,0:0:0:0:
360,32,88525,2,0,L|319:123,1,99.9999999999998,2|0,0:0|0:0,0:0:0:0:
192,123,89196,2,0,L|152:32,1,99.9999999999998,2|0,0:0|0:0,0:0:0:0:
51,96,89866,6,0,P|56:169|110:217,1,150,2|0,0:0|0:0,0:0:0:0:
160,252,90536,2,0,L|259:244,1,99.9999999999998,2|2,0:0|0:0,0:0:0:0:
352,160,91207,2,0,P|421:139|484:177,1,150,2|2,0:0|0:0,0:0:0:0:
504,236,91877,2,0,P|508:285|494:333,1,99.9999999999998,2|2,0:0|0:0,0:0:0:0:
376,356,92547,5,4,0:0:0:0:
376,356,92883,2,0,L|276:353,1,99.9999999999998,4|2,0:0|0:0,0:0:0:0:
200,260,93553,1,2,0:0:0:0:
256,156,93888,2,0,P|263:119|263:81,2,74.9999999999999,4|2|2,0:0|0:0|0:0,0:0:0:0:
200,180,94559,2,0,L|50:169,1,150,4|0,0:0|0:0,0:0:0:0:
19,220,95229,6,0,P|22:269|51:308,1,99.9999999999998,4|2,0:0|0:0,0:0:0:0:
104,340,95732,2,0,L|203:337,1,99.9999999999998,4|2,0:0|0:0,0:0:0:0:
256,304,96235,1,4,0:0:0:0:
371,340,96570,2,0,P|407:275|393:202,1,150,2|2,0:0|0:0,0:0:0:0:
256,88,97575,1,2,0:0:0:0:
152,148,97911,6,0,L|158:247,1,99.9999999999998,4|2,0:0|0:0,0:0:0:0:
171,307,98413,2,0,P|240:336|311:316,1,150,2|2,0:0|0:0,0:0:0:0:
352,272,99085,2,0,P|398:256|445:270,1,99.9999999999998,4|2,0:0|0:0,0:0:0:0:
500,292,99587,1,2,0:0:0:0:
488,172,99923,1,4,0:0:0:0:
356,48,100425,2,0,L|256:50,1,99.9999999999998,6|0,0:0|0:0,0:0:0:0:
216,96,100928,1,2,0:0:0:0:
184,211,101263,2,0,P|188:284|245:329,1,150,2|0,0:0|0:0,0:0:0:0:
303,343,101933,6,0,P|437:292|460:150,1,299.999999999999,4|2,0:0|0:0,0:0:0:0:
396,52,103274,2,0,B|248:-4|278:132|109:50,1,299.999999999999,4|2,0:0|0:0,0:0:0:0:
44,151,104615,6,0,P|59:268|129:174,1,299.999999999999,4|2,0:0|0:0,0:0:0:0:
200,80,105955,2,0,L|399:96,1,200,4|2,0:0|0:0,0:0:0:0:
464,196,106961,1,2,0:0:0:0:
464,196,107128,6,0,P|467:268|416:321,1,150,4|2,0:0|0:0,0:0:0:0:
303,275,107966,2,0,P|257:260|210:274,1,99.9999999999998,2|2,0:0|0:0,0:0:0:0:
97,320,108637,6,0,L|84:212,1,99.9999999999998,4|2,0:0|0:0,0:0:0:0:
68,104,109307,1,2,0:0:0:0:
152,20,109642,1,2,0:0:0:0:
232,108,109978,2,0,P|256:112|281:111,1,49.9999999999999,4|0,0:0|0:0,0:0:0:0:
392,160,110480,2,0,P|400:208|387:257,1,99.9999999999998,4|2,0:0|0:0,0:0:0:0:
308,344,111151,2,0,L|208:338,1,99.9999999999998,4|0,0:0|0:0,0:0:0:0:
152,316,111654,1,2,0:0:0:0:
56,244,111989,6,0,P|28:252|7:253,2,49.9999999999999,2|0|2,0:0|0:0|0:0,0:0:0:0:
87,192,112492,2,0,P|136:137|209:135,1,150,4|2,0:0|0:0,0:0:0:0:
317,194,113330,1,2,0:0:0:0:
360,308,113665,1,2,0:0:0:0:
256,372,114000,1,2,0:0:0:0:
152,308,114335,1,2,0:0:0:0:
195,194,114670,1,2,0:0:0:0:
317,194,115006,1,2,0:0:0:0:
320,76,115341,6,0,P|255:43|190:76,1,150,2|2,0:0|0:0,0:0:0:0:
116,172,116179,1,2,0:0:0:0:
156,284,116514,1,2,0:0:0:0:
156,284,116682,2,0,L|255:290,1,99.9999999999998,2|2,0:0|0:0,0:0:0:0:
372,264,117352,2,0,P|379:240|383:215,1,49.9999999999999,2|0,0:0|0:0,0:0:0:0:
384,96,117855,1,2,0:0:0:0:
384,96,118022,2,0,P|254:32|124:96,1,299.999999999999,2|0,0:0|0:0,0:0:0:0:
88,212,119363,6,0,L|38:214,2,49.9999999999999,4|0|2,0:0|0:0|0:0,0:0:0:0:
136,252,119866,2,0,P|193:298|266:297,1,150,4|2,0:0|0:0,0:0:0:0:
352,212,120704,6,0,L|362:112,1,99.9999999999998,4|0,0:0|0:0,0:0:0:0:
323,63,121207,2,0,P|256:35|188:62,1,150,4|2,0:0|0:0,0:0:0:0:
108,152,122045,6,0,P|97:201|104:251,1,99.9999999999998,4|2,0:0|0:0,0:0:0:0:
136,300,122547,1,0,0:0:0:0:
180,340,122715,2,0,L|279:348,1,99.9999999999998,2|2,0:0|0:0,0:0:0:0:
376,276,123385,2,0,P|389:228|382:179,1,99.9999999999998,4|2,0:0|0:0,0:0:0:0:
348,128,123888,1,0,0:0:0:0:
304,88,124056,2,0,L|180:96,1,99.9999999999998,2|2,0:0|0:0,0:0:0:0:
116,176,124726,6,0,P|67:169|32:135,2,99.9999999999998,4|2|4,0:0|0:0|0:0,0:0:0:0:
228,220,125732,1,2,0:0:0:0:
228,220,125899,2,0,L|356:228,1,99.9999999999998,4|2,0:0|0:0,0:0:0:0:
388,212,126402,1,4,0:0:0:0:
488,144,126737,1,4,0:0:0:0:
500,24,127073,1,2,0:0:0:0:
400,92,127408,6,0,P|352:116|304:104,1,99.9999999999998,4|2,0:0|0:0,0:0:0:0:
256,80,127911,1,0,0:0:0:0:
203,107,128078,2,0,P|155:115|112:92,1,99.9999999999998,2|2,0:0|0:0,0:0:0:0:
20,172,128749,2,0,L|36:272,1,99.9999999999998,4|2,0:0|0:0,0:0:0:0:
68,320,129251,1,0,0:0:0:0:
116,356,129419,2,0,P|165:365|212:349,1,99.9999999999998,2|2,0:0|0:0,0:0:0:0:
296,260,130089,6,0,P|315:214|311:165,2,99.9999999999998,4|2|4,0:0|0:0|0:0,0:0:0:0:
364,356,131095,1,2,0:0:0:0:
364,356,131263,2,0,L|480:364,1,99.9999999999998,4|2,0:0|0:0,0:0:0:0:
504,320,131765,2,0,P|512:271|500:223,1,99.9999999999998,4|4,0:0|0:0,0:0:0:0:
416,136,132436,1,2,0:0:0:0:
308,84,132771,6,0,L|208:84,1,99.9999999999998,4|2,0:0|0:0,0:0:0:0:
208,204,133441,2,0,L|308:204,1,99.9999999999998,4|2,0:0|0:0,0:0:0:0:
405,276,134112,1,2,0:0:0:0:
318,364,134447,1,2,0:0:0:0:
194,364,134782,1,2,0:0:0:0:
107,276,135117,1,2,0:0:0:0:
143,163,135452,6,0,P|156:116|194:84,1,99.9999999999998,4|2,0:0|0:0,0:0:0:0:
317,84,136123,2,0,P|355:116|368:163,1,99.9999999999998,4|2,0:0|0:0,0:0:0:0:
312,268,136793,2,0,L|196:280,1,99.9999999999998,2|2,0:0|0:0,0:0:0:0:
152,264,137296,1,0,0:0:0:0:
108,224,137464,2,0,P|98:175|110:126,1,99.9999999999998,2|2,0:0|0:0,0:0:0:0:
168,24,138134,5,4,0:0:0:0:
256,104,138469,1,2,0:0:0:0:
344,24,138804,1,2,0:0:0:0:
436,104,139140,1,2,0:0:0:0:
344,180,139475,1,4,0:0:0:0:
256,104,139810,1,2,0:0:0:0:
168,180,140145,1,2,0:0:0:0:
76,104,140480,1,2,0:0:0:0:
40,220,140816,6,0,P|41:269|69:310,1,99.9999999999998,4|0,0:0|0:0,0:0:0:0:
116,348,141318,1,2,0:0:0:0:
220,288,141654,2,0,L|319:294,1,99.9999999999998,2|0,0:0|0:0,0:0:0:0:
372,324,142156,1,4,0:0:0:0:
468,252,142492,2,0,L|473:202,2,49.9999999999999,2|0|2,0:0|0:0|0:0,0:0:0:0:
324,144,143330,2,0,L|224:149,1,99.9999999999998,4|2,0:0|0:0,0:0:0:0:
176,188,143832,2,0,L|126:185,2,49.9999999999999,2|0|2,0:0|0:0|0:0,0:0:0:0:
256,280,144503,1,2,0:0:0:0:
356,344,144838,6,0,P|404:353|450:335,1,99.9999999999998,4|2,0:0|0:0,0:0:0:0:
488,288,145341,2,0,L|494:188,1,99.9999999999998,4|2,0:0|0:0,0:0:0:0:
460,140,145844,2,0,L|455:90,1,49.9999999999999,2|0,0:0|0:0,0:0:0:0:
410,50,146179,2,0,P|361:40|316:59,1,99.9999999999998,4|2,0:0|0:0,0:0:0:0:
195,59,146849,2,0,P|150:40|102:50,1,99.9999999999998,4|2,0:0|0:0,0:0:0:0:
44,156,147520,6,0,L|56:260,2,99.9999999999998,4|2|2,0:0|0:0|0:0,0:0:0:0:
102,50,148525,1,2,0:0:0:0:
180,140,148860,2,0,L|192:244,2,99.9999999999998,4|2|2,0:0|0:0|0:0,0:0:0:0:
256,48,149865,1,2,0:0:0:0:
332,140,150201,6,0,L|320:244,2,99.9999999999998,4|2|2,0:0|0:0|0:0,0:0:0:0:
410,50,151206,1,2,0:0:0:0:
468,156,151542,2,0,L|456:255,1,99.9999999999998,4|2,0:0|0:0,0:0:0:0:
380,348,152212,2,0,P|332:360|287:339,1,99.9999999999998,4|2,0:0|0:0,0:0:0:0:
184,280,152883,6,0,P|136:282|88:320,1,99.9999999999998,4|2,0:0|0:0,0:0:0:0:
56,356,153385,2,0,L|47:256,1,99.9999999999998,2|0,0:0|0:0,0:0:0:0:
40,196,153888,1,2,0:0:0:0:
64,80,154223,2,0,P|111:95|162:88,1,99.9999999999998,4|2,0:0|0:0,0:0:0:0:
256,16,154894,1,2,0:0:0:0:
256,16,155061,2,0,L|355:24,1,99.9999999999998,2|2,0:0|0:0,0:0:0:0:
404,60,155564,5,4,0:0:0:0:
467,159,155899,2,0,P|472:184|469:209,2,49.9999999999999,2|0|2,0:0|0:0|0:0,0:0:0:0:
388,252,156570,2,0,P|383:276|386:301,2,49.9999999999999,2|0|2,0:0|0:0|0:0,0:0:0:0:
336,220,157073,2,0,L|236:228,1,99.9999999999998,2|2,0:0|0:0,0:0:0:0:
124,184,157743,2,0,P|114:135|129:88,1,99.9999999999998,2|2,0:0|0:0,0:0:0:0:
168,44,158246,6,0,L|268:44,1,99.9999999999998,4|2,0:0|0:0,0:0:0:0:
308,88,158749,1,0,0:0:0:0:
348,132,158916,2,0,L|420:132,1,49.9999999999999,2|2,0:0|0:0,0:0:0:0:
412,256,159419,1,2,0:0:0:0:
412,256,159587,2,0,L|312:256,1,99.9999999999998,4|2,0:0|0:0,0:0:0:0:
256,280,160089,1,0,0:0:0:0:
200,308,160257,2,0,P|175:310|151:303,1,49.9999999999999,2|0,0:0|0:0,0:0:0:0:
116,256,160592,2,0,L|125:156,1,99.9999999999998,2|4,0:0|0:0,0:0:0:0:
256,32,161430,5,4,0:0:0:0:
388,156,161933,1,4,0:0:0:0:
346,268,162268,1,4,0:0:0:0:
166,268,162771,1,2,0:0:0:0:
166,268,162939,2,0,L|67:286,1,99.9999999999998,4|2,0:0|0:0,0:0:0:0:
32,172,163609,6,0,P|32:120|64:72,1,99.9999999999998,4|2,0:0|0:0,0:0:0:0:
104,44,164112,1,0,0:0:0:0:
156,12,164279,2,0,L|256:12,1,99.9999999999998,2|2,0:0|0:0,0:0:0:0:
300,56,164782,1,0,0:0:0:0:
332,104,164950,2,0,P|332:153|307:195,1,99.9999999999998,4|2,0:0|0:0,0:0:0:0:
256,228,165452,1,0,0:0:0:0:
204,195,165620,2,0,P|179:153|179:104,1,99.9999999999998,2|2,0:0|0:0,0:0:0:0:
255,11,166290,6,0,P|391:51|418:191,1,299.999999999999,0|2,3:0|0:0,0:0:0:0:
328,268,167631,2,0,B|177:331|177:195|41:253,1,299.999999999999,0|2,3:0|0:0,0:0:0:0:
99,359,168972,6,0,P|178:243|93:131,1,299.999999999999,0|2,3:0|0:0,0:0:0:0:
152,28,170313,2,0,B|254:59|254:-13|346:19,1,200,2|2,3:0|0:0,0:0:0:0:
432,104,171318,1,2,0:0:0:0:
432,104,171486,6,0,L|425:253,1,150,4|2,0:0|0:0,0:0:0:0:
348,348,172324,2,0,P|301:364|255:348,1,99.9999999999998,2|2,0:0|0:0,0:0:0:0:
180,256,172994,6,0,L|186:156,1,99.9999999999998,4|2,0:0|0:0,0:0:0:0:
256,56,173665,1,2,0:0:0:0:
326,156,174000,1,2,0:0:0:0:
404,64,174335,2,0,L|453:61,1,49.9999999999999,4|0,0:0|0:0,0:0:0:0:
488,176,174838,2,0,P|489:225|466:269,1,99.9999999999998,4|2,0:0|0:0,0:0:0:0:
352,300,175508,2,0,L|252:290,1,99.9999999999998,4|0,0:0|0:0,0:0:0:0:
200,316,176011,1,2,0:0:0:0:
100,252,176346,6,0,L|50:258,2,49.9999999999999,2|0|2,0:0|0:0|0:0,0:0:0:0:
144,211,176849,2,0,P|160:139|135:69,1,150,4|2,0:0|0:0,0:0:0:0:
16,96,177687,1,2,0:0:0:0:
52,212,178022,1,2,0:0:0:0:
148,288,178358,1,2,0:0:0:0:
256,340,178693,1,2,0:0:0:0:
364,288,179028,1,2,0:0:0:0:
460,212,179363,1,2,0:0:0:0:
495,95,179698,6,0,P|440:48|367:51,1,150,2|2,0:0|0:0,0:0:0:0:
256,100,180536,1,2,0:0:0:0:
145,52,180871,1,2,0:0:0:0:
145,52,181039,2,0,L|33:68,1,99.9999999999998,2|2,0:0|0:0,0:0:0:0:
20,184,181709,2,0,P|25:208|34:231,1,49.9999999999999,2|0,0:0|0:0,0:0:0:0:
112,324,182212,1,2,0:0:0:0:
112,324,182380,2,0,B|254:395|254:255|397:338,1,299.999999999999,2|0,0:0|0:0,0:0:0:0:
452,232,183721,6,0,P|480:240|508:264,2,49.9999999999999,4|0|2,0:0|0:0|0:0,0:0:0:0:
404,196,184223,2,0,L|396:96,1,99.9999999999998,4|0,0:0|0:0,0:0:0:0:
356,52,184726,2,0,P|125:77|97:308,1,499.999999999999,4|0,0:0|0:0,0:0:0:0:
116,280,193106,6,0,P|153:312|201:311,1,99.9999999999998,4|2,0:0|0:0,0:0:0:0:
256,284,193609,1,0,0:0:0:0:
310,311,193777,2,0,P|358:311|395:279,1,99.9999999999998,2|2,0:0|0:0,0:0:0:0:
456,172,194447,1,4,0:0:0:0:
360,100,194782,1,2,0:0:0:0:
256,160,195117,1,2,0:0:0:0:
152,100,195452,1,2,0:0:0:0:
56,172,195788,6,0,P|60:311|204:344,1,299.999999999999,4|2,0:0|0:0,0:0:0:0:
315,347,197128,2,0,P|451:311|456:172,1,299.999999999999,4|2,0:0|0:0,0:0:0:0:
356,104,198469,6,0,L|256:110,1,99.9999999999998,4|2,0:0|0:0,0:0:0:0:
200,128,198972,1,0,0:0:0:0:
144,108,199140,2,0,P|136:59|152:12,1,99.9999999999998,2|2,0:0|0:0,0:0:0:0:
40,64,199810,2,0,L|51:163,1,99.9999999999998,4|2,0:0|0:0,0:0:0:0:
68,220,200313,1,0,0:0:0:0:
104,268,200480,2,0,P|151:255|196:275,1,99.9999999999998,2|2,0:0|0:0,0:0:0:0:
308,320,201151,6,0,P|353:339|400:327,2,99.9999999999998,4|2|4,0:0|0:0|0:0,0:0:0:0:
256,212,202156,1,2,0:0:0:0:
256,212,202324,2,0,L|256:112,1,99.9999999999998,4|2,0:0|0:0,0:0:0:0:
288,60,202827,1,4,0:0:0:0:
400,12,203162,1,4,0:0:0:0:
464,116,203497,1,2,0:0:0:0:
396,216,203832,6,0,P|364:253|316:265,1,99.9999999999998,4|2,0:0|0:0,0:0:0:0:
256,252,204335,1,0,0:0:0:0:
195,265,204503,2,0,P|147:253|116:216,1,99.9999999999998,2|2,0:0|0:0,0:0:0:0:
100,96,205173,2,0,L|200:76,1,99.9999999999998,4|2,0:0|0:0,0:0:0:0:
256,64,205676,1,0,0:0:0:0:
313,76,205844,2,0,L|412:96,1,99.9999999999998,2|2,0:0|0:0,0:0:0:0:
476,196,206514,6,0,P|491:242|481:291,2,99.9999999999998,4|2|4,0:0|0:0|0:0,0:0:0:0:
372,264,207520,1,2,0:0:0:0:
372,264,207687,2,0,P|336:298|288:308,1,99.9999999999998,4|2,0:0|0:0,0:0:0:0:
223,308,208190,2,0,P|175:298|140:264,1,99.9999999999998,4|4,0:0|0:0,0:0:0:0:
124,144,208860,1,2,0:0:0:0:
208,56,209196,6,0,P|256:44|303:56,1,99.9999999999998,4|2,0:0|0:0,0:0:0:0:
304,176,209866,2,0,P|255:187|208:175,1,99.9999999999998,4|2,0:0|0:0,0:0:0:0:
120,256,210536,1,2,0:0:0:0:
196,348,210871,1,2,0:0:0:0:
316,348,211207,1,2,0:0:0:0:
392,256,211542,1,2,0:0:0:0:
324,156,211877,6,0,P|311:107|318:58,1,99.9999999999998,4|2,0:0|0:0,0:0:0:0:
193,58,212547,2,0,P|200:107|188:156,1,99.9999999999998,4|2,0:0|0:0,0:0:0:0:
84,220,213218,2,0,P|71:268|78:317,1,99.9999999999998,2|2,0:0|0:0,0:0:0:0:
128,352,213721,1,0,0:0:0:0:
188,364,213888,2,0,P|234:349|256:305,1,99.9999999999998,2|2,0:0|0:0,0:0:0:0:
256,184,214559,5,4,0:0:0:0:
168,96,214894,1,2,0:0:0:0:
76,180,215229,1,2,0:0:0:0:
168,272,215564,1,2,0:0:0:0:
256,184,215899,1,4,0:0:0:0:
344,96,216234,1,2,0:0:0:0:
436,180,216569,1,2,0:0:0:0:
344,272,216904,1,2,0:0:0:0:
256,184,217240,6,0,L|144:172,1,99.9999999999998,4|0,0:0|0:0,0:0:0:0:
100,200,217743,1,2,0:0:0:0:
108,320,218078,2,0,P|156:330|203:314,1,99.9999999999998,2|0,0:0|0:0,0:0:0:0:
256,284,218581,1,4,0:0:0:0:
360,344,218916,2,0,L|409:346,2,49.9999999999999,2|0|2,0:0|0:0|0:0,0:0:0:0:
304,172,219754,2,0,P|257:155|211:172,1,99.9999999999998,4|0,0:0|0:0,0:0:0:0:
164,208,220257,2,0,P|139:211|114:210,2,49.9999999999999,2|0|2,0:0|0:0|0:0,0:0:0:0:
256,284,220927,1,2,0:0:0:0:
364,228,221263,6,0,L|385:130,1,99.9999999999998,4|2,0:0|0:0,0:0:0:0:
380,72,221765,2,0,P|340:42|291:46,1,99.9999999999998,4|0,0:0|0:0,0:0:0:0:
256,95,222268,2,0,P|231:98|206:96,1,49.9999999999999,2|0,0:0|0:0,0:0:0:0:
152,68,222603,2,0,L|52:76,1,99.9999999999998,4|2,0:0|0:0,0:0:0:0:
36,196,223274,2,0,L|135:187,1,99.9999999999998,4|2,0:0|0:0,0:0:0:0:
208,284,223944,6,0,P|255:298|302:284,1,99.9999999999998,4|2,0:0|0:0,0:0:0:0:
360,264,224447,2,0,L|376:156,1,99.9999999999998,4|0,0:0|0:0,0:0:0:0:
332,124,224950,2,0,L|329:74,1,49.9999999999999,2|0,0:0|0:0,0:0:0:0:
303,19,225285,2,0,P|255:7|207:19,1,99.9999999999998,4|2,0:0|0:0,0:0:0:0:
124,108,225955,2,0,L|117:207,1,99.9999999999998,4|2,0:0|0:0,0:0:0:0:
171,319,226626,6,0,P|218:335|267:326,1,99.9999999999998,4|2,0:0|0:0,0:0:0:0:
320,300,227128,1,2,0:0:0:0:
412,220,227464,2,0,L|461:225,2,49.9999999999999,2|0|2,0:0|0:0|0:0,0:0:0:0:
180,28,228637,2,0,L|195:126,1,99.9999999999998,4|2,0:0|0:0,0:0:0:0:
316,126,229307,2,0,L|332:28,1,99.9999999999998,4|2,0:0|0:0,0:0:0:0:
432,92,229978,6,0,P|442:140|423:185,1,99.9999999999998,4|2,0:0|0:0,0:0:0:0:
380,228,230480,1,0,0:0:0:0:
328,260,230648,2,0,L|228:253,1,99.9999999999998,2|2,0:0|0:0,0:0:0:0:
132,180,231318,2,0,P|123:131|140:85,1,99.9999999999998,4|2,0:0|0:0,0:0:0:0:
184,44,231821,1,0,0:0:0:0:
244,28,231989,2,0,L|348:36,1,99.9999999999998,2|2,0:0|0:0,0:0:0:0:
424,132,232659,6,0,L|431:231,1,99.9999999999998,4|2,0:0|0:0,0:0:0:0:
400,284,233162,1,0,0:0:0:0:
350,319,233330,2,0,P|301:326|256:308,1,99.9999999999998,2|2,0:0|0:0,0:0:0:0:
183,211,234000,2,0,P|179:162|195:115,1,99.9999999999998,4|2,0:0|0:0,0:0:0:0:
316,115,234670,2,0,P|332:162|328:211,1,99.9999999999998,4|2,0:0|0:0,0:0:0:0:
255,307,235341,6,0,L|155:309,1,99.9999999999998,4|2,0:0|0:0,0:0:0:0:
104,276,235844,1,0,0:0:0:0:
59,235,236011,2,0,P|52:187|65:139,1,99.9999999999998,2|2,0:0|0:0,0:0:0:0:
156,60,236682,2,0,L|255:56,1,99.9999999999998,4|2,0:0|0:0,0:0:0:0:
312,80,237184,1,0,0:0:0:0:
356,120,237352,2,0,P|374:165|362:213,1,99.9999999999998,2|2,0:0|0:0,0:0:0:0:
288,308,238022,6,0,P|242:327|188:315,1,99.9999999999998,4|2,0:0|0:0,0:0:0:0:
108,236,238693,2,0,L|100:136,1,99.9999999999998,4|2,0:0|0:0,0:0:0:0:
122,77,239196,2,0,P|193:61|255:99,1,150,4|2,0:0|0:0,0:0:0:0:
336,192,240034,1,4,0:0:0:0:
256,284,240369,1,4,0:0:0:0:
176,192,240704,6,0,L|26:202,1,150,2|2,0:0|0:0,0:0:0:0:
148,336,241709,1,2,0:0:0:0:
255,284,242045,2,0,P|282:241|285:192,1,99.9999999999998,2|2,0:0|0:0,0:0:0:0:
380,120,242715,2,0,P|383:169|409:211,1,99.9999999999998,2|2,0:0|0:0,0:0:0:0:
412,332,243385,6,0,L|313:346,1,99.9999999999998,2|2,0:0|0:0,0:0:0:0:
256,324,243888,1,0,0:0:0:0:
198,346,244056,2,0,L|100:332,1,99.9999999999998,2|0,0:0|3:0,0:0:0:0:
36,232,244726,1,4,0:0:0:0:
132,160,245061,6,0,L|230:145,1,99.9999999999998,4|4,0:0|0:0,0:0:0:0:
