osu file format v14

[General]
AudioFilename: say_yes.mp3
AudioLeadIn: 0
PreviewTime: 53581
Countdown: 0
SampleSet: Soft
StackLeniency: 0.7
Mode: 0
LetterboxInBreaks: 0
WidescreenStoryboard: 1

[Editor]
Bookmarks: 34,4056,9419,20145,25508,30871,34894,40089,45452,48302,53665,59028,64391,69754,73777,76458,78469,79140,84503,86514,87184,92547,96570,97911,101933,107128,112492,115341,119363,120704,122045,127408,132771,142156,144838,147520,152883,160927,163609,166290,171486,176849,179698,183721,184726,186402,187743,193106,195788,198469,203832,209196,214559,218581,221263,223944,226626,227966,228637,229307,229978,235341,240704,244726,245397,246067
DistanceSpacing: 1.3
BeatDivisor: 4
GridSize: 4
TimelineZoom: 1

[Metadata]
Title:Komanoeru Zenryoku koken-chu!!
TitleUnicode:コマノエール -全力貢献中!!
Artist:Akatsuki Records
ArtistUnicode:暁Records
Creator:Project Railgun
Version:Hard
Source:東方天空璋 ~ Hidden Star in Four Seasons
Tags:project_railgun めらみぽっぷ 古賀れじに 籠 一対の神獣 東方天空璋 ACTRock kaztora 森羅万象 ZUN 上海アリス幻樂団 東方Project Touhou
BeatmapID:1688665
BeatmapSetID:804436

[Difficulty]
HPDrainRate:5.5
CircleSize:4
OverallDifficulty:6.5
ApproachRate:7.5
SliderMultiplier:1.4
SliderTickRate:2

[Events]
//Background and Video events
Video,0,"say_yes.avi"
0,0,"say_yes.png",0,0
//Break Periods
2,187743,192281
//Storyboard Layer 0 (Background)
//Storyboard Layer 1 (Fail)
//Storyboard Layer 2 (Pass)
//Storyboard Layer 3 (Foreground)
//Storyboard Sound Samples

[TimingPoints]
34,335.195530726257,4,2,1,100,1,0
9419,-100,4,2,1,100,0,1
20145,-100,4,2,1,100,0,0
25844,-100,4,2,1,100,0,1
25927,-100,4,2,1,100,0,0
27184,-100,4,2,1,100,0,1
27268,-100,4,2,1,100,0,0
45452,-100,4,2,1,100,0,1
48302,-100,4,2,1,100,0,0
53665,-100,4,2,1,100,0,1
64307,-100,4,2,1,100,0,0
64391,-100,4,2,1,100,0,1
66989,-100,4,2,1,100,0,0
67073,-100,4,2,1,100,0,1
73777,-100,4,2,1,100,0,0
76458,-100,4,2,1,100,0,1
78469,-100,4,2,1,100,0,0
79140,-100,4,2,1,100,0,1
84419,-100,4,2,1,100,0,0
84503,-100,4,2,1,100,0,1
86514,-100,4,2,1,100,0,0
92883,-100,4,2,1,100,0,1
92966,-100,4,2,1,100,0,0
93218,-100,4,2,1,100,0,0
93888,-100,4,2,1,100,0,1
94559,-100,4,2,1,100,0,0
95229,-100,4,2,1,100,0,1
96570,-100,4,2,1,100,0,0
97911,-100,4,2,1,100,0,1
101933,-100,4,2,1,100,0,0
112492,-100,4,2,1,100,0,1
115341,-100,4,2,1,100,0,0
122045,-100,4,2,1,100,0,1
132687,-100,4,2,1,100,0,0
132771,-100,4,2,1,100,0,1
135369,-100,4,2,1,100,0,0
135452,-100,4,2,1,100,0,1
142156,-100,4,2,1,100,0,0
144838,-100,4,2,1,100,0,1
147520,-100,4,2,1,100,0,0
152883,-100,4,2,1,100,0,1
160844,-100,4,2,1,100,0,0
160927,-100,4,2,1,100,0,1
163525,-100,4,2,1,100,0,0
163609,-100,4,2,1,100,0,1
166290,-100,4,2,1,100,0,0
176849,-100,4,2,1,100,0,1
179698,-100,4,2,1,100,0,0
183721,-100,4,2,1,100,0,1
183804,-100,4,2,1,100,0,0
195788,-100,4,2,1,100,0,1
195871,-100,4,2,1,100,0,0
197128,-100,4,2,1,100,0,1
197212,-100,4,2,1,100,0,0
198469,-100,4,2,1,100,0,1
209112,-100,4,2,1,100,0,0
209196,-100,4,2,1,100,0,1
211793,-100,4,2,1,100,0,0
211877,-100,4,2,1,100,0,1
218581,-100,4,2,1,100,0,0
221263,-100,4,2,1,100,0,1
223944,-100,4,2,1,100,0,1
226626,-100,4,2,1,100,0,1
227966,-100,4,2,1,100,0,0
228637,-100,4,2,1,100,0,1
229894,-100,4,2,1,100,0,0
229978,-100,4,2,1,100,0,1
240704,-100,4,2,1,100,0,0

[Colours]
Combo1 : 125,121,166
Combo2 : 160,204,102
Combo3 : 239,63,217
Combo4 : 72,242,213

[HitObjects]
432,256,2045,6,0,L|437:186,1,70,0|0,3:0|0:0,0:0:0:0:
448,104,2380,1,2,0:0:0:0:
308,12,2715,1,2,0:0:0:0:
204,144,3050,1,2,0:0:0:0:
332,252,3385,1,2,0:0:0:0:
396,308,3553,2,0,L|465:305,1,70,0|8,3:0|0:0,0:0:0:0:
304,356,4056,6,0,P|236:346|200:288,1,140,4|2,0:0|0:0,0:0:0:0:
176,200,4559,2,0,P|188:168|188:133,1,70,2|0,0:0|0:0,0:0:0:0:
324,132,4894,2,0,P|323:167|336:200,1,70,2|0,0:0|0:0,0:0:0:0:
404,260,5229,1,2,0:0:0:0:
304,356,5397,2,0,L|199:368,1,105,0|0,3:0|0:0,0:0:0:0:
160,344,5732,2,0,L|55:356,1,105,0|0,3:0|0:0,0:0:0:0:
27,319,6067,2,0,P|19:286|27:252,1,70,2|0,0:0|3:0,0:0:0:0:
256,192,6570,6,0,P|314:200|384:132,1,140,4|2,0:0|0:0,0:0:0:0:
432,80,7073,1,2,0:0:0:0:
360,24,7240,2,0,L|256:36,1,105,2|0,0:0|0:0,0:0:0:0:
220,64,7575,2,0,L|115:53,1,105,2|0,0:0|0:0,0:0:0:0:
80,84,7911,1,2,0:0:0:0:
24,156,8078,2,0,P|11:206|28:255,2,105,4|2|2,0:0|0:0|0:0,0:0:0:0:
136,200,8749,2,0,L|240:190,1,105,4|0,0:0|0:0,0:0:0:0:
284,172,9084,2,0,L|318:176,2,35,2|0|2,0:0|0:0|0:0,0:0:0:0:
456,248,9419,6,0,P|450:315|392:347,1,140,4|2,0:0|0:0,0:0:0:0:
304,320,9922,1,0,0:0:0:0:
304,320,10006,1,0,0:0:0:0:
304,320,10089,2,0,L|228:324,1,70,2|0,0:0|0:0,0:0:0:0:
160,268,10425,2,0,L|153:198,1,70,2|0,0:0|0:0,0:0:0:0:
84,140,10760,6,0,P|50:131|16:140,2,70,4|0|2,0:0|0:0|0:0,0:0:0:0:
144,72,11263,1,0,0:0:0:0:
144,72,11346,1,0,0:0:0:0:
144,72,11430,2,0,P|177:80|211:71,1,70,2|0,0:0|0:0,0:0:0:0:
288,24,11765,2,0,P|321:14|355:23,1,70,2|0,0:0|0:0,0:0:0:0:
444,96,12101,6,0,L|436:235,1,140,4|2,0:0|0:0,0:0:0:0:
364,328,12603,1,0,0:0:0:0:
364,328,12687,1,0,0:0:0:0:
364,328,12771,2,0,P|334:346|299:345,1,70,2|0,0:0|0:0,0:0:0:0:
212,344,13106,2,0,P|177:345|148:327,1,70,2|0,0:0|0:0,0:0:0:0:
76,232,13441,6,0,L|91:128,1,105,4|0,0:0|0:0,0:0:0:0:
108,68,13777,6,0,P|168:48|216:64,1,105,2|0,0:0|0:0,0:0:0:0:
256,96,14112,6,0,P|307:106|355:87,1,105,4|0,0:0|0:0,0:0:0:0:
412,52,14448,6,0,L|438:153,1,105,2|0,0:0|0:0,0:0:0:0:
440,268,14782,6,0,P|408:327|341:334,1,140,4|2,0:0|0:0,0:0:0:0:
256,296,15285,1,0,0:0:0:0:
256,296,15369,1,0,0:0:0:0:
256,296,15452,2,0,L|248:208,1,70,2|0,0:0|0:0,0:0:0:0:
160,208,15788,2,0,L|167:138,1,70,2|0,0:0|0:0,0:0:0:0:
88,96,16123,6,0,P|55:86|22:97,2,70,4|0|2,0:0|0:0|0:0,0:0:0:0:
142,22,16626,1,0,0:0:0:0:
142,22,16709,1,0,0:0:0:0:
142,22,16793,2,0,L|210:35,1,70,2|0,0:0|0:0,0:0:0:0:
302,35,17128,2,0,L|370:22,1,70,2|0,0:0|0:0,0:0:0:0:
424,136,17464,6,0,L|416:244,1,105,4|0,0:0|0:0,0:0:0:0:
372,288,17799,2,0,P|339:328|289:336,1,105,2|0,0:0|0:0,0:0:0:0:
222,336,18134,2,0,P|171:327|139:287,1,105,4|0,0:0|0:0,0:0:0:0:
112,227,18469,1,2,0:0:0:0:
184,96,18637,6,0,L|323:88,1,140,4|2,0:0|0:0,0:0:0:0:
436,140,19140,2,0,P|447:126|454:110,2,35,2|0|0,0:0|0:0|0:0,0:0:0:0:
360,236,19475,2,0,L|366:305,1,70,4|0,0:0|0:0,0:0:0:0:
252,376,19810,2,0,L|258:306,1,70,4|0,0:0|0:0,0:0:0:0:
184,192,20145,6,0,P|117:175|58:210,1,140,4|2,0:0|0:0,0:0:0:0:
28,296,20648,1,0,0:0:0:0:
92,360,20816,2,0,L|180:348,1,70,2|0,0:0|0:0,0:0:0:0:
240,308,21151,2,0,L|309:317,1,70,2|0,0:0|0:0,0:0:0:0:
376,215,21486,6,0,P|379:147|342:89,1,140,4|2,0:0|0:0,0:0:0:0:
256,60,21989,1,0,0:0:0:0:
169,89,22156,2,0,P|132:147|135:215,1,140,2|2,0:0|0:0,0:0:0:0:
180,296,22659,1,0,0:0:0:0:
256,348,22827,6,0,L|394:329,1,140,4|2,0:0|0:0,0:0:0:0:
508,176,23497,2,0,P|515:209|512:244,2,70,2|0|2,0:0|0:0|0:0,0:0:0:0:
444,112,24000,1,0,0:0:0:0:
364,72,24168,2,0,L|224:86,1,140,4|2,0:0|0:0,0:0:0:0:
144,288,24838,6,0,P|171:332|228:352,1,105,2|0,0:0|0:0,0:0:0:0:
293,351,25173,2,0,P|340:331|368:288,1,105,2|0,0:0|0:0,0:0:0:0:
348,216,25508,1,4,0:0:0:0:
348,216,25844,6,0,L|243:208,1,105,4|0,0:0|0:0,0:0:0:0:
199,143,26179,2,0,P|195:92|219:46,1,105,2|0,0:0|0:0,0:0:0:0:
88,92,26514,2,0,P|111:138|107:189,1,105,2|0,0:0|0:0,0:0:0:0:
52,248,26849,1,4,0:0:0:0:
52,248,27184,6,0,L|156:260,1,105,4|0,0:0|0:0,0:0:0:0:
208,320,27520,2,0,P|256:336|305:318,1,105,2|0,0:0|0:0,0:0:0:0:
356,260,27855,2,0,L|365:155,1,105,2|0,0:0|0:0,0:0:0:0:
320,88,28190,6,0,P|323:53|343:24,1,70,4|0,0:0|0:0,0:0:0:0:
168,24,28525,2,0,P|188:53|191:88,1,70,2|0,0:0|0:0,0:0:0:0:
136,160,28860,1,2,0:0:0:0:
184,240,29028,1,0,0:0:0:0:
268,204,29196,2,0,L|348:208,1,70,2|0,0:0|0:0,0:0:0:0:
448,296,29531,6,0,P|406:349|338:358,1,140,4|4,0:0|0:0,0:0:0:0:
256,320,30034,1,0,0:0:0:0:
184,240,30201,2,0,L|176:170,1,70,2|0,0:0|0:0,0:0:0:0:
92,136,30536,2,0,L|84:206,1,70,2|0,0:0|0:0,0:0:0:0:
120,300,30871,6,0,P|137:329|169:342,1,70,2|0,0:0|0:0,0:0:0:0:
256,320,31207,1,0,3:0:0:0:
328,264,31374,2,0,L|321:124,1,140,2|0,0:0|0:0,0:0:0:0:
256,64,31877,1,2,0:0:0:0:
191,124,32045,6,0,P|140:135|93:113,1,105,4|0,0:0|0:0,0:0:0:0:
48,100,32380,2,0,L|54:169,1,70,2|2,0:0|0:0,0:0:0:0:
124,228,32715,2,0,L|117:297,1,70,2|4,0:0|0:0,0:0:0:0:
288,364,33218,1,2,0:0:0:0:
344,292,33385,6,0,L|336:140,1,140,4|0,0:0|0:0,0:0:0:0:
276,80,33888,2,0,P|225:92|177:73,1,105,2|0,0:0|0:0,0:0:0:0:
144,44,34223,2,0,P|95:24|45:37,2,105,2|2|2,0:0|0:0|0:0,0:0:0:0:
71,139,34894,6,0,P|48:308|208:336,1,350,0|0,3:0|0:0,0:0:0:0:
256,280,35899,2,0,L|248:208,1,70,2|0,0:0|0:0,0:0:0:0:
318,344,36235,2,0,P|471:296|440:139,1,350,0|0,3:0|0:0,0:0:0:0:
348,140,37240,2,0,P|323:164|315:198,1,70,2|0,0:0|0:0,0:0:0:0:
416,40,37575,6,0,B|256:-20|256:160|88:59,1,350,0|0,3:0|0:0,0:0:0:0:
43,139,38581,2,0,P|75:155|93:184,1,70,2|0,0:0|0:0,0:0:0:0:
160,300,38916,2,0,P|256:364|352:299,1,245,2|0,3:0|0:0,0:0:0:0:
392,252,39587,2,0,L|484:264,2,70,2|0|2,0:0|0:0|0:0,0:0:0:0:
304,200,40089,6,0,P|332:132|320:64,1,140,4|2,0:0|0:0,0:0:0:0:
252,8,40592,2,0,L|182:14,1,70,2|0,0:0|0:0,0:0:0:0:
96,40,40927,1,2,0:0:0:0:
16,204,41263,1,2,0:0:0:0:
152,324,41598,6,0,L|221:317,1,70,4|0,0:0|0:0,0:0:0:0:
308,344,41933,2,0,P|375:352|416:312,1,105,2|0,0:0|0:0,0:0:0:0:
428,296,42268,2,0,L|420:164,1,105,2|0,0:0|0:0,0:0:0:0:
416,144,42603,1,4,0:0:0:0:
256,52,42939,6,0,L|252:124,1,70,4|0,0:0|0:0,0:0:0:0:
192,188,43274,1,2,0:0:0:0:
144,264,43441,2,0,P|140:315|163:362,1,105,4|0,0:0|0:0,0:0:0:0:
208,368,43777,2,0,L|332:356,1,105,2|0,0:0|0:0,0:0:0:0:
356,348,44112,2,0,P|420:328|475:368,1,140,4|0,0:0|0:0,0:0:0:0:
508,276,44615,1,2,0:0:0:0:
364,168,44950,6,0,P|341:141|331:108,1,70,2|0,0:0|0:0,0:0:0:0:
256,56,45285,1,2,0:0:0:0:
180,108,45452,2,0,P|170:141|148:168,1,70,4|0,0:0|0:0,0:0:0:0:
96,244,45788,1,0,0:0:0:0:
140,324,45955,2,0,L|216:336,1,70,2|0,0:0|0:0,0:0:0:0:
302,334,46290,2,0,L|372:324,1,70,2|0,0:0|0:0,0:0:0:0:
444,268,46625,2,0,P|459:236|458:202,1,70,2|0,0:0|0:0,0:0:0:0:
428,116,46960,6,0,P|424:98|424:81,2,35,4|0|0,0:0|0:0|0:0,0:0:0:0:
352,168,47296,2,0,L|349:202,2,35,2|0|0,0:0|0:0|0:0,0:0:0:0:
284,108,47631,2,0,L|281:73,2,35,2|0|0,0:0|0:0|0:0,0:0:0:0:
196,140,47967,2,0,P|196:157|192:174,2,35,2|0|0,0:0|0:0|0:0,0:0:0:0:
255,251,48302,6,0,P|169:257|105:202,1,175,0|0,3:0|0:0,0:0:0:0:
88,160,48804,2,0,L|104:20,1,140,2|2,0:0|0:0,0:0:0:0:
288,16,49475,1,2,0:0:0:0:
380,24,49642,2,0,P|428:72|427:140,1,140,2|2,0:0|0:0,0:0:0:0:
368,308,50313,1,2,0:0:0:0:
292,356,50480,2,0,L|222:356,1,70,2|0,0:0|0:0,0:0:0:0:
144,308,50816,1,2,0:0:0:0:
116,220,50983,2,0,P|255:89|395:219,1,420,2|0,0:0|0:0,0:0:0:0:
256,340,52324,6,0,L|256:270,2,70,4|0|2,0:0|0:0|0:0,0:0:0:0:
164,352,52827,2,0,L|24:360,1,140,4|2,0:0|0:0,0:0:0:0:
3,267,53330,2,0,P|1:216|23:168,1,105,4|0,0:0|0:0,0:0:0:0:
68,152,53665,6,0,P|135:152|178:99,1,140,4|2,0:0|0:0,0:0:0:0:
256,48,54168,1,0,0:0:0:0:
334,99,54335,2,0,L|344:180,1,70,2|0,0:0|0:0,0:0:0:0:
448,204,54670,2,0,L|456:134,1,70,2|0,0:0|0:0,0:0:0:0:
480,24,55006,6,0,L|340:13,1,140,4|2,0:0|0:0,0:0:0:0:
256,48,55508,1,0,0:0:0:0:
178,98,55676,2,0,P|181:133|197:164,1,70,2|0,0:0|0:0,0:0:0:0:
314,164,56011,2,0,P|330:133|333:98,1,70,2|0,0:0|0:0,0:0:0:0:
216,32,56346,6,0,P|150:19|105:69,2,140,4|2|4,0:0|0:0|0:0,0:0:0:0:
256,116,57184,1,0,0:0:0:0:
212,196,57352,2,0,P|177:202|143:196,1,70,2|4,0:0|0:0,0:0:0:0:
300,196,57687,2,0,P|334:202|368:196,1,70,0|2,0:0|0:0,0:0:0:0:
480,120,58022,6,0,L|490:224,1,105,4|0,0:0|0:0,0:0:0:0:
484,272,58358,2,0,P|472:304|448:329,1,70,4|0,0:0|0:0,0:0:0:0:
364,300,58693,2,0,P|316:282|270:304,1,105,2|0,0:0|0:0,0:0:0:0:
256,348,59028,6,0,L|240:208,1,140,4|2,0:0|0:0,0:0:0:0:
192,132,59531,1,0,0:0:0:0:
224,48,59698,2,0,P|257:39|291:48,1,70,2|0,0:0|0:0,0:0:0:0:
344,124,60034,2,0,P|377:133|411:124,1,70,2|0,0:0|0:0,0:0:0:0:
500,32,60369,6,0,L|486:171,1,140,4|2,0:0|0:0,0:0:0:0:
432,244,60871,1,0,0:0:0:0:
364,308,61039,2,0,P|338:330|304:337,1,70,2|0,0:0|0:0,0:0:0:0:
207,337,61374,2,0,P|173:330|148:308,1,70,2|0,0:0|0:0,0:0:0:0:
104,228,61709,6,0,P|92:168|114:88,2,140,4|2|4,0:0|0:0|0:0,0:0:0:0:
68,312,62547,2,0,P|52:343|23:361,1,70,0|2,0:0|0:0,0:0:0:0:
207,337,62883,2,0,L|276:330,1,70,4|0,0:0|0:0,0:0:0:0:
360,220,63218,2,0,L|290:213,1,70,2|4,0:0|0:0,0:0:0:0:
208,160,63553,5,0,0:0:0:0:
140,84,63721,2,0,P|176:47|231:36,1,105,4|0,0:0|0:0,0:0:0:0:
284,35,64056,2,0,P|335:47|372:84,1,105,2|0,0:0|0:0,0:0:0:0:
384,128,64391,6,0,L|390:232,1,105,4|0,0:0|0:0,0:0:0:0:
380,276,64726,6,0,P|334:299|284:288,1,105,2|0,0:0|0:0,0:0:0:0:
244,264,65061,6,0,P|193:253|148:276,1,105,4|0,0:0|0:0,0:0:0:0:
104,292,65397,6,0,P|72:250|71:199,1,105,2|0,0:0|0:0,0:0:0:0:
84,156,65732,6,0,L|100:72,1,70,4|0,0:0|0:0,0:0:0:0:
192,20,66067,2,0,L|200:108,1,70,2|0,0:0|0:0,0:0:0:0:
313,89,66402,2,0,L|320:20,1,70,2|0,0:0|0:0,0:0:0:0:
414,87,66737,2,0,L|428:156,1,70,2|0,0:0|0:0,0:0:0:0:
372,272,67073,6,0,P|337:310|286:321,1,105,4|0,0:0|0:0,0:0:0:0:
225,321,67408,6,0,P|174:310|140:272,1,105,2|0,0:0|0:0,0:0:0:0:
152,212,67743,6,0,L|222:134,1,105,4|0,0:0|0:0,0:0:0:0:
289,134,68078,6,0,L|360:212,1,105,2|0,0:0|0:0,0:0:0:0:
404,252,68413,6,0,P|438:252|468:235,1,70,2|0,0:0|0:0,0:0:0:0:
508,152,68749,2,0,L|496:72,1,70,2|0,0:0|0:0,0:0:0:0:
424,28,69084,2,0,P|359:5|302:41,1,140,2|2,0:0|0:0,0:0:0:0:
176,180,69754,6,0,L|92:188,1,70,4|0,0:0|0:0,0:0:0:0:
168,356,70089,2,0,L|199:293,1,70,2|0,0:0|0:0,0:0:0:0:
312,293,70425,2,0,L|344:356,1,70,2|0,0:0|0:0,0:0:0:0:
405,186,70760,2,0,L|336:180,1,70,2|0,0:0|0:0,0:0:0:0:
216,100,71095,6,0,P|186:84|151:81,1,70,4|0,0:0|0:0,0:0:0:0:
295,100,71430,2,0,P|326:83|361:81,1,70,2|0,0:0|0:0,0:0:0:0:
472,96,71765,2,0,P|483:129|479:164,1,70,2|0,0:0|0:0,0:0:0:0:
396,225,72101,2,0,P|392:259|403:292,1,70,2|0,0:0|0:0,0:0:0:0:
472,356,72436,6,0,P|414:319|349:338,1,140,4|2,0:0|0:0,0:0:0:0:
259,364,72939,2,0,P|208:372|161:352,1,105,2|0,0:0|0:0,0:0:0:0:
128,320,73274,2,0,L|115:180,1,140,2|0,0:0|0:0,0:0:0:0:
164,104,73777,5,4,0:0:0:0:
320,20,74112,2,0,L|389:23,1,70,2|0,0:0|0:0,0:0:0:0:
464,80,74447,1,2,0:0:0:0:
364,332,74950,6,0,P|331:343|298:336,1,70,4|0,0:0|0:0,0:0:0:0:
220,292,75285,2,0,P|186:284|154:296,1,70,2|0,0:0|0:0,0:0:0:0:
92,228,75620,2,0,L|99:158,1,70,0|2,0:0|0:0,0:0:0:0:
256,64,76123,1,2,0:0:0:0:
414,158,76458,6,0,P|417:226|380:285,1,140,4|2,0:0|0:0,0:0:0:0:
300,328,76961,2,0,L|160:321,1,140,4|2,0:0|0:0,0:0:0:0:
88,264,77464,2,0,P|87:229|95:194,1,70,2|0,0:0|0:0,0:0:0:0:
67,107,77799,6,0,P|110:160|178:160,1,140,4|2,0:0|0:0,0:0:0:0:
256,108,78302,1,0,0:0:0:0:
323,48,78469,2,0,P|375:41|419:68,1,105,4|0,0:0|0:0,0:0:0:0:
448,104,78804,2,0,L|451:208,1,105,2|0,0:0|0:0,0:0:0:0:
428,252,79140,6,0,P|379:299|311:296,1,140,4|2,0:0|0:0,0:0:0:0:
256,224,79642,2,0,P|188:220|139:268,1,140,4|2,0:0|0:0,0:0:0:0:
96,348,80145,1,2,0:0:0:0:
16,304,80313,1,0,0:0:0:0:
60,224,80480,6,0,L|79:85,1,140,4|2,0:0|0:0,0:0:0:0:
136,12,80983,1,0,0:0:0:0:
192,84,81151,1,2,0:0:0:0:
276,44,81318,2,0,L|415:50,1,140,4|2,0:0|0:0,0:0:0:0:
491,103,81821,6,0,P|496:171|465:233,1,140,4|2,0:0|0:0,0:0:0:0:
404,300,82324,1,0,0:0:0:0:
328,352,82492,2,0,L|188:352,1,140,4|2,0:0|0:0,0:0:0:0:
108,300,82994,1,0,0:0:0:0:
47,234,83162,6,0,L|55:164,1,70,4|0,0:0|0:0,0:0:0:0:
68,76,83497,1,2,0:0:0:0:
140,16,83665,1,0,0:0:0:0:
195,87,83832,2,0,P|256:115|318:88,1,140,4|2,0:0|0:0,0:0:0:0:
372,16,84335,1,0,0:0:0:0:
444,76,84503,6,0,L|449:145,1,70,4|0,0:0|0:0,0:0:0:0:
376,232,84838,2,0,P|344:252|308:252,1,70,2|0,0:0|0:0,0:0:0:0:
199,253,85173,2,0,P|164:251|136:232,1,70,4|0,0:0|0:0,0:0:0:0:
62,145,85508,2,0,L|68:76,1,70,2|0,0:0|0:0,0:0:0:0:
140,16,85844,5,4,0:0:0:0:
244,32,86011,1,0,0:0:0:0:
348,48,86179,1,2,0:0:0:0:
176,140,86514,2,0,L|36:153,1,140,4|0,0:0|0:0,0:0:0:0:
83,327,87184,6,0,P|151:334|203:290,1,140,2|2,0:0|0:0,0:0:0:0:
256,216,87687,1,0,0:0:0:0:
308,290,87855,2,0,P|343:328|394:336,1,105,2|0,0:0|0:0,0:0:0:0:
432,312,88190,2,0,L|441:242,1,70,2|0,0:0|0:0,0:0:0:0:
448,152,88525,2,0,P|427:87|367:53,1,140,2|2,0:0|0:0,0:0:0:0:
144,53,89196,2,0,P|85:86|64:152,1,140,2|2,0:0|0:0,0:0:0:0:
188,304,89866,6,0,P|254:323|321:307,1,140,2|2,0:0|0:0,0:0:0:0:
420,151,90536,2,0,P|401:85|344:46,1,140,2|2,0:0|0:0,0:0:0:0:
256,20,91039,1,0,0:0:0:0:
166,46,91207,2,0,P|110:84|91:150,1,140,2|2,0:0|0:0,0:0:0:0:
116,332,91877,6,0,L|220:312,1,105,2|0,0:0|0:0,0:0:0:0:
292,312,92212,2,0,L|396:332,1,105,2|0,0:0|0:0,0:0:0:0:
448,280,92547,1,4,0:0:0:0:
447,279,92883,6,0,P|408:245|396:194,1,105,4|0,0:0|0:0,0:0:0:0:
347,142,93218,2,0,P|337:91|294:65,1,105,2|0,0:0|0:0,0:0:0:0:
217,65,93553,2,0,P|174:91|164:142,1,105,2|0,0:0|0:0,0:0:0:0:
200,208,93888,5,4,0:0:0:0:
316,284,94140,1,2,0:0:0:0:
220,380,94391,1,2,0:0:0:0:
148,324,94559,2,0,L|44:340,1,105,4|0,0:0|0:0,0:0:0:0:
0,283,94894,2,0,P|-7:232|7:182,1,105,2|0,0:0|0:0,0:0:0:0:
63,140,95229,6,0,P|79:108|79:74,1,70,4|0,0:0|0:0,0:0:0:0:
148,16,95564,1,2,0:0:0:0:
216,76,95732,2,0,L|285:72,1,70,4|0,0:0|0:0,0:0:0:0:
376,64,96067,1,0,0:0:0:0:
411,147,96235,2,0,P|419:181|410:215,1,70,2|0,0:0|0:0,0:0:0:0:
324,256,96570,6,0,L|256:268,1,70,4|0,0:0|0:0,0:0:0:0:
224,236,96821,2,0,L|156:248,1,70,2|0,0:0|0:0,0:0:0:0:
111,227,97073,2,0,P|90:160|106:93,1,140,2|2,0:0|0:0,0:0:0:0:
168,24,97575,2,0,L|237:27,1,70,2|0,0:0|0:0,0:0:0:0:
340,108,97911,6,0,P|406:122|460:82,1,140,4|2,0:0|0:0,0:0:0:0:
504,160,98413,2,0,L|500:229,1,70,2|0,0:0|0:0,0:0:0:0:
416,320,98749,2,0,L|412:250,1,70,2|0,0:0|0:0,0:0:0:0:
340,196,99084,2,0,L|200:204,1,140,4|2,0:0|0:0,0:0:0:0:
155,284,99587,2,0,P|151:318|167:347,1,70,2|0,0:0|0:0,0:0:0:0:
256,372,99922,1,2,0:0:0:0:
488,228,100425,6,0,L|481:88,1,140,4|2,0:0|0:0,0:0:0:0:
408,36,100927,2,0,P|377:53|343:51,1,70,2|0,0:0|0:0,0:0:0:0:
256,20,101263,2,0,P|190:6|144:56,1,140,2|0,0:0|0:0,0:0:0:0:
88,228,101933,6,0,B|258:184|254:324|422:279,1,350,4|0,0:0|0:0,0:0:0:0:
496,224,102939,2,0,P|511:193|512:158,1,70,2|0,0:0|0:0,0:0:0:0:
404,88,103274,2,0,P|295:170|317:36,1,350,4|0,0:0|0:0,0:0:0:0:
408,0,104279,2,0,P|442:0|476:7,1,70,2|0,0:0|0:0,0:0:0:0:
503,139,104615,6,0,P|416:282|248:284,1,350,4|0,0:0|0:0,0:0:0:0:
168,240,105620,2,0,P|147:268|144:302,1,70,2|0,0:0|0:0,0:0:0:0:
120,140,105955,2,0,B|233:96|233:204|354:144,1,245,4|0,0:0|0:0,0:0:0:0:
412,108,106626,2,0,P|418:73|408:40,2,70,2|0|2,0:0|0:0|0:0,0:0:0:0:
328,239,107128,6,0,P|260:252|196:224,1,140,4|2,0:0|0:0,0:0:0:0:
164,140,107631,2,0,L|169:70,1,70,2|0,0:0|0:0,0:0:0:0:
256,36,107966,1,2,0:0:0:0:
432,96,108302,1,2,0:0:0:0:
368,264,108637,6,0,P|337:280|303:277,1,70,4|0,0:0|0:0,0:0:0:0:
224,232,108972,2,0,P|173:221|127:244,1,105,2|0,0:0|0:0,0:0:0:0:
88,268,109307,2,0,L|94:163,1,105,2|0,0:0|0:0,0:0:0:0:
100,112,109642,1,4,0:0:0:0:
256,20,109978,6,0,L|325:23,1,70,4|0,0:0|0:0,0:0:0:0:
392,88,110313,1,2,0:0:0:0:
452,156,110480,2,0,P|456:207|433:253,1,105,4|0,0:0|0:0,0:0:0:0:
400,284,110816,2,0,L|295:280,1,105,2|0,0:0|0:0,0:0:0:0:
255,255,111151,2,0,P|189:247|145:298,1,140,4|0,0:0|0:0,0:0:0:0:
68,236,111654,1,2,0:0:0:0:
112,56,111989,6,0,L|192:40,1,70,2|0,0:0|0:0,0:0:0:0:
256,92,112324,1,2,0:0:0:0:
331,42,112492,2,0,L|400:56,1,70,4|0,0:0|0:0,0:0:0:0:
464,136,112827,1,0,0:0:0:0:
419,228,112994,2,0,P|390:246|356:246,1,70,2|0,0:0|0:0,0:0:0:0:
288,160,113330,2,0,P|256:147|223:159,1,70,2|0,0:0|0:0,0:0:0:0:
155,247,113665,2,0,P|120:247|92:228,1,70,2|0,0:0|0:0,0:0:0:0:
56,132,114000,6,0,L|64:62,1,70,4|0,0:0|0:0,0:0:0:0:
160,20,114335,2,0,L|168:89,1,70,2|0,0:0|0:0,0:0:0:0:
236,172,114670,2,0,L|271:172,2,35,2|0|0,0:0|0:0|0:0,0:0:0:0:
272,272,115006,2,0,L|237:272,2,35,2|0|0,0:0|0:0|0:0,0:0:0:0:
407,211,115341,6,0,P|417:125|368:55,1,175,2|0,0:0|0:0,0:0:0:0:
328,32,115844,2,0,L|184:44,1,140,2|2,0:0|0:0,0:0:0:0:
52,164,116515,1,2,0:0:0:0:
7,243,116682,2,0,P|40:304|105:326,1,140,2|2,0:0|0:0,0:0:0:0:
256,224,117353,1,2,0:0:0:0:
328,276,117520,2,0,L|397:269,1,70,2|0,0:0|0:0,0:0:0:0:
464,204,117856,1,2,0:0:0:0:
415,127,118023,2,0,P|254:14|94:129,1,420,2|0,0:0|0:0,0:0:0:0:
256,216,119363,6,0,L|256:286,2,70,4|0|2,0:0|0:0|0:0,0:0:0:0:
304,140,119866,2,0,L|442:160,1,140,4|2,0:0|0:0,0:0:0:0:
504,228,120369,2,0,P|506:279|477:321,1,105,4|0,0:0|0:0,0:0:0:0:
436,344,120704,6,0,P|369:353|319:308,1,140,4|2,0:0|0:0,0:0:0:0:
256,240,121207,2,0,P|188:230|136:274,1,140,4|2,0:0|0:0,0:0:0:0:
72,208,121709,2,0,L|60:96,1,105,4|0,0:0|0:0,0:0:0:0:
76,60,122045,6,0,P|130:18|197:28,1,140,4|2,0:0|0:0,0:0:0:0:
256,96,122547,1,0,0:0:0:0:
315,28,122715,2,0,L|384:37,1,70,2|0,0:0|0:0,0:0:0:0:
456,128,123050,2,0,L|386:137,1,70,2|0,0:0|0:0,0:0:0:0:
316,215,123385,6,0,P|254:243|191:216,1,140,4|2,0:0|0:0,0:0:0:0:
132,148,123888,1,0,0:0:0:0:
172,71,124056,2,0,P|197:49|207:16,1,70,2|0,0:0|0:0,0:0:0:0:
304,16,124391,2,0,P|314:49|339:71,1,70,2|0,0:0|0:0,0:0:0:0:
400,140,124726,6,0,P|465:153|512:96,2,140,4|2|4,0:0|0:0|0:0,0:0:0:0:
348,216,125564,1,0,0:0:0:0:
300,296,125732,2,0,P|315:327|318:361,1,70,2|4,0:0|0:0,0:0:0:0:
193,361,126067,2,0,P|196:327|212:296,1,70,0|2,0:0|0:0,0:0:0:0:
256,216,126402,6,0,L|248:111,1,105,4|0,0:0|0:0,0:0:0:0:
268,68,126738,2,0,P|300:55|332:67,1,70,4|0,0:0|0:0,0:0:0:0:
392,140,127073,2,0,P|438:162|485:144,1,105,2|0,0:0|0:0,0:0:0:0:
500,100,127408,6,0,L|488:239,1,140,4|2,0:0|0:0,0:0:0:0:
444,320,127911,1,0,0:0:0:0:
364,276,128078,2,0,P|335:256|300:254,1,70,2|0,0:0|0:0,0:0:0:0:
211,254,128413,2,0,P|176:256|148:276,1,70,2|0,0:0|0:0,0:0:0:0:
68,320,128749,6,0,L|60:180,1,140,4|2,0:0|0:0,0:0:0:0:
116,108,129251,1,0,0:0:0:0:
184,48,129419,2,0,P|204:72|207:112,1,70,2|0,0:0|0:0,0:0:0:0:
303,109,129754,2,0,P|306:75|328:48,1,70,2|0,0:0|0:0,0:0:0:0:
415,71,130089,6,0,P|455:127|437:193,2,140,4|2|4,0:0|0:0|0:0,0:0:0:0:
332,32,130927,2,0,L|262:39,1,70,0|2,0:0|0:0,0:0:0:0:
200,180,131263,2,0,P|189:213|200:248,1,70,4|0,0:0|0:0,0:0:0:0:
313,246,131598,2,0,P|322:212|312:180,1,70,0|4,0:0|0:0,0:0:0:0:
256,108,131933,5,0,0:0:0:0:
176,60,132101,2,0,L|72:77,1,105,4|0,0:0|0:0,0:0:0:0:
44,111,132436,2,0,P|31:162|44:212,1,105,2|0,0:0|0:0,0:0:0:0:
80,240,132771,6,0,P|131:232|175:258,1,105,4|0,0:0|0:0,0:0:0:0:
216,279,133106,6,0,P|238:233|239:181,1,105,2|0,0:0|0:0,0:0:0:0:
256,140,133441,6,0,P|305:128|349:156,1,105,4|0,0:0|0:0,0:0:0:0:
384,188,133777,6,0,P|433:196|469:160,1,105,2|0,0:0|0:0,0:0:0:0:
488,120,134112,6,0,P|489:85|473:54,1,70,4|0,0:0|0:0,0:0:0:0:
378,12,134447,2,0,L|308:22,1,70,2|0,0:0|0:0,0:0:0:0:
204,22,134782,2,0,L|134:12,1,70,2|0,0:0|0:0,0:0:0:0:
38,54,135117,2,0,P|22:85|24:120,1,70,2|0,0:0|0:0,0:0:0:0:
140,196,135453,6,0,L|232:128,1,105,4|0,0:0|0:0,0:0:0:0:
287,133,135788,6,0,L|372:196,1,105,2|0,0:0|0:0,0:0:0:0:
364,260,136123,6,0,P|337:304|288:320,1,105,4|0,0:0|0:0,0:0:0:0:
223,320,136458,6,0,P|174:304|148:260,1,105,2|0,0:0|0:0,0:0:0:0:
108,212,136793,6,0,P|74:207|46:227,1,70,2|0,0:0|0:0,0:0:0:0:
12,144,137129,2,0,L|22:74,1,70,2|0,0:0|0:0,0:0:0:0:
100,23,137464,2,0,P|166:9|222:48,1,140,2|2,0:0|0:0,0:0:0:0:
328,196,138134,6,0,P|362:193|392:175,1,70,4|0,0:0|0:0,0:0:0:0:
384,336,138469,2,0,L|316:292,1,70,2|0,0:0|0:0,0:0:0:0:
186,297,138804,2,0,L|128:336,1,70,2|0,0:0|0:0,0:0:0:0:
119,175,139139,2,0,P|149:193|183:196,1,70,2|0,0:0|0:0,0:0:0:0:
332,109,139475,6,0,P|348:78|352:43,1,70,4|0,0:0|0:0,0:0:0:0:
160,44,139810,2,0,P|164:78|180:109,1,70,2|0,0:0|0:0,0:0:0:0:
304,204,140145,2,0,L|388:220,1,70,2|0,0:0|0:0,0:0:0:0:
208,204,140480,2,0,L|124:220,1,70,2|0,0:0|0:0,0:0:0:0:
60,168,140816,6,0,P|47:100|82:41,1,140,4|2,0:0|0:0,0:0:0:0:
172,56,141319,2,0,P|221:71|272:44,1,105,2|0,0:0|0:0,0:0:0:0:
304,24,141654,2,0,P|369:6|425:45,1,140,2|0,0:0|0:0,0:0:0:0:
480,116,142157,5,4,0:0:0:0:
408,284,142492,2,0,L|332:280,1,70,2|0,0:0|0:0,0:0:0:0:
256,340,142827,1,2,0:0:0:0:
60,156,143330,6,0,P|56:121|64:87,1,70,4|0,0:0|0:0,0:0:0:0:
140,36,143665,2,0,L|220:44,1,70,2|0,0:0|0:0,0:0:0:0:
302,42,144000,2,0,L|372:36,1,70,0|2,0:0|0:0,0:0:0:0:
468,192,144503,1,2,0:0:0:0:
320,296,144838,6,0,P|260:264|200:294,1,140,4|2,0:0|0:0,0:0:0:0:
124,344,145341,2,0,L|116:204,1,140,4|2,0:0|0:0,0:0:0:0:
148,120,145844,2,0,P|181:111|215:120,1,70,2|0,0:0|0:0,0:0:0:0:
292,172,146179,6,0,P|358:184|405:136,1,140,4|2,0:0|0:0,0:0:0:0:
460,64,146682,1,0,0:0:0:0:
384,12,146849,2,0,P|342:43|275:44,1,105,4|0,0:0|0:0,0:0:0:0:
221,47,147184,2,0,P|169:42|128:12,1,105,2|0,0:0|0:0,0:0:0:0:
64,0,147520,6,0,L|71:69,1,70,4|0,0:0|0:0,0:0:0:0:
144,128,147855,2,0,L|136:197,1,70,2|0,0:0|0:0,0:0:0:0:
44,200,148190,2,0,L|51:269,1,70,2|0,0:0|0:0,0:0:0:0:
112,340,148525,1,2,0:0:0:0:
292,352,148860,6,0,L|285:283,1,70,4|0,0:0|0:0,0:0:0:0:
204,240,149195,2,0,L|212:171,1,70,2|0,0:0|0:0,0:0:0:0:
304,168,149530,2,0,L|297:99,1,70,2|0,0:0|0:0,0:0:0:0:
256,16,149865,1,2,0:0:0:0:
448,0,150201,6,0,L|441:69,1,70,4|0,0:0|0:0,0:0:0:0:
368,128,150536,2,0,L|376:197,1,70,2|0,0:0|0:0,0:0:0:0:
468,200,150871,2,0,L|461:269,1,70,2|0,0:0|0:0,0:0:0:0:
400,340,151206,1,2,0:0:0:0:
220,364,151542,6,0,L|150:360,1,70,4|0,0:0|0:0,0:0:0:0:
84,296,151877,2,0,L|14:300,1,70,2|0,0:0|0:0,0:0:0:0:
15,207,152212,2,0,P|20:157|61:125,1,105,4|0,0:0|0:0,0:0:0:0:
108,123,152547,2,0,P|150:94|160:44,1,105,2|0,0:0|0:0,0:0:0:0:
116,27,152883,6,0,L|256:20,1,140,4|2,0:0|0:0,0:0:0:0:
344,40,153385,1,2,0:0:0:0:
424,204,153721,1,2,0:0:0:0:
364,272,153888,2,0,P|331:284|298:274,1,70,2|0,0:0|0:0,0:0:0:0:
216,236,154223,2,0,P|183:226|120:256,1,105,4|0,0:0|0:0,0:0:0:0:
84,280,154559,2,0,L|77:175,1,105,2|0,0:0|0:0,0:0:0:0:
76,124,154894,1,2,0:0:0:0:
136,44,155061,1,2,0:0:0:0:
256,168,155397,5,2,0:0:0:0:
328,220,155564,2,0,P|377:233|421:207,1,105,4|0,0:0|0:0,0:0:0:0:
444,168,155899,2,0,L|436:116,2,35,2|0|0,0:0|0:0|0:0,0:0:0:0:
376,60,156235,2,0,L|271:63,1,105,4|0,0:0|0:0,0:0:0:0:
232,88,156570,2,0,L|196:80,2,35,2|0|0,0:0|0:0|0:0,0:0:0:0:
104,108,156905,6,0,P|95:142|104:176,1,70,4|0,0:0|0:0,0:0:0:0:
144,256,157240,1,2,0:0:0:0:
224,304,157408,2,0,P|256:316|289:306,1,70,2|0,0:0|0:0,0:0:0:0:
348,236,157743,2,0,P|380:226|413:238,1,70,2|0,0:0|0:0,0:0:0:0:
472,308,158078,1,0,0:0:0:0:
504,224,158246,6,0,L|497:119,1,105,4|0,0:0|0:0,0:0:0:0:
464,88,158581,2,0,L|468:36,2,35,2|0|0,0:0|0:0|0:0,0:0:0:0:
360,160,158916,2,0,P|326:169|293:158,1,70,2|2,0:0|0:0,0:0:0:0:
160,4,159419,1,2,0:0:0:0:
72,32,159587,6,0,L|65:136,1,105,4|0,0:0|0:0,0:0:0:0:
40,176,159922,2,0,P|41:193|46:210,2,35,2|0|0,0:0|0:0|0:0,0:0:0:0:
124,272,160257,2,0,L|193:263,1,70,4|2,0:0|0:0,0:0:0:0:
318,263,160592,2,0,L|352:267,2,35,2|0|0,0:0|0:0|0:0,0:0:0:0:
255,151,160927,6,0,P|210:101|143:102,1,140,4|0,0:0|0:0,0:0:0:0:
86,215,161430,2,0,P|119:273|186:286,1,140,4|0,0:0|0:0,0:0:0:0:
324,286,161933,2,0,P|391:274|420:228,1,105,4|0,0:0|0:0,0:0:0:0:
444,212,162268,2,0,L|440:72,1,140,4|2,0:0|0:0,0:0:0:0:
368,16,162771,1,0,0:0:0:0:
320,92,162939,2,0,P|255:116|189:95,1,140,4|2,0:0|0:0,0:0:0:0:
144,16,163441,1,0,0:0:0:0:
72,100,163609,6,0,L|79:169,1,70,4|0,0:0|0:0,0:0:0:0:
148,260,163944,2,0,P|180:248|216:260,1,70,2|0,0:0|0:0,0:0:0:0:
292,336,164279,2,0,P|324:345|357:333,1,70,2|0,0:0|0:0,0:0:0:0:
432,252,164615,2,0,L|428:176,1,70,2|0,0:0|0:0,0:0:0:0:
336,120,164950,6,0,P|315:92|312:57,1,70,4|0,0:0|0:0,0:0:0:0:
199,57,165285,2,0,P|196:92|176:120,1,70,2|0,0:0|0:0,0:0:0:0:
84,48,165620,2,0,L|76:0,2,35,2|0|0,0:0|0:0|0:0,0:0:0:0:
32,152,165955,2,0,L|24:200,2,35,2|0|0,0:0|0:0|0:0,0:0:0:0:
88,276,166290,6,0,B|256:360|254:157|412:268,1,350,0|0,3:0|0:0,0:0:0:0:
492,184,167296,2,0,P|465:161|433:147,1,70,2|0,0:0|0:0,0:0:0:0:
268,128,167631,2,0,P|352:18|372:155,1,350,0|0,3:0|0:0,0:0:0:0:
292,240,168637,2,0,L|298:309,1,70,2|0,0:0|0:0,0:0:0:0:
156,368,168972,6,0,L|125:19,1,350,0|0,3:0|0:0,0:0:0:0:
7,99,169978,2,0,P|27:128|59:141,1,70,2|0,0:0|0:0,0:0:0:0:
207,72,170313,2,0,P|322:42|417:113,1,245,2|0,3:0|0:0,0:0:0:0:
460,160,170983,2,0,P|471:192|467:227,2,70,2|0|2,0:0|0:0|0:0,0:0:0:0:
352,220,171485,6,0,P|289:248|225:225,1,140,4|2,0:0|0:0,0:0:0:0:
180,144,171988,2,0,L|176:74,1,70,2|0,0:0|0:0,0:0:0:0:
116,4,172323,1,2,0:0:0:0:
4,148,172659,1,2,0:0:0:0:
116,292,172994,6,0,P|146:308|180:305,1,70,4|0,0:0|0:0,0:0:0:0:
256,255,173329,2,0,P|305:243|351:267,1,105,2|0,0:0|0:0,0:0:0:0:
396,284,173664,2,0,P|431:246|437:194,1,105,2|0,0:0|0:0,0:0:0:0:
432,148,173999,1,4,0:0:0:0:
292,28,174335,6,0,L|222:28,1,70,4|0,0:0|0:0,0:0:0:0:
148,84,174670,1,2,0:0:0:0:
84,148,174837,2,0,P|71:198|90:246,1,105,4|0,0:0|0:0,0:0:0:0:
124,276,175173,2,0,P|172:292|220:273,1,105,2|0,0:0|0:0,0:0:0:0:
255,244,175508,2,0,P|319:225|366:273,1,140,4|0,0:0|0:0,0:0:0:0:
456,232,176011,1,2,0:0:0:0:
408,56,176346,6,0,L|338:62,1,70,2|0,0:0|0:0,0:0:0:0:
256,20,176681,1,2,0:0:0:0:
173,62,176849,2,0,L|104:56,1,70,4|0,0:0|0:0,0:0:0:0:
36,128,177184,1,0,0:0:0:0:
16,228,177352,2,0,P|22:261|46:287,1,70,2|0,0:0|0:0,0:0:0:0:
136,344,177687,2,0,L|208:328,1,70,2|0,0:0|0:0,0:0:0:0:
307,328,178022,2,0,L|376:344,1,70,2|0,0:0|0:0,0:0:0:0:
466,286,178358,6,0,P|467:269|464:252,2,35,4|0|0,0:0|0:0|0:0,0:0:0:0:
400,176,178693,2,0,P|396:158|398:141,2,35,2|0|0,0:0|0:0|0:0,0:0:0:0:
320,76,179028,2,0,P|302:74|285:77,2,35,2|0|0,0:0|0:0|0:0,0:0:0:0:
209,143,179363,2,0,P|191:146|174:144,2,35,2|0|0,0:0|0:0|0:0,0:0:0:0:
84,207,179698,6,0,P|85:292|150:347,1,175,0|0,3:0|0:0,0:0:0:0:
196,356,180200,2,0,L|340:344,1,140,2|2,0:0|0:0,0:0:0:0:
460,208,180871,1,2,0:0:0:0:
496,123,181038,2,0,P|473:60|408:41,1,140,2|2,0:0|0:0,0:0:0:0:
256,144,181709,1,2,0:0:0:0:
196,76,181877,2,0,P|162:67|128:74,1,70,2|0,0:0|0:0,0:0:0:0:
72,148,182212,1,2,0:0:0:0:
116,228,182379,2,0,P|254:358|394:229,1,420,2|0,0:0|0:0,0:0:0:0:
256,108,183721,6,0,L|256:38,2,70,4|0|0,0:0|0:0|0:0,0:0:0:0:
176,151,184224,2,0,L|36:163,1,140,4|0,0:0|0:0,0:0:0:0:
128,256,184727,2,0,P|377:149|120:62,1,700,4|0,0:0|0:0,0:0:0:0:
255,335,193106,6,0,P|323:338|363:284,1,140,4|2,0:0|0:0,0:0:0:0:
400,200,193609,1,0,0:0:0:0:
400,200,193693,1,0,0:0:0:0:
400,200,193777,2,0,L|403:130,1,70,2|0,0:0|0:0,0:0:0:0:
308,72,194112,2,0,L|311:141,1,70,2|0,0:0|0:0,0:0:0:0:
256,216,194447,6,0,L|136:228,1,105,4|0,0:0|0:0,0:0:0:0:
100,192,194782,2,0,P|86:141|97:90,1,105,2|0,0:0|0:0,0:0:0:0:
128,36,195117,2,0,P|176:19|225:37,1,105,2|0,0:0|0:0,0:0:0:0:
286,37,195452,2,0,P|335:19|384:35,1,105,2|0,0:0|0:0,0:0:0:0:
424,88,195788,6,0,L|431:157,1,70,4|0,0:0|0:0,0:0:0:0:
316,224,196123,2,0,L|323:154,1,70,2|0,0:0|0:0,0:0:0:0:
188,154,196458,2,0,L|196:224,1,70,2|0,0:0|0:0,0:0:0:0:
80,157,196793,2,0,L|88:88,1,70,2|0,0:0|0:0,0:0:0:0:
15,223,197128,6,0,P|42:246|76:252,1,70,4|0,0:0|0:0,0:0:0:0:
188,154,197464,2,0,L|184:74,1,70,2|0,0:0|0:0,0:0:0:0:
320,27,197799,2,0,P|369:13|416:33,1,105,2|0,0:0|0:0,0:0:0:0:
464,84,198134,2,0,P|476:134|463:184,1,105,2|0,0:0|0:0,0:0:0:0:
412,235,198469,6,0,P|346:248|301:198,1,140,4|2,0:0|0:0,0:0:0:0:
256,120,198972,1,0,0:0:0:0:
208,40,199140,2,0,L|116:52,1,70,2|0,0:0|0:0,0:0:0:0:
80,136,199475,2,0,L|172:148,1,70,2|0,0:0|0:0,0:0:0:0:
203,239,199810,6,0,P|169:296|102:293,1,140,4|2,0:0|0:0,0:0:0:0:
44,224,200313,1,0,0:0:0:0:
80,136,200481,2,0,L|92:64,1,70,2|0,0:0|0:0,0:0:0:0:
188,16,200816,2,0,L|199:85,1,70,2|0,0:0|0:0,0:0:0:0:
256,195,201151,6,0,P|310:155|315:87,2,140,4|2|4,0:0|0:0|0:0,0:0:0:0:
168,224,201989,1,0,0:0:0:0:
152,312,202157,2,0,P|167:342|198:358,1,70,2|4,0:0|0:0,0:0:0:0:
313,358,202492,2,0,P|344:342|360:312,1,70,0|2,0:0|0:0,0:0:0:0:
420,220,202827,6,0,L|426:115,1,105,4|0,0:0|0:0,0:0:0:0:
400,80,203163,2,0,P|367:68|334:78,1,70,4|0,0:0|0:0,0:0:0:0:
256,124,203498,2,0,P|208:143|159:127,1,105,2|0,0:0|0:0,0:0:0:0:
131,92,203833,6,0,P|144:159|119:224,1,140,4|2,0:0|0:0,0:0:0:0:
68,300,204336,1,0,0:0:0:0:
144,352,204503,2,0,P|175:366|210:365,1,70,2|0,0:0|0:0,0:0:0:0:
301,365,204838,2,0,P|336:366|368:352,1,70,2|0,0:0|0:0,0:0:0:0:
444,300,205174,6,0,L|456:160,1,140,4|2,0:0|0:0,0:0:0:0:
468,72,205676,1,0,0:0:0:0:
395,15,205844,2,0,P|363:3|330:14,1,70,2|0,0:0|0:0,0:0:0:0:
256,68,206179,2,0,P|223:78|190:66,1,70,2|0,0:0|0:0,0:0:0:0:
144,144,206514,6,0,P|164:209|137:272,2,140,4|2|4,0:0|0:0|0:0,0:0:0:0:
72,88,207352,2,0,L|3:101,1,70,0|2,0:0|0:0,0:0:0:0:
168,16,207688,2,0,P|194:38|207:70,1,70,4|0,0:0|0:0,0:0:0:0:
304,70,208022,2,0,P|317:38|344:16,1,70,2|4,0:0|0:0,0:0:0:0:
436,16,208358,5,0,0:0:0:0:
484,96,208526,2,0,L|473:200,1,105,4|0,0:0|0:0,0:0:0:0:
448,240,208861,2,0,P|400:259|351:243,1,105,2|0,0:0|0:0,0:0:0:0:
304,212,209196,6,0,P|254:195|205:210,1,105,4|0,0:0|0:0,0:0:0:0:
160,242,209531,6,0,P|136:197|142:145,1,105,2|0,0:0|0:0,0:0:0:0:
160,88,209866,6,0,P|200:55|222:7,1,105,4|0,0:0|0:0,0:0:0:0:
289,7,210201,6,0,P|311:55|352:88,1,105,2|0,0:0|0:0,0:0:0:0:
408,124,210537,6,0,P|419:156|412:190,1,70,4|0,0:0|0:0,0:0:0:0:
336,288,210872,2,0,P|318:258|317:223,1,70,2|0,0:0|0:0,0:0:0:0:
194,223,211207,2,0,P|193:258|176:288,1,70,2|0,0:0|0:0,0:0:0:0:
100,190,211542,2,0,P|92:156|104:124,1,70,2|0,0:0|0:0,0:0:0:0:
136,16,211878,6,0,P|186:7|233:29,1,105,4|0,0:0|0:0,0:0:0:0:
279,29,212212,6,0,P|325:6|376:15,1,105,2|0,0:0|0:0,0:0:0:0:
376,80,212548,6,0,L|276:148,1,105,4|0,0:0|0:0,0:0:0:0:
223,139,212883,6,0,L|137:80,1,105,2|0,0:0|0:0,0:0:0:0:
84,68,213218,6,0,P|92:101|82:134,1,70,2|0,0:0|0:0,0:0:0:0:
32,212,213553,2,0,P|22:245|30:278,1,70,2|0,0:0|0:0,0:0:0:0:
100,340,213889,2,0,P|166:354|222:315,1,140,2|2,0:0|0:0,0:0:0:0:
320,160,214559,6,0,P|354:157|392:176,1,70,4|0,0:0|0:0,0:0:0:0:
336,12,214894,2,0,L|304:74,1,70,2|0,0:0|0:0,0:0:0:0:
207,74,215229,2,0,L|176:12,1,70,2|0,0:0|0:0,0:0:0:0:
125,171,215564,2,0,P|157:157|192:160,1,70,2|0,0:0|0:0,0:0:0:0:
334,253,215899,6,0,P|333:287|320:320,1,70,4|0,0:0|0:0,0:0:0:0:
192,320,216235,2,0,P|178:287|177:253,1,70,2|0,0:0|0:0,0:0:0:0:
320,128,216570,2,0,L|404:144,1,70,2|0,0:0|0:0,0:0:0:0:
192,128,216905,2,0,L|108:144,1,70,2|0,0:0|0:0,0:0:0:0:
60,240,217241,6,0,P|62:307|117:347,1,140,4|2,0:0|0:0,0:0:0:0:
208,303,217744,2,0,P|255:283|302:302,1,105,2|0,0:0|0:0,0:0:0:0:
348,332,218079,2,0,L|363:192,1,140,2|0,0:0|0:0,0:0:0:0:
376,104,218582,5,4,0:0:0:0:
220,12,218917,2,0,L|136:16,1,70,2|0,0:0|0:0,0:0:0:0:
72,64,219252,1,2,0:0:0:0:
92,336,219755,6,0,P|125:343|160:339,1,70,4|0,0:0|0:0,0:0:0:0:
220,271,220090,2,0,P|253:263|287:271,1,70,2|0,0:0|0:0,0:0:0:0:
351,339,220425,2,0,P|386:343|420:336,1,70,0|2,0:0|0:0,0:0:0:0:
504,172,220928,1,2,0:0:0:0:
388,32,221263,6,0,P|326:61|302:125,1,140,4|2,0:0|0:0,0:0:0:0:
209,125,221765,2,0,P|185:61|124:32,1,140,4|2,0:0|0:0,0:0:0:0:
40,68,222268,2,0,P|25:99|27:133,1,70,2|0,0:0|0:0,0:0:0:0:
68,216,222603,6,0,P|124:268|200:248,1,140,4|2,0:0|0:0,0:0:0:0:
256,208,223106,1,0,0:0:0:0:
320,144,223273,2,0,P|353:136|387:145,1,70,4|0,0:0|0:0,0:0:0:0:
452,212,223609,2,0,L|448:281,1,70,2|0,0:0|0:0,0:0:0:0:
392,356,223944,6,0,P|326:343|300:280,1,140,4|2,0:0|0:0,0:0:0:0:
211,280,224447,2,0,P|185:343|120:356,1,140,4|2,0:0|0:0,0:0:0:0:
44,308,224949,2,0,P|36:273|36:238,1,70,2|0,0:0|0:0,0:0:0:0:
52,148,225284,6,0,L|205:129,1,140,4|2,0:0|0:0,0:0:0:0:
256,64,225787,1,0,0:0:0:0:
322,130,225955,2,0,P|329:163|322:197,1,70,4|0,0:0|0:0,0:0:0:0:
189,198,226290,2,0,P|182:163|190:130,1,70,2|0,0:0|0:0,0:0:0:0:
296,36,226626,6,0,L|365:29,1,70,4|0,0:0|0:0,0:0:0:0:
216,36,226961,2,0,L|146:29,1,70,2|0,0:0|0:0,0:0:0:0:
64,72,227296,1,0,0:0:0:0:
16,151,227464,2,0,P|12:186|21:220,2,70,2|2|2,0:0|0:0|0:0,0:0:0:0:
420,363,228637,6,0,P|467:313|473:245,1,140,4|2,0:0|0:0,0:0:0:0:
444,160,229140,1,0,0:0:0:0:
384,92,229307,2,0,P|339:65|288:69,1,105,4|0,0:0|0:0,0:0:0:0:
223,69,229642,2,0,P|172:65|128:92,1,105,2|0,0:0|0:0,0:0:0:0:
80,136,229978,6,0,L|87:275,1,140,4|2,0:0|0:0,0:0:0:0:
120,360,230480,1,0,0:0:0:0:
120,360,230564,1,0,0:0:0:0:
119,359,230648,2,0,P|152:367|186:358,1,70,2|0,0:0|0:0,0:0:0:0:
256,300,230983,2,0,P|289:291|323:299,1,70,2|0,0:0|0:0,0:0:0:0:
404,340,231318,6,0,L|476:328,2,70,4|0|2,0:0|0:0|0:0,0:0:0:0:
388,252,231821,1,0,0:0:0:0:
388,252,231905,1,0,0:0:0:0:
388,252,231989,2,0,P|400:218|399:184,1,70,2|0,0:0|0:0,0:0:0:0:
328,124,232324,2,0,L|258:130,1,70,2|0,0:0|0:0,0:0:0:0:
191,192,232659,6,0,P|125:185|101:123,1,140,4|2,0:0|0:0,0:0:0:0:
148,44,233162,1,0,0:0:0:0:
148,44,233246,1,0,0:0:0:0:
148,44,233330,2,0,P|177:25|211:20,1,70,2|0,0:0|0:0,0:0:0:0:
301,20,233665,2,0,P|335:25|365:43,1,70,2|0,0:0|0:0,0:0:0:0:
432,132,234000,6,0,L|424:236,1,105,4|0,0:0|0:0,0:0:0:0:
400,291,234335,6,0,P|358:322|306:323,1,105,2|0,0:0|0:0,0:0:0:0:
255,287,234670,6,0,P|206:277|166:309,1,105,4|0,0:0|0:0,0:0:0:0:
110,326,235006,6,0,P|89:279|89:227,1,105,2|0,0:0|0:0,0:0:0:0:
148,112,235341,6,0,L|286:93,1,140,4|2,0:0|0:0,0:0:0:0:
356,36,235844,1,0,0:0:0:0:
356,36,235927,1,0,0:0:0:0:
356,36,236011,2,0,P|390:29|423:37,1,70,2|0,0:0|0:0,0:0:0:0:
476,112,236346,2,0,P|479:146|469:179,1,70,2|0,0:0|0:0,0:0:0:0:
404,244,236682,6,0,L|410:313,2,70,4|0|2,0:0|0:0|0:0,0:0:0:0:
366,160,237184,1,0,0:0:0:0:
366,160,237268,1,0,0:0:0:0:
366,160,237352,2,0,P|331:157|302:175,1,70,2|0,0:0|0:0,0:0:0:0:
209,175,237687,2,0,P|180:157|145:160,1,70,2|0,0:0|0:0,0:0:0:0:
67,208,238022,6,0,P|56:258|75:305,1,105,4|0,0:0|0:0,0:0:0:0:
120,348,238358,2,0,L|223:328,1,105,2|0,0:0|0:0,0:0:0:0:
288,328,238693,2,0,L|392:348,1,105,4|0,0:0|0:0,0:0:0:0:
435,306,239028,1,2,0:0:0:0:
343,187,239196,6,0,P|278:169|220:205,1,140,4|2,0:0|0:0,0:0:0:0:
148,288,239698,2,0,P|147:305|148:322,2,35,2|0|0,0:0|0:0|0:0,0:0:0:0:
56,216,240034,2,0,L|52:146,1,70,4|0,0:0|0:0,0:0:0:0:
160,48,240369,2,0,L|156:117,1,70,4|0,0:0|0:0,0:0:0:0:
187,231,240704,6,0,P|253:251|318:227,1,140,2|2,0:0|0:0,0:0:0:0:
375,159,241207,2,0,P|390:92|357:32,1,140,2|0,0:0|0:0,0:0:0:0:
272,8,241709,2,0,L|202:14,1,70,2|0,0:0|0:0,0:0:0:0:
127,67,242045,6,0,P|119:100|121:135,1,70,2|0,0:0|0:0,0:0:0:0:
147,223,242380,2,0,P|173:246|207:253,1,70,2|0,0:0|0:0,0:0:0:0:
303,252,242715,2,0,P|337:246|364:223,1,70,2|0,0:0|0:0,0:0:0:0:
443,184,243050,2,0,P|478:183|508:200,1,70,2|0,0:0|0:0,0:0:0:0:
456,275,243385,6,0,P|417:333|352:352,1,140,2|2,0:0|0:0,0:0:0:0:
256,312,243888,1,0,0:0:0:0:
158,352,244056,2,0,P|92:332|55:274,1,140,2|0,0:0|3:0,0:0:0:0:
92,76,244726,1,4,0:0:0:0:
268,172,245061,6,0,L|406:153,1,140,4|4,0:0|0:0,0:0:0:0:
