osu file format v14

[General]
AudioFilename: audio.mp3
AudioLeadIn: 0
PreviewTime: 126006
Countdown: 0
SampleSet: Soft
StackLeniency: 0.5
Mode: 0
LetterboxInBreaks: 0
WidescreenStoryboard: 1

[Editor]
DistanceSpacing: 1.3
BeatDivisor: 4
GridSize: 16
TimelineZoom: 2.5

[Metadata]
Title:KARMANATIONS
TitleUnicode:KARMANATIONS
Artist:Akatsuki Records
ArtistUnicode:暁Records
Creator:-Rik-
Version:Hard
Source:東方夢時空 ~ Pantasmagria of Dim.Dream
Tags:stack japanese touhou vocal video game pop 蓬莱人形 ~ Dolls in Pseudo Paradise ZUN 東方Project mima Phantasmagoria th3 BloodDark/KARMANATIONS C98 リーインカーネイション
BeatmapID:2678637
BeatmapSetID:1283387

[Difficulty]
HPDrainRate:4
CircleSize:3.5
OverallDifficulty:6
ApproachRate:8
SliderMultiplier:1.4
SliderTickRate:1

[Events]
//Background and Video events
0,0,"bg.jpg",0,0
//Break Periods
2,146137,155266
//Storyboard Layer 0 (Background)
//Storyboard Layer 1 (Fail)
//Storyboard Layer 2 (Pass)
//Storyboard Layer 3 (Foreground)
//Storyboard Layer 4 (Overlay)
//Storyboard Sound Samples

[TimingPoints]
1016,312.5,4,2,1,15,1,0
1484,-100,4,2,1,5,0,0
1641,-100,4,2,1,15,0,0
2109,-100,4,2,1,5,0,0
2266,-100,4,2,1,15,0,0
2734,-100,4,2,1,5,0,0
2891,-100,4,2,1,15,0,0
3359,-100,4,2,1,5,0,0
3516,-100,4,2,1,15,0,0
3984,-100,4,2,1,5,0,0
4141,-100,4,2,1,15,0,0
4609,-100,4,2,1,5,0,0
4766,-100,4,2,1,15,0,0
5234,-100,4,2,1,5,0,0
5391,-200,4,2,1,15,0,0
5703,-100,4,2,1,15,0,0
5859,-100,4,2,1,5,0,0
6016,-100,4,2,1,15,0,0
6484,-100,4,2,1,5,0,0
6641,-100,4,2,1,15,0,0
7109,-100,4,2,1,5,0,0
7266,-100,4,2,1,15,0,0
7734,-100,4,2,1,5,0,0
7891,-100,4,2,1,15,0,0
8359,-100,4,2,1,5,0,0
8516,-100,4,2,1,15,0,0
9609,-200,4,2,1,15,0,0
9922,-200,4,2,1,15,0,0
10391,-133.333333333333,4,2,1,15,0,0
11016,-100,4,2,1,55,0,0
15937,-100,4,2,1,5,0,0
16016,-100,4,2,1,55,0,0
18437,-100,4,2,1,5,0,0
18516,-100,4,2,1,55,0,0
19844,-100,4,2,1,5,0,0
19922,-100,4,2,1,55,0,0
20000,-100,4,2,1,5,0,0
20078,-100,4,2,1,55,0,0
20156,-100,4,2,1,5,0,0
20234,-100,4,2,1,55,0,0
20312,-100,4,2,1,5,0,0
20391,-100,4,2,1,55,0,0
20937,-100,4,2,1,5,0,0
21016,-86.9565217391304,4,2,1,65,0,0
40859,-80,4,2,1,65,0,0
41016,-80,4,2,1,65,0,0
61016,-133.333333333333,4,2,1,55,0,0
63125,-133.333333333333,4,2,1,5,0,0
63203,-133.333333333333,4,2,1,55,0,0
63437,-133.333333333333,4,2,1,5,0,0
63516,-133.333333333333,4,2,1,55,0,0
71953,-133.333333333333,4,2,1,55,0,0
72109,-133.333333333333,4,2,1,5,0,0
72266,-100,4,2,1,55,0,0
73516,-74.0740740740741,4,2,1,85,0,1
73750,-74.0740740740741,4,2,1,5,0,1
73828,-74.0740740740741,4,2,1,85,0,1
74375,-74.0740740740741,4,2,1,5,0,1
74453,-74.0740740740741,4,2,1,85,0,1
76875,-74.0740740740741,4,2,1,5,0,1
76953,-74.0740740740741,4,2,1,85,0,1
83750,-74.0740740740741,4,2,1,5,0,1
83828,-74.0740740740741,4,2,1,85,0,1
84375,-74.0740740740741,4,2,1,5,0,1
84453,-74.0740740740741,4,2,1,85,0,1
86875,-74.0740740740741,4,2,1,5,0,1
86953,-74.0740740740741,4,2,1,85,0,1
93516,-100,4,2,1,65,0,0
108437,-100,4,2,1,5,0,0
108516,-100,4,2,1,65,0,0
113516,-133.333333333333,4,2,1,55,0,0
125703,-133.333333333333,4,2,1,55,0,0
125859,-133.333333333333,4,2,1,5,0,0
126016,-74.0740740740741,4,2,1,85,0,1
126250,-74.0740740740741,4,2,1,5,0,1
126328,-74.0740740740741,4,2,1,85,0,1
126875,-74.0740740740741,4,2,1,5,0,1
126953,-74.0740740740741,4,2,1,85,0,1
129375,-74.0740740740741,4,2,1,5,0,1
129453,-74.0740740740741,4,2,1,85,0,1
136250,-74.0740740740741,4,2,1,5,0,1
136328,-74.0740740740741,4,2,1,85,0,1
136875,-74.0740740740741,4,2,1,5,0,1
136953,-74.0740740740741,4,2,1,85,0,1
139375,-74.0740740740741,4,2,1,5,0,1
139453,-74.0740740740741,4,2,1,85,0,1
146016,-100,4,2,1,55,0,0
156016,-100,4,2,1,65,0,0
164766,-133.333333333333,4,2,1,55,0,0
165234,-200,4,2,1,5,0,0
165391,-200,4,2,1,55,0,0
165859,-200,4,2,1,5,0,0
166016,-133.333333333333,4,2,1,55,0,0
175391,-200,4,2,1,55,0,0
175859,-200,4,2,1,5,0,0
176016,-111.111111111111,4,2,1,55,0,0
185391,-200,4,2,1,55,0,0
185859,-200,4,2,1,5,0,0
186016,-100,4,2,1,65,0,0
190000,-100,4,2,1,5,0,0
190078,-100,4,2,1,65,0,0
190312,-100,4,2,1,5,0,0
190391,-100,4,2,1,65,0,0
190625,-100,4,2,1,5,0,0
190703,-100,4,2,1,65,0,0
190937,-100,4,2,1,5,0,0
191016,-100,4,2,1,65,0,0
196016,-80,4,2,1,65,0,0
198437,-80,4,2,1,5,0,0
198516,-80,4,2,1,65,0,0
206016,-74.0740740740741,4,2,1,85,0,1
223594,-74.0740740740741,4,2,1,5,0,1
223672,-74.0740740740741,4,2,1,85,0,1
224219,-74.0740740740741,4,2,1,5,0,1
224297,-74.0740740740741,4,2,1,85,0,1
224844,-74.0740740740741,4,2,1,5,0,1
224922,-74.0740740740741,4,2,1,85,0,1
225000,-74.0740740740741,4,2,1,5,0,1
225078,-74.0740740740741,4,2,1,85,0,1
225156,-74.0740740740741,4,2,1,5,0,1
225234,-74.0740740740741,4,2,1,85,0,1
225312,-74.0740740740741,4,2,1,5,0,1
225391,-74.0740740740741,4,2,1,85,0,1
225703,-100,4,2,1,85,0,0

[Colours]
Combo1 : 255,170,85
Combo2 : 82,75,232
Combo3 : 0,128,128

[HitObjects]
469,354,1016,5,4,1:2:0:0:
391,334,1641,1,2,1:2:0:0:
411,256,2266,1,2,1:2:0:0:
489,276,2891,1,2,1:2:0:0:
187,355,3516,5,4,1:2:0:0:
265,335,4141,1,2,1:2:0:0:
245,257,4766,1,2,1:2:0:0:
167,277,5391,2,0,P|165:242|179:210,1,70,2|0,1:2|0:0,2:0:0:0:
287,180,6016,5,4,1:2:0:0:
365,160,6641,1,2,1:2:0:0:
345,82,7266,1,2,1:2:0:0:
267,102,7891,1,2,1:2:0:0:
256,192,8516,12,0,9609,0:0:0:0:
166,56,9922,6,0,L|132:65,2,35
266,45,10391,6,0,L|316:58,1,52.5000020027161,2|0,0:0|0:0,0:0:0:0:
226,134,10703,2,0,L|175:147,1,52.5000020027161,2|0,0:0|0:0,0:0:0:0:
317,146,11016,6,0,P|334:207|397:196,1,140,4|0,1:0|3:0,0:0:0:0:
411,49,11641,2,0,P|475:30|510:86,1,140,8|0,0:0|3:0,0:0:0:0:
512,166,12109,1,0,0:0:0:0:
497,246,12266,6,0,P|467:263|434:273,1,70,4|2,3:0|0:0,0:0:0:0:
363,338,12578,2,0,P|394:356|427:366,1,70,8|2,0:0|0:0,0:0:0:0:
344,257,12891,1,8,0:0:0:0:
311,245,13047,1,2,0:0:0:0:
276,234,13203,2,0,P|243:242|213:260,1,70,8|0,0:0|0:0,0:0:0:0:
159,336,13516,6,0,L|148:196,1,140,4|0,1:0|0:0,0:0:0:0:
49,283,14141,2,0,L|59:143,1,140,8|0,0:0|0:0,0:0:0:0:
117,85,14609,1,0,0:0:0:0:
62,23,14766,6,0,P|29:31|0:49,1,70,4|2,3:0|0:0,0:0:0:0:
152,47,15078,2,0,P|183:65|217:74,1,70,8|2,0:0|0:0,0:0:0:0:
326,12,15391,1,8,0:0:0:0:
323,45,15547,1,2,0:0:0:0:
321,79,15703,2,0,L|311:148,1,70,8|0,0:0|0:0,0:0:0:0:
360,207,16016,6,0,L|220:198,1,140,4|0,1:0|0:0,0:0:0:0:
348,331,16641,2,0,L|487:322,1,140,8|0,0:0|0:0,0:0:0:0:
512,233,17109,1,0,0:0:0:0:
435,178,17266,6,0,P|425:145|408:115,1,70,4|2,3:0|0:0,0:0:0:0:
341,67,17578,2,0,P|350:34|367:4,1,70,8|2,0:0|0:0,0:0:0:0:
480,32,17891,1,8,0:0:0:0:
489,65,18047,1,2,0:0:0:0:
495,98,18203,2,0,P|477:128|466:162,1,70,8|0,0:0|0:0,0:0:0:0:
360,234,18516,5,4,1:0:0:0:
220,223,18828,1,8,3:0:0:0:
158,97,19141,1,8,3:0:0:0:
278,122,19453,5,8,3:0:0:0:
290,96,19609,1,0,0:0:0:0:
299,69,19766,2,0,L|310:35,3,35,2|0|2|0,0:0|2:0|0:0|2:0,0:0:0:0:
214,47,20078,2,0,L|202:13,3,35,2|0|2|0,0:0|2:0|0:0|2:0,0:0:0:0:
145,109,20391,2,0,L|92:63,1,70,8|0,0:0|0:0,0:0:0:0:
113,205,20703,2,0,L|44:191,1,70,8|0,0:0|0:0,0:0:0:0:
108,306,21016,6,0,B|158:313|158:313|277:278,1,161.000003070831,4|8,1:0|0:0,0:0:0:0:
352,234,21484,1,0,0:0:0:0:
283,181,21641,2,0,L|199:205,1,80.5000015354157,0|0,1:1|0:0,0:0:0:0:
262,83,21953,2,0,L|345:107,1,80.5000015354157,8|0,0:0|0:0,0:0:0:0:
271,3,22266,6,0,B|221:-4|221:-4|101:30,1,161.000003070831,4|8,3:0|0:0,0:0:0:0:
27,75,22734,1,2,0:0:0:0:
96,128,22891,2,0,L|179:103,1,80.5000015354157,0|2,1:1|0:0,0:0:0:0:
117,226,23203,2,0,L|33:201,1,80.5000015354157,10|0,0:0|0:0,0:0:0:0:
218,181,23516,5,4,1:0:0:0:
218,181,23672,1,0,0:0:0:0:
217,263,23828,2,0,P|257:278|300:285,1,80.5000015354157,8|0,0:0|0:0,0:0:0:0:
429,272,24141,1,0,1:1:0:0:
429,272,24297,1,0,0:0:0:0:
401,347,24453,2,0,P|359:362|316:369,1,80.5000015354157,8|0,0:0|0:0,0:0:0:0:
349,214,24766,6,0,L|363:127,2,80.5000015354157,4|2|8,3:0|0:0|0:0,0:0:0:0:
404,280,25234,1,2,0:0:0:0:
473,228,25391,2,0,L|458:141,2,80.5000015354157,0|2|8,1:1|0:0|0:0,0:0:0:0:
404,280,25859,1,0,0:0:0:0:
310,265,26016,6,0,P|255:199|270:115,1,161.000003070831,4|8,1:0|0:0,0:0:0:0:
289,37,26484,1,0,0:0:0:0:
377,24,26641,2,0,P|372:67|349:103,1,80.5000015354157,0|0,1:1|0:0,0:0:0:0:
420,165,26953,2,0,P|464:162|504:179,1,80.5000015354157,8|0,0:0|0:0,0:0:0:0:
448,255,27266,6,0,L|429:340,2,80.5000015354157,4|0|10,3:0|0:0|0:0,0:0:0:0:
356,250,27734,1,2,0:0:0:0:
319,330,27891,2,0,L|147:293,1,161.000003070831,0|10,1:1|0:0,0:0:0:0:
62,268,28359,1,2,0:0:0:0:
35,183,28516,6,0,L|16:97,2,80.5000015354157,4|0|8,1:0|0:0|0:0,0:0:0:0:
126,206,28984,1,0,0:0:0:0:
217,192,29141,2,0,P|199:152|166:124,1,80.5000015354157,0|0,1:1|0:0,0:0:0:0:
101,65,29453,2,0,P|117:26|151:0,1,80.5000015354157,8|0,0:0|0:0,0:0:0:0:
281,0,29766,6,0,P|316:26|332:66,1,80.5000015354157,4|2,3:0|0:0,0:0:0:0:
266,124,30078,2,0,P|233:152|216:191,1,80.5000015354157,8|2,0:0|0:0,0:0:0:0:
268,291,30391,1,0,1:1:0:0:
268,291,30547,1,2,0:0:0:0:
346,269,30703,2,0,P|371:233|379:190,1,80.5000015354157,8|2,0:0|0:0,0:0:0:0:
416,99,31016,6,0,B|471:111|471:111|502:225,2,161.000003070831,4|8|0,1:3|0:0|1:1,0:0:0:0:
341,131,31797,1,0,0:0:0:0:
359,40,31953,2,0,L|444:59,1,80.5000015354157,8|0,0:0|0:0,0:0:0:0:
278,70,32266,6,0,L|192:89,1,80.5000015354157,4|2,3:0|0:0,0:0:0:0:
87,110,32578,1,8,0:0:0:0:
87,110,32734,1,2,0:0:0:0:
87,26,32891,2,0,L|172:7,1,80.5000015354157,0|2,1:1|0:0,0:0:0:0:
216,101,33203,2,0,L|301:120,1,80.5000015354157,8|2,0:0|0:0,0:0:0:0:
315,211,33516,6,0,B|370:199|370:199|401:84,2,161.000003070831,4|8|0,1:0|0:0|1:1,0:0:0:0:
227,246,34297,1,0,0:0:0:0:
144,271,34453,2,0,P|167:309|205:329,1,80.5000015354157,8|0,0:0|0:0,0:0:0:0:
119,192,34766,2,0,P|80:213|59:250,1,80.5000015354157,4|2,3:0|0:0,0:0:0:0:
200,163,35078,6,0,P|261:102|265:17,1,161.000003070831,8|0,0:0|1:1,0:0:0:0:
186,1,35547,1,2,0:0:0:0:
116,43,35703,2,0,P|89:77|81:120,1,80.5000015354157,8|2,0:0|0:0,0:0:0:0:
217,170,36016,6,0,P|276:110|280:24,2,161.000003070831,4|8|0,1:0|0:0|1:1,0:0:0:0:
171,239,36797,1,0,0:0:0:0:
263,253,36953,2,0,P|299:229|328:197,1,80.5000015354157,8|0,0:0|0:0,0:0:0:0:
393,113,37266,2,0,P|430:137|472:150,1,80.5000015354157,4|2,3:0|0:0,0:0:0:0:
493,245,37578,6,0,P|410:257|373:333,1,161.000003070831,8|0,0:0|1:1,0:0:0:0:
303,373,38047,1,2,0:0:0:0:
285,294,38203,2,0,P|297:252|318:214,1,80.5000015354157,8|2,0:0|0:0,0:0:0:0:
365,112,38516,6,0,L|193:145,2,161.000003070831,4|8|0,1:0|0:0|1:0,0:0:0:0:
421,52,39297,1,0,0:0:0:0:
332,23,39453,2,0,L|246:39,1,80.5000015354157,8|0,0:0|0:0,0:0:0:0:
100,29,39766,6,0,P|113:70|118:113,1,80.5000015354157,4|2,1:0|0:0,0:0:0:0:
44,167,40078,2,0,P|29:209|26:252,1,80.5000015354157,8|2,0:0|0:0,0:0:0:0:
42,359,40391,1,2,0:0:0:0:
103,294,40547,1,8,3:0:0:0:
184,361,40703,2,0,P|191:317|186:274,1,80.5000015354157,8|0,3:0|0:0,0:0:0:0:
130,203,41016,6,0,L|302:170,1,175,4|8,1:0|0:0,0:0:0:0:
353,236,41484,1,0,0:0:0:0:
369,316,41641,2,0,P|330:336|314:376,1,87.5,0|0,1:1|0:0,0:0:0:0:
469,356,41953,2,0,L|449:270,1,87.5,8|0,0:0|0:0,0:0:0:0:
446,178,42266,6,0,P|380:127|399:46,1,175,4|8,3:0|0:0,0:0:0:0:
480,35,42734,1,0,0:0:0:0:
501,114,42891,2,0,P|462:132|419:129,1,87.5,0|0,1:1|0:0,0:0:0:0:
341,107,43203,2,0,P|302:88|258:90,1,87.5,8|0,0:0|0:0,0:0:0:0:
282,180,43516,6,0,L|266:266,2,87.5,4|0|8,1:0|0:0|0:0,0:0:0:0:
194,156,43984,1,0,0:0:0:0:
115,200,44141,2,0,L|130:286,2,87.5,0|0|8,1:1|0:0|0:0,0:0:0:0:
194,156,44609,1,0,0:0:0:0:
167,69,44766,6,0,P|125:54|82:48,1,87.5,4|2,3:0|0:0,0:0:0:0:
0,148,45078,2,0,P|43:140|84:126,1,87.5,8|2,0:0|0:0,0:0:0:0:
167,69,45391,2,0,P|211:76|252:90,1,87.5,0|2,1:1|0:0,0:0:0:0:
334,183,45703,1,8,0:0:0:0:
334,183,45859,1,2,0:0:0:0:
291,253,46016,6,0,L|205:234,1,87.5,4|0,1:0|0:0,0:0:0:0:
127,212,46328,2,0,L|108:297,1,87.5,8|0,0:0|0:0,0:0:0:0:
180,339,46641,2,0,L|265:357,1,87.5,0|0,1:1|0:0,0:0:0:0:
64,381,46953,1,8,0:0:0:0:
64,381,47109,1,0,0:0:0:0:
15,302,47266,6,0,B|6:261|6:261|33:130,1,175,4|8,3:0|0:0,0:0:0:0:
112,110,47734,1,0,0:0:0:0:
192,140,47891,2,0,P|196:97|181:57,1,87.5,0|0,1:1|0:0,0:0:0:0:
127,190,48203,2,0,P|122:234|137:274,1,87.5,8|0,0:0|0:0,0:0:0:0:
202,360,48516,6,0,L|318:320,1,87.5,4|0,1:0|0:0,0:0:0:0:
366,263,48828,2,0,L|250:223,1,87.5,8|0,0:0|0:0,0:0:0:0:
224,141,49141,2,0,P|265:129|309:131,1,87.5,0|0,1:1|0:0,0:0:0:0:
398,107,49453,2,0,P|436:126|467:157,1,87.5,8|0,0:0|0:0,0:0:0:0:
484,259,49766,6,0,B|442:277|441:329,1,87.5,4|2,3:0|0:0,0:0:0:0:
512,384,50078,1,10,0:0:0:0:
512,384,50234,1,2,0:0:0:0:
441,329,50391,2,0,B|412:293|362:305,1,87.5,10|2,0:0|0:0,0:0:0:0:
304,364,50703,1,10,0:0:0:0:
304,364,50859,1,2,0:0:0:0:
281,257,51016,6,0,P|334:190|419:186,1,175,4|8,1:0|0:0,0:0:0:0:
478,244,51484,1,0,0:0:0:0:
492,140,51641,2,0,P|459:110|419:96,1,87.5,0|0,1:1|0:0,0:0:0:0:
338,45,51953,2,0,P|369:16|410:2,1,87.5,8|0,0:0|0:0,0:0:0:0:
273,113,52266,6,0,P|235:132|192:136,1,87.5,4|2,3:0|0:0,0:0:0:0:
107,97,52578,2,0,P|132:22|209:43,1,175,10|0,0:0|1:1,0:0:0:0:
274,113,53047,1,2,0:0:0:0:
251,202,53203,2,0,P|238:244|234:288,1,87.5,10|2,0:0|0:0,0:0:0:0:
179,364,53516,6,8,P|124:297|40:277,1,175,4|8,1:0|0:0,0:0:0:0:
0,348,53984,1,0,0:0:0:0:
18,268,54141,2,0,P|56:245|98:232,1,87.5,0|0,1:1|0:0,0:0:0:0:
174,179,54453,2,0,P|136:157|94:144,1,87.5,8|0,0:0|0:0,0:0:0:0:
5,151,54766,6,0,L|24:66,1,87.5,4|0,3:0|0:0,0:0:0:0:
105,19,55078,2,0,P|141:47|167:80,1,87.5,8|2,0:0|0:0,0:0:0:0:
246,99,55391,2,0,P|263:141|269:183,1,87.5,0|2,1:0|0:0,0:0:0:0:
210,256,55703,2,0,L|124:274,1,87.5,10|2,0:0|0:0,0:0:0:0:
297,288,56016,6,0,P|331:261|346:220,1,87.5,4|0,1:0|0:0,0:0:0:0:
340,138,56328,2,0,P|354:97|389:70,2,87.5,8|0|0,0:0|0:0|1:1,0:0:0:0:
346,221,56797,1,0,0:0:0:0:
425,243,56953,2,0,P|468:237|501:209,1,87.5,8|0,0:0|0:0,0:0:0:0:
493,129,57266,6,0,L|511:303,1,175,4|10,3:0|0:0,0:0:0:0:
459,367,57734,1,0,0:0:0:0:
389,324,57891,2,0,L|302:333,1,87.5,0|0,1:1|0:0,0:0:0:0:
256,266,58203,2,0,L|169:257,1,87.5,10|0,0:0|0:0,0:0:0:0:
81,285,58516,6,0,L|99:111,1,175,4|8,1:0|0:0,0:0:0:0:
163,61,58984,1,2,0:0:0:0:
90,23,59141,2,0,P|49:36|21:68,1,87.5,0|2,1:0|0:0,0:0:0:0:
99,110,59453,2,0,P|141:124|169:156,1,87.5,8|0,0:0|0:0,0:0:0:0:
89,196,59766,6,0,P|69:202|55:219,3,43.75,4|2|2|2,3:0|0:0|0:0|0:0,0:0:0:0:
112,275,60078,2,0,P|133:282|147:299,3,43.75,4|2|2|2,3:0|0:0|0:0|0:0,0:0:0:0:
89,354,60391,2,0,P|69:360|55:377,3,43.75,4|2|2|2,3:0|0:0|0:0|0:0,0:0:0:0:
167,377,60703,2,0,P|189:378|208:368,3,43.75,4|2|2|2,3:0|0:0|0:0|0:0,0:0:0:0:
228,289,61016,6,0,B|242:249|242:249|310:341,1,157.500006008148,4|2,1:0|0:0,0:0:0:0:
373,384,61641,2,0,L|365:279,1,105.000004005432,0|0,1:0|0:0,0:0:0:0:
436,228,62109,1,0,0:0:0:0:
504,278,62266,6,0,B|490:238|490:238|421:330,1,157.500006008148,4|2,3:0|0:0,0:0:0:0:
484,384,62891,1,0,1:0:0:0:
355,264,63203,1,0,0:0:0:0:
504,188,63516,6,0,L|473:33,1,157.500006008148,4|2,1:0|2:0,0:0:0:0:
398,98,64141,2,0,L|387:149,1,52.5000020027161,8|0,1:0|0:0,0:0:0:0:
309,202,64453,2,0,L|298:150,1,52.5000020027161,8|8,3:0|3:0,0:0:0:0:
296,55,64766,6,0,L|191:68,1,105.000004005432,4|0,3:0|0:0,0:0:0:0:
146,153,65234,2,0,L|135:204,2,52.5000020027161,2|8|0,0:0|0:0|0:0,0:0:0:0:
101,71,65703,2,0,L|50:82,1,52.5000020027161
43,213,66016,6,0,P|80:280|154:295,1,157.500006008148,4|2,1:0|0:0,0:0:0:0:
234,350,66641,2,0,P|243:326|246:300,1,52.5000020027161,8|0,0:0|0:0,0:0:0:0:
163,258,66953,2,0,P|153:233|150:207,1,52.5000020027161,8|8,3:0|3:0,0:0:0:0:
252,175,67266,6,0,L|408:195,1,157.500006008148,4|2,3:0|0:0,0:0:0:0:
477,257,67891,2,0,P|480:309|459:357,1,105.000004005432,8|0,1:3|0:0,0:0:0:0:
330,185,68516,6,0,L|315:81,1,105.000004005432,4|8,1:0|0:0,0:0:0:0:
261,5,68984,1,0,0:0:0:0:
179,58,69141,1,8,0:0:0:0:
179,58,69297,1,0,0:0:0:0:
92,109,69453,1,8,0:0:0:0:
92,109,69609,1,0,0:0:0:0:
102,200,69766,6,0,L|153:192,1,52.5000020027161,4|2,3:0|0:0,0:0:0:0:
237,283,70078,2,0,L|184:275,1,52.5000020027161,8|2,0:0|0:0,0:0:0:0:
85,281,70391,5,4,3:0:0:0:
72,370,70547,1,2,0:0:0:0:
161,383,70703,1,8,0:0:0:0:
174,294,70859,1,2,0:0:0:0:
256,192,71016,12,0,71953,0:0:0:0:
61,300,72266,6,0,L|44:269,7,35,2|0|2|0|2|0|2|0,0:0|0:0|0:0|0:0|0:0|0:0|0:0|0:0,0:0:0:0:
117,354,72891,2,0,L|100:384,7,35,2|0|2|0|2|2|2|2,0:0|0:0|0:0|0:0|3:2|3:2|3:2|3:2,0:0:0:0:
181,309,73516,6,0,P|152:221|80:161,1,189.000000720978,4|8,1:0|0:0,0:0:0:0:
104,15,74141,2,0,P|42:85|26:177,1,189.000000720978,0|8,1:0|0:0,0:0:0:0:
48,256,74609,1,0,0:0:0:0:
134,221,74766,6,0,P|179:209|226:206,1,94.5000003604889,4|2,3:0|0:0,0:0:0:0:
302,309,75078,2,0,P|254:307|209:294,1,94.5000003604889,8|2,0:0|0:0,0:0:0:0:
324,231,75391,1,8,0:0:0:0:
340,157,75547,1,2,0:0:0:0:
356,83,75703,2,0,P|402:69|449:68,1,94.5000003604889,8|0,0:0|0:0,0:0:0:0:
497,212,76016,6,0,P|426:271|396:359,1,189.000000720978,4|8,1:0|0:0,0:0:0:0:
249,116,76641,2,0,P|338:148|429:129,1,189.000000720978,0|8,1:0|0:0,0:0:0:0:
459,54,77109,1,0,0:0:0:0:
360,15,77266,6,0,P|349:60|349:107,2,94.5000003604889,4|2|8,3:0|0:0|0:0,0:0:0:0:
263,56,77734,1,2,0:0:0:0:
179,74,77891,1,8,0:0:0:0:
136,147,78047,1,2,0:0:0:0:
51,138,78203,2,0,P|27:98|14:53,1,94.5000003604889,8|0,0:0|0:0,0:0:0:0:
151,187,78516,6,0,P|167:232|174:279,1,94.5000003604889,4|0,1:0|0:0,0:0:0:0:
60,351,78828,2,0,P|66:304|82:259,1,94.5000003604889,8|0,0:0|0:0,0:0:0:0:
171,180,79141,2,0,P|200:269|213:363,1,189.000000720978,8|8,0:0|0:0,0:0:0:0:
126,332,79609,1,0,0:0:0:0:
91,259,79766,6,0,P|87:212|73:166,1,94.5000003604889,4|2,3:0|0:0,0:0:0:0:
9,119,80078,2,0,P|13:72|27:26,1,94.5000003604889,8|2,0:0|0:0,0:0:0:0:
115,78,80391,2,0,L|208:68,1,94.5000003604889,8|2,0:0|0:0,0:0:0:0:
270,169,80703,2,0,L|176:159,1,94.5000003604889,8|0,0:0|0:0,0:0:0:0:
273,260,81016,5,4,1:0:0:0:
347,218,81172,1,2,0:0:0:0:
431,215,81328,2,0,P|460:252|471:297,1,94.5000003604889,8|2,0:0|0:0,0:0:0:0:
493,129,81641,1,8,0:0:0:0:
466,48,81797,1,2,0:0:0:0:
389,10,81953,2,0,P|343:23|308:53,1,94.5000003604889,8|2,0:0|0:0,0:0:0:0:
358,145,82266,5,8,3:0:0:0:
358,145,82422,1,8,3:0:0:0:
432,202,82578,1,8,3:0:0:0:
432,202,82734,1,8,3:0:0:0:
351,259,82891,5,8,3:0:0:0:
360,343,83047,1,10,3:0:0:0:
437,378,83203,2,0,P|458:383|483:384,3,47.2500001802444,8|2|2|2,3:0|0:0|0:0|0:0,0:0:0:0:
457,297,83516,6,0,L|489:111,1,189.000000720978,4|8,1:0|0:0,0:0:0:0:
427,51,83984,1,0,0:0:0:0:
353,94,84141,2,0,L|321:280,1,189.000000720978,0|8,1:0|0:0,0:0:0:0:
319,365,84609,1,0,0:0:0:0:
236,343,84766,6,0,P|188:342|132:313,2,94.5000003604889,4|2|8,3:0|0:0|0:0,0:0:0:0:
241,258,85234,1,2,0:0:0:0:
213,176,85391,2,0,L|198:82,1,94.5000003604889,8|2,0:0|0:0,0:0:0:0:
141,19,85703,2,0,P|97:0|50:-1,1,94.5000003604889,8|0,0:0|0:0,0:0:0:0:
76,88,86016,6,0,L|107:274,1,189.000000720978,4|8,1:0|0:0,0:0:0:0:
170,330,86484,1,0,0:0:0:0:
244,287,86641,2,0,L|213:101,1,189.000000720978,0|8,1:0|0:0,0:0:0:0:
299,81,87109,1,0,0:0:0:0:
350,152,87266,6,0,L|333:245,2,94.5000003604889,4|2|8,3:0|0:0|0:0,0:0:0:0:
366,57,87734,1,2,0:0:0:0:
281,71,87891,1,8,0:0:0:0:
237,143,88047,1,2,0:0:0:0:
153,126,88203,2,0,P|149:78|163:34,1,94.5000003604889,8|0,0:0|0:0,0:0:0:0:
288,63,88516,5,4,1:0:0:0:
312,144,88672,1,0,0:0:0:0:
339,224,88828,2,0,L|365:314,1,94.5000003604889,8|0,0:0|0:0,0:0:0:0:
294,362,89141,1,8,0:0:0:0:
211,345,89297,1,2,0:0:0:0:
128,324,89453,2,0,L|36:301,1,94.5000003604889,8|2,0:0|0:0,0:0:0:0:
0,221,89766,6,0,P|-1:175|15:130,1,94.5000003604889,4|0,3:0|0:0,0:0:0:0:
86,40,90078,2,0,P|102:84|102:131,1,94.5000003604889,8|2,0:0|0:0,0:0:0:0:
145,211,90391,1,8,0:0:0:0:
229,205,90547,1,2,0:0:0:0:
313,200,90703,2,0,P|329:243|329:290,1,94.5000003604889,8|0,0:0|0:0,0:0:0:0:
221,352,91016,5,4,1:0:0:0:
221,352,91172,1,2,0:0:0:0:
155,291,91328,2,0,P|177:249|217:227,1,94.5000003604889,8|2,0:0|0:0,0:0:0:0:
315,286,91641,1,8,0:0:0:0:
315,286,91797,1,2,0:0:0:0:
381,225,91953,2,0,P|359:183|319:161,1,94.5000003604889,8|2,0:0|0:0,0:0:0:0:
233,108,92266,5,8,3:0:0:0:
233,108,92422,1,8,3:0:0:0:
277,189,92578,1,8,3:0:0:0:
277,189,92734,1,10,3:0:0:0:
201,261,92891,6,0,P|178:264|155:264,3,47.2500001802444,8|2|2|2,3:0|0:0|0:0|0:0,0:0:0:0:
173,182,93203,2,0,P|150:179|127:179,3,47.2500001802444,8|2|2|2,3:0|0:0|0:0|0:0,0:0:0:0:
184,99,93516,6,0,P|114:95|47:114,1,140,4|8,1:0|0:0,0:0:0:0:
19,201,93984,1,0,0:0:0:0:
26,294,94141,2,0,P|57:312|91:321,1,70,0|0,1:1|0:0,0:0:0:0:
188,346,94453,2,0,P|218:327|252:318,1,70,8|0,0:0|0:0,0:0:0:0:
363,333,94766,6,0,P|403:279|370:221,2,140,4|8|0,3:0|0:0|1:1,0:0:0:0:
289,383,95547,1,0,0:0:0:0:
255,300,95703,2,0,L|244:230,1,70,8|0,0:0|0:0,0:0:0:0:
198,152,96016,6,0,P|267:150|336:137,1,140,4|8,1:0|0:0,0:0:0:0:
381,68,96484,1,0,0:0:0:0:
322,2,96641,2,0,P|301:31|293:65,1,70,0|2,1:1|0:0,0:0:0:0:
336,136,96953,1,8,0:0:0:0:
336,136,97109,1,0,0:0:0:0:
249,149,97266,6,0,P|205:95|208:27,1,140,4|8,3:0|0:0,0:0:0:0:
63,200,97891,2,0,P|130:189|188:224,1,140,0|8,1:1|0:0,0:0:0:0:
191,304,98359,1,0,0:0:0:0:
122,349,98516,6,0,P|110:316|113:281,1,70,4|0,1:0|0:0,0:0:0:0:
132,189,98828,2,0,P|143:157|141:122,1,70,8|2,0:0|0:0,0:0:0:0:
81,64,99141,1,0,1:1:0:0:
81,64,99297,1,2,0:0:0:0:
151,16,99453,2,0,P|186:18|220:26,1,70,8|0,0:0|0:0,0:0:0:0:
278,99,99766,6,0,P|209:115|140:121,1,140,4|8,1:0|0:0,0:0:0:0:
81,64,100234,1,2,0:0:0:0:
23,129,100391,2,0,P|20:164|32:197,1,70,0|0,1:1|0:0,0:0:0:0:
51,287,100703,2,0,P|53:322|41:355,1,70,8|0,0:0|0:0,0:0:0:0:
169,338,101016,6,0,P|226:377|295:383,1,140,4|8,1:0|0:0,0:0:0:0:
348,324,101484,1,0,0:0:0:0:
387,251,101641,2,0,P|353:241|317:245,1,70,0|0,1:1|0:0,0:0:0:0:
436,324,101953,2,0,P|467:307|491:282,1,70,8|0,0:0|0:0,0:0:0:0:
460,206,102266,2,0,L|422:146,1,70,4|2,3:0|0:0,0:0:0:0:
479,67,102578,6,0,L|498:0,1,70,8|2,0:0|0:0,0:0:0:0:
395,39,102891,2,0,P|363:55|342:82,1,70,0|2,1:0|0:0,0:0:0:0:
319,160,103203,2,0,P|288:145|267:118,1,70,10|2,0:0|0:0,0:0:0:0:
186,37,103516,6,0,P|170:105|186:173,1,140,4|8,1:0|0:0,0:0:0:0:
253,221,103984,1,2,0:0:0:0:
172,266,104141,2,0,P|139:253|113:229,1,70,0|2,1:1|0:0,0:0:0:0:
36,183,104453,2,0,P|61:160|94:148,1,70,8|2,0:0|0:0,0:0:0:0:
28,276,104766,5,4,3:0:0:0:
28,276,104922,1,0,0:0:0:0:
92,334,105078,2,0,L|158:357,1,70,10|2,0:0|0:0,0:0:0:0:
238,339,105391,2,0,L|304:315,1,70,0|2,1:1|0:0,0:0:0:0:
330,238,105703,2,0,L|264:214,1,70,10|2,0:0|0:0,0:0:0:0:
391,304,106016,6,0,B|415:271|415:271|423:172,1,140,4|8,1:0|0:0,0:0:0:0:
381,102,106484,1,2,0:0:0:0:
457,72,106641,2,0,P|481:98|495:130,1,70,0|0,1:1|0:0,0:0:0:0:
393,23,106953,2,0,P|368:49|354:81,1,70,8|0,0:0|0:0,0:0:0:0:
304,146,107266,6,0,L|234:137,1,70,4|2,3:0|0:0,0:0:0:0:
184,65,107578,2,0,P|152:125|167:191,1,140,10|0,0:0|1:0,0:0:0:0:
245,220,108047,1,2,0:0:0:0:
308,271,108203,2,0,P|280:292|246:303,1,70,10|0,0:0|0:0,0:0:0:0:
147,356,108516,6,0,P|133:288|80:244,1,140,4|8,1:0|0:0,0:0:0:0:
2,260,108984,1,2,0:0:0:0:
25,181,109141,2,0,P|56:167|91:161,1,70,0|0,1:1|0:0,0:0:0:0:
148,98,109453,2,0,P|116:83|81:78,1,70,8|0,0:0|0:0,0:0:0:0:
230,159,109766,6,0,P|299:149|363:119,1,140,4|8,3:0|0:0,0:0:0:0:
391,43,110234,1,2,0:0:0:0:
311,32,110391,2,0,P|277:36|245:50,1,70,0|2,1:1|0:0,0:0:0:0:
170,82,110703,2,0,P|136:77|104:63,1,70,8|2,0:0|0:0,0:0:0:0:
13,0,111016,6,0,L|24:139,1,140,4|8,1:0|0:0,0:0:0:0:
56,219,111484,1,0,0:0:0:0:
57,305,111641,2,0,L|51:374,1,70,0|2,1:1|0:0,0:0:0:0:
148,348,111953,2,0,L|142:279,1,70,8|0,0:0|0:0,0:0:0:0:
189,204,112266,6,0,L|215:181,3,35,4|2|2|2,3:0|0:0|0:0|0:0,0:0:0:0:
253,255,112578,2,0,L|279:233,3,35,4|2|2|2,3:0|0:0|0:0|0:0,0:0:0:0:
342,288,112891,2,0,L|368:311,3,35,4|2|2|2,3:0|0:0|0:0|0:0,0:0:0:0:
278,340,113203,2,0,L|304:362,3,35,4|2|2|2,3:0|0:0|0:0|0:0,0:0:0:0:
263,238,113516,6,0,P|325:199|406:230,1,157.500006008148,4|2,1:0|0:0,0:0:0:0:
447,306,114141,2,0,P|485:270|491:219,1,105.000004005432,0|0,1:0|0:0,0:0:0:0:
454,143,114609,1,0,0:0:0:0:
489,59,114766,2,0,P|414:56|367:116,1,157.500006008148,4|2,0:0|0:0,0:0:0:0:
354,211,115391,1,0,1:0:0:0:
251,82,115703,1,0,0:0:0:0:
373,0,116016,6,0,L|364:157,1,157.500006008148,4|2,0:0|0:0,0:0:0:0:
313,221,116641,2,0,P|295:201|284:177,1,52.5000020027161,8|0,1:0|0:0,0:0:0:0:
222,126,116953,2,0,P|211:150|193:169,1,52.5000020027161,8|8,3:0|3:0,0:0:0:0:
145,263,117266,6,0,P|220:254|273:308,1,157.500006008148,4|2,1:0|0:0,0:0:0:0:
228,377,117891,2,0,P|177:377|137:344,1,105.000004005432,0|0,1:0|0:0,0:0:0:0:
62,125,118516,6,0,B|44:203|44:203|57:280,1,157.500006008148,4|2,0:0|0:0,0:0:0:0:
145,250,119141,2,0,L|136:198,1,52.5000020027161,8|0,1:0|0:0,0:0:0:0:
178,128,119453,2,0,L|186:76,1,52.5000020027161
96,21,119766,6,0,P|43:74|55:149,1,157.500006008148,4|2,3:0|0:0,0:0:0:0:
138,203,120391,2,0,L|188:216,1,52.5000020027161,0|0,1:0|0:0,0:0:0:0:
270,173,120703,2,0,L|320:159,1,52.5000020027161
365,68,121016,6,0,B|312:61|312:61|263:75,1,105.000004005432,4|0,1:0|0:0,0:0:0:0:
171,89,121484,1,2,0:0:0:0:
189,192,121641,1,8,0:0:0:0:
189,192,121797,1,8,0:0:0:0:
260,260,121953,1,8,0:0:0:0:
260,260,122109,1,0,0:0:0:0:
298,367,122266,6,0,L|245:361,1,52.5000020027161,4|2,0:1|0:0,0:0:0:0:
182,311,122578,2,0,L|129:316,1,52.5000020027161,8|2,0:0|0:0,0:0:0:0:
40,328,122891,5,4,3:0:0:0:
27,239,123047,1,2,0:0:0:0:
116,226,123203,1,8,0:0:0:0:
129,315,123359,1,2,0:0:0:0:
256,192,123516,12,0,125703,0:0:0:0:
309,323,126016,6,0,P|247:254|155:249,1,189.000000720978,4|8,1:0|0:0,0:0:0:0:
321,161,126641,2,0,P|382:91|474:86,1,189.000000720978,0|8,1:0|0:0,0:0:0:0:
505,163,127109,1,0,0:0:0:0:
501,256,127266,6,0,P|457:270|410:273,1,94.5000003604889,4|0,3:0|0:0,0:0:0:0:
331,250,127578,2,0,P|287:236|240:233,1,94.5000003604889,8|2,0:0|0:0,0:0:0:0:
142,201,127891,1,8,0:0:0:0:
152,285,128047,1,2,0:0:0:0:
165,368,128203,2,0,P|210:383|258:384,1,94.5000003604889,8|0,0:0|0:0,0:0:0:0:
346,327,128516,6,0,B|366:290|366:290|327:148,1,189.000000720978,4|8,1:0|0:0,0:0:0:0:
167,22,129141,2,0,B|147:59|147:59|185:200,1,189.000000720978,0|8,1:0|0:0,0:0:0:0:
229,273,129609,1,0,0:0:0:0:
135,282,129766,6,0,P|103:249|91:203,2,94.5000003604889,4|2|8,3:0|0:0|0:0,0:0:0:0:
216,346,130234,1,2,0:0:0:0:
222,260,130391,1,8,0:0:0:0:
194,179,130547,1,2,0:0:0:0:
259,125,130703,2,0,P|287:161|295:207,1,94.5000003604889,8|0,0:0|0:0,0:0:0:0:
319,316,131016,6,0,L|431:281,1,94.5000003604889,4|0,1:0|0:0,0:0:0:0:
471,217,131328,2,0,L|359:182,1,94.5000003604889,8|0,0:0|0:0,0:0:0:0:
293,218,131641,2,0,L|310:30,1,189.000000720978,8|8,0:0|0:0,0:0:0:0:
219,43,132109,1,0,0:0:0:0:
151,108,132266,6,0,L|142:202,1,94.5000003604889,4|2,3:0|0:0,0:0:0:0:
53,258,132578,2,0,L|44:163,1,94.5000003604889,8|2,0:0|0:0,0:0:0:0:
141,291,132891,2,0,L|235:282,1,94.5000003604889,8|2,0:0|0:0,0:0:0:0:
174,384,133203,2,0,L|79:375,1,94.5000003604889,8|0,0:0|0:0,0:0:0:0:
266,371,133516,5,4,1:0:0:0:
348,349,133672,1,0,0:0:0:0:
434,365,133828,2,0,P|445:320|437:274,1,94.5000003604889,8|0,0:0|0:0,0:0:0:0:
308,267,134141,1,8,0:0:0:0:
282,185,134297,1,0,0:0:0:0:
329,116,134453,2,0,P|375:129|410:159,1,94.5000003604889,8|0,0:0|0:0,0:0:0:0:
473,243,134766,5,8,3:0:0:0:
473,243,134922,1,8,3:0:0:0:
494,139,135078,1,8,3:0:0:0:
494,139,135234,1,8,3:0:0:0:
421,45,135391,5,8,3:0:0:0:
340,18,135547,1,10,3:0:0:0:
249,22,135703,2,0,P|230:22|202:32,3,47.2500001802444,8|2|2|2,3:0|0:0|0:0|0:0,0:0:0:0:
247,108,136016,6,0,L|63:154,1,189.000000720978,4|8,1:0|0:0,0:0:0:0:
4,214,136484,1,0,0:0:0:0:
15,298,136641,2,0,L|198:251,1,189.000000720978,0|8,1:0|0:0,0:0:0:0:
278,223,137109,1,0,0:0:0:0:
344,283,137266,6,0,P|319:322|311:368,2,94.5000003604889,4|0|8,3:0|0:0|0:0,0:0:0:0:
407,226,137734,1,2,0:0:0:0:
350,163,137891,2,0,P|316:132|272:117,1,94.5000003604889,8|2,0:0|0:0,0:0:0:0:
269,212,138203,2,0,P|233:244|189:258,1,94.5000003604889,8|0,0:0|0:0,0:0:0:0:
128,161,138516,6,0,L|174:344,1,189.000000720978,4|8,1:0|0:0,0:0:0:0:
247,384,138984,1,0,0:0:0:0:
257,291,139141,2,0,L|73:337,1,189.000000720978,0|8,1:0|0:0,0:0:0:0:
4,384,139609,1,0,0:0:0:0:
5,273,139766,6,0,B|15:202|15:202|34:190,2,94.5000003604889,4|0|8,3:0|0:0|0:0,0:0:0:0:
80,331,140234,1,2,0:0:0:0:
160,303,140391,1,8,0:0:0:0:
224,358,140547,1,2,0:0:0:0:
307,340,140703,2,0,B|378:330|378:330|389:310,1,94.5000003604889,8|0,0:0|0:0,0:0:0:0:
465,247,141016,5,4,1:0:0:0:
435,167,141172,1,0,0:0:0:0:
401,88,141328,2,0,L|367:-1,1,94.5000003604889,8|0,0:0|0:0,0:0:0:0:
512,9,141641,1,8,0:0:0:0:
482,88,141797,1,0,0:0:0:0:
452,167,141953,2,0,L|418:256,1,94.5000003604889,8|0,0:0|0:0,0:0:0:0:
316,279,142266,6,0,P|282:246|269:201,1,94.5000003604889,4|2,3:0|0:0,0:0:0:0:
215,136,142578,2,0,P|249:103|262:58,1,94.5000003604889,8|2,0:0|0:0,0:0:0:0:
185,21,142891,1,8,0:0:0:0:
111,63,143047,1,2,0:0:0:0:
101,147,143203,2,0,P|114:191|147:224,1,94.5000003604889,8|0,0:0|0:0,0:0:0:0:
182,312,143516,5,4,1:0:0:0:
182,312,143672,1,2,0:0:0:0:
92,295,143828,2,0,P|48:276|2:268,1,94.5000003604889,8|2,0:0|0:0,0:0:0:0:
133,384,144141,1,8,0:0:0:0:
133,384,144297,1,2,0:0:0:0:
223,367,144453,2,0,P|266:348|312:340,1,94.5000003604889,8|2,0:0|0:0,0:0:0:0:
413,310,144766,5,8,3:0:0:0:
413,310,144922,1,8,3:0:0:0:
379,210,145078,1,8,3:0:0:0:
379,210,145234,1,8,3:0:0:0:
274,196,145391,6,0,P|262:176|257:153,3,47.2500001802444,8|2|2|2,3:0|0:0|0:0|0:0,0:0:0:0:
184,120,145703,2,0,P|195:99|211:83,3,47.2500001802444,8|2|2|2,3:0|0:0|0:0|0:0,0:0:0:0:
512,383,156016,6,0,P|493:315|453:259,1,140,8|8,3:0|3:0,0:0:0:0:
401,187,156484,1,0,0:0:0:0:
313,171,156641,2,0,P|278:176|247:192,1,70,8|8,3:0|0:0,0:0:0:0:
229,284,156953,2,0,P|194:278|163:262,1,70,8|8,3:0|0:0,0:0:0:0:
50,235,157266,6,0,P|68:167|108:110,1,140,8|8,3:0|3:0,0:0:0:0:
179,62,157734,1,0,3:0:0:0:
268,52,157891,2,0,P|302:57|332:75,2,70,8|0|8,3:0|0:0|3:0,0:0:0:0:
39,53,158516,6,0,P|57:120|98:177,1,140,8|8,3:0|3:0,0:0:0:0:
150,250,158984,1,0,0:0:0:0:
238,265,159141,2,0,P|272:259|303:243,1,70,8|8,3:0|0:0,0:0:0:0:
322,152,159453,2,0,P|356:157|387:173,1,70,8|8,3:0|0:0,0:0:0:0:
501,201,159766,6,0,P|482:268|442:325,1,140,8|8,3:0|3:0,0:0:0:0:
371,374,160234,1,0,0:0:0:0:
283,384,160391,2,0,P|248:378|218:360,2,70,8|0|8,3:0|0:0|3:0,0:0:0:0:
102,161,161016,6,0,P|120:228|161:285,1,140,8|8,3:0|3:0,0:0:0:0:
212,358,161484,1,0,0:0:0:0:
302,373,161641,2,0,P|336:367|367:351,1,70,8|8,3:0|0:0,0:0:0:0:
386,260,161953,2,0,P|420:265|451:281,1,70,8|8,3:0|0:0,0:0:0:0:
275,240,162266,6,0,P|256:172|216:115,1,140,8|8,3:0|3:0,0:0:0:0:
147,68,162734,1,0,0:0:0:0:
64,56,162891,2,0,P|29:61|-1:79,2,70,8|0|8,3:0|0:0|3:0,0:0:0:0:
280,20,163516,6,0,P|350:29|411:68,1,140,8|8,3:0|3:0,0:0:0:0:
343,131,163984,1,0,0:0:0:0:
252,143,164141,2,0,P|240:155|229:170,3,35,4|2|2|2,3:0|0:0|0:0|0:0,0:0:0:0:
202,65,164453,2,0,P|190:51|180:37,3,35,4|2|2|2,3:0|0:0|0:0|0:0,0:0:0:0:
150,135,164766,6,0,P|106:161|124:269,1,157.500006008148,4|0,1:0|2:0,0:0:0:0:
138,259,165391,2,0,P|163:306|156:355,1,105,4|0,1:0|2:0,0:0:0:0:
116,348,166016,6,0,P|167:333|217:345,1,105.000004005432,4|2,1:0|0:0,0:0:0:0:
289,384,166484,1,0,0:0:0:0:
287,301,166641,2,0,P|282:276|275:250,1,52.5000020027161,8|0,0:0|0:0,0:0:0:0:
349,213,166953,2,0,P|352:188|359:162,1,52.5000020027161,2|0,0:0|0:0,0:0:0:0:
377,73,167266,5,4,3:0:0:0:
377,73,167422,1,0,0:0:0:0:
446,126,167578,2,0,P|472:130|498:137,1,52.5000020027161,2|0,0:0|0:0,0:0:0:0:
359,162,167891,2,0,P|333:167|307:174,1,52.5000020027161,8|0,0:0|0:0,0:0:0:0:
272,100,168203,2,0,P|246:95|220:88,1,52.5000020027161,2|0,0:0|0:0,0:0:0:0:
164,160,168516,5,4,1:0:0:0:
164,160,168672,1,0,0:0:0:0:
98,226,168828,2,0,P|93:252|86:278,1,52.5000020027161,2|0,0:0|0:0,0:0:0:0:
63,129,169141,2,0,P|57:103|50:77,1,52.5000020027161,8|0,0:0|0:0,0:0:0:0:
136,72,169453,2,0,P|140:46|147:20,1,52.5000020027161,2|2,0:0|0:0,0:0:0:0:
230,77,169766,5,4,3:0:0:0:
230,77,169922,1,2,0:0:0:0:
276,165,170078,1,8,0:0:0:0:
276,165,170234,1,2,0:0:0:0:
224,245,170391,1,8,0:0:0:0:
224,245,170547,1,0,0:0:0:0:
269,333,170703,1,8,0:0:0:0:
269,333,170859,1,0,0:0:0:0:
316,252,171016,6,0,B|344:251|344:251|415:282,1,105.000004005432,4|8,1:0|0:0,0:0:0:0:
465,349,171484,2,0,P|481:330|492:306,2,52.5000020027161,0|8|0,0:0|0:0|0:0,0:0:0:0:
384,358,171953,1,8,0:0:0:0:
330,168,172266,6,0,B|302:167|302:167|231:197,1,105.000004005432,4|8,3:0|0:0,0:0:0:0:
217,278,172734,1,0,0:0:0:0:
298,274,172891,2,0,L|345:252,1,52.5000020027161,8|0,0:0|0:0,0:0:0:0:
408,196,173203,2,0,L|457:213,1,52.5000020027161,8|0,0:0|0:0,0:0:0:0:
396,114,173516,5,4,1:0:0:0:
396,114,173672,1,0,0:0:0:0:
492,134,173828,1,8,0:0:0:0:
492,134,173984,1,0,0:0:0:0:
443,47,174141,2,0,P|436:23|422:0,1,52.5000020027161,8|0,0:0|0:0,0:0:0:0:
345,44,174453,2,0,P|322:30|297:24,2,52.5000020027161,8|0|4,0:0|0:0|3:0,0:0:0:0:
382,154,174922,5,8,3:0:0:0:
318,216,175078,1,8,3:0:0:0:
228,213,175234,1,8,3:0:0:0:
186,137,175391,2,0,P|154:96|106:76,1,105,4|2,1:0|3:2,0:0:0:0:
24,94,176016,6,0,L|12:218,1,125.999996154785,4|8,1:0|0:0,0:0:0:0:
30,299,176484,1,0,0:0:0:0:
91,353,176641,2,0,P|119:363|150:367,1,62.9999980773926,8|2,0:0|0:0,0:0:0:0:
205,306,176953,2,0,P|234:293|264:291,1,62.9999980773926,8|2,0:0|0:0,0:0:0:0:
343,337,177266,6,0,L|353:212,1,125.999996154785,4|8,3:0|0:0,0:0:0:0:
308,143,177734,1,0,0:0:0:0:
226,133,177891,2,0,P|196:122|165:118,1,62.9999980773926,8|2,0:0|0:0,0:0:0:0:
84,108,178203,2,0,P|54:117|22:121,1,62.9999980773926,8|2,0:0|0:0,0:0:0:0:
139,45,178516,6,0,P|193:15|254:0,1,125.999996154785,4|8,1:0|0:0,0:0:0:0:
336,1,178984,1,0,0:0:0:0:
414,24,179141,2,0,L|400:84,1,62.9999980773926,8|2,0:0|0:0,0:0:0:0:
377,164,179453,2,0,L|389:226,1,62.9999980773926,8|2,0:0|0:0,0:0:0:0:
338,296,179766,6,0,P|306:291|276:283,1,62.9999980773926,4|0,3:0|0:0,0:0:0:0:
433,298,180078,2,0,P|460:283|490:273,1,62.9999980773926,8|0,0:0|0:0,0:0:0:0:
384,378,180391,2,0,P|289:375|201:344,1,188.999994232178,8|2,0:0|0:0,0:0:0:0:
108,354,181016,6,0,L|122:228,1,125.999996154785,4|8,1:0|0:0,0:0:0:0:
209,181,181484,2,0,P|240:184|269:196,2,62.9999980773926,2|8|0,0:0|0:0|0:0,0:0:0:0:
188,91,181953,2,0,P|158:100|127:105,1,62.9999980773926,4|0,0:0|0:0,0:0:0:0:
35,154,182266,6,0,L|19:29,1,125.999996154785,8|8,0:0|0:0,0:0:0:0:
110,7,182734,1,0,0:0:0:0:
199,32,182891,2,0,P|191:62|176:90,1,62.9999980773926,8|0,0:0|0:0,0:0:0:0:
127,160,183203,1,8,0:0:0:0:
127,160,183359,1,0,0:0:0:0:
122,262,183516,6,0,P|136:289|158:312,1,62.9999980773926,4|2,1:0|0:0,0:0:0:0:
253,369,183828,2,0,P|274:346|288:317,1,62.9999980773926,8|2,0:0|0:0,0:0:0:0:
348,236,184141,2,0,P|370:258|384:285,1,62.9999980773926,8|2,0:0|0:0,0:0:0:0:
265,183,184453,2,0,P|249:210|228:233,1,62.9999980773926,8|2,0:0|0:0,0:0:0:0:
237,99,184766,5,8,3:0:0:0:
319,113,184922,1,8,3:0:0:0:
401,127,185078,1,8,3:0:0:0:
485,141,185234,1,8,3:0:0:0:
512,127,185391,6,0,L|408:108,1,105,4|2,1:0|2:3,0:0:0:0:
285,51,186016,6,0,P|337:0|406:2,1,140,4|8,1:0|0:0,0:0:0:0:
370,88,186484,2,0,L|363:157,2,70,0|8|2,0:0|0:0|0:0,0:0:0:0:
449,112,186953,2,0,L|443:182,1,70,8|2,0:0|0:0,0:0:0:0:
512,242,187266,6,0,P|453:275|388:256,1,140,4|8,3:0|0:0,0:0:0:0:
304,211,187734,1,0,0:0:0:0:
256,306,187891,2,0,P|285:324|319:330,1,70,8|2,0:0|2:0,0:0:0:0:
215,222,188203,2,0,P|181:227|151:245,1,70,8|2,0:0|2:0,0:0:0:0:
113,338,188516,6,0,L|99:198,1,140,4|8,1:0|0:0,0:0:0:0:
141,129,188984,1,0,0:0:0:0:
60,120,189141,2,0,P|32:140|12:170,1,70,8|2,0:0|0:0,0:0:0:0:
107,52,189453,2,0,P|88:24|61:2,1,70,8|2,0:0|0:0,0:0:0:0:
141,129,189766,6,0,P|209:110|270:76,1,140,4|4,3:0|3:0,0:0:0:0:
307,3,190234,1,0,0:0:0:0:
350,72,190391,2,0,P|412:106|479:125,1,140,4|4,3:0|3:0,0:0:0:0:
512,51,190859,1,0,0:0:0:0:
424,80,191016,6,0,P|410:148|402:218,1,140,4|8,1:0|0:0,0:0:0:0:
467,267,191484,2,0,P|455:299|424:312,2,70,0|8|0,0:0|0:0|0:0,0:0:0:0:
402,218,191953,2,0,P|368:228|333:232,1,70,8|0,0:0|0:0,0:0:0:0:
278,305,192266,6,0,L|267:374,1,70,4|0,0:0|0:0,0:0:0:0:
203,274,192578,2,0,L|192:204,1,70,8|2,0:0|0:0,0:0:0:0:
267,174,192891,2,8,L|277:104,1,70,8|0,0:0|0:0,0:0:0:0:
202,74,193203,2,0,L|191:4,1,70,8|2,0:0|0:0,0:0:0:0:
81,0,193516,5,4,1:0:0:0:
67,82,193672,1,2,0:0:0:0:
54,165,193828,2,0,L|43:235,1,70,8|2,0:0|0:0,0:0:0:0:
146,150,194141,1,8,0:0:0:0:
160,232,194297,1,2,0:0:0:0:
173,315,194453,2,0,L|184:385,1,70,8|2,0:0|0:0,0:0:0:0:
86,348,194766,6,0,P|52:354|23:373,1,70,8|8,3:0|3:0,0:0:0:0:
70,252,195078,2,0,P|41:234|7:227,1,70,8|8,3:0|3:0,0:0:0:0:
164,269,195391,2,0,P|179:258|196:254,3,35,4|2|2|2,3:0|0:0|0:0|0:0,0:0:0:0:
167,354,195703,2,0,P|184:359|199:368,3,35,4|2|2|2,3:0|0:0|0:0|0:0,0:0:0:0:
209,283,196016,6,0,P|249:303|279:334,1,87.5,4|0,1:0|0:0,0:0:0:0:
376,342,196328,2,0,P|365:300|340:264,1,87.5,8|0,0:0|0:0,0:0:0:0:
292,186,196641,2,0,P|301:144|325:108,1,87.5,8|0,0:0|0:0,0:0:0:0:
389,179,196953,2,0,P|418:148|457:129,1,87.5,8|0,0:0|0:0,0:0:0:0:
511,218,197266,6,0,P|471:238|441:269,1,87.5,4|0,3:0|0:0,0:0:0:0:
351,272,197578,2,0,P|360:230|384:194,1,87.5,8|0,0:0|0:0,0:0:0:0:
442,113,197891,2,0,P|430:70|406:34,1,87.5,8|0,0:0|0:0,0:0:0:0:
340,111,198203,2,0,P|309:79|270:60,1,87.5,8|0,0:0|0:0,0:0:0:0:
172,37,198516,6,0,L|189:211,1,175,4|8,1:0|0:0,0:0:0:0:
231,282,198984,1,0,0:0:0:0:
150,283,199141,2,0,P|116:255|103:214,1,87.5,8|0,0:0|0:0,0:0:0:0:
46,140,199453,2,0,P|32:182|0:209,1,87.5,8|0,0:0|0:0,0:0:0:0:
17,300,199766,6,0,P|82:357|166:382,1,175,4|8,3:0|0:0,0:0:0:0:
226,327,200234,1,0,0:0:0:0:
288,379,200391,2,0,P|372:353|437:296,1,175,8|8,0:0|0:0,0:0:0:0:
430,216,200859,1,2,0:0:0:0:
391,142,201016,6,0,P|360:171|347:212,1,87.5,4|0,1:0|0:0,0:0:0:0:
295,276,201328,1,8,0:0:0:0:
268,199,201484,2,0,P|254:157|223:127,2,87.5,0|8|0,0:0|0:0|0:0,0:0:0:0:
215,261,201953,1,8,0:0:0:0:
131,51,202266,6,0,P|203:7|286:25,1,175,4|8,1:0|0:0,0:0:0:0:
315,103,202734,1,2,0:0:0:0:
391,125,202891,2,0,P|393:81|371:44,1,87.5,8|0,0:0|0:0,0:0:0:0:
334,182,203203,2,0,P|312:218|312:261,1,87.5,8|0,0:0|0:0,0:0:0:0:
351,347,203516,5,4,1:0:0:0:
426,367,203672,1,2,0:0:0:0:
503,379,203828,2,0,P|514:338|503:296,1,87.5,8|2,0:0|0:0,0:0:0:0:
494,172,204141,1,8,0:0:0:0:
418,194,204297,1,2,0:0:0:0:
343,218,204453,2,0,P|331:176|341:134,1,87.5,8|0,0:0|0:0,0:0:0:0:
395,32,204766,5,8,3:0:0:0:
322,15,204922,1,8,3:0:0:0:
253,45,205078,1,8,3:0:0:0:
214,108,205234,1,8,3:0:0:0:
215,185,205391,2,0,P|192:187|171:185,3,43.75,4|2|2|2,3:0|0:0|0:0|0:0,0:0:0:0:
211,264,205703,2,0,P|188:265|167:263,3,43.75,4|2|2|2,3:0|0:0|0:0|0:0,0:0:0:0:
245,340,206016,6,0,P|152:348|62:320,1,189.000000720978,4|8,1:0|0:0,0:0:0:0:
20,245,206484,1,0,0:0:0:0:
32,156,206641,2,0,P|126:164|216:136,1,189.000000720978,0|8,1:0|0:0,0:0:0:0:
259,64,207109,1,0,0:0:0:0:
145,92,207266,6,0,L|134:185,2,94.5000003604889,4|2|8,3:0|0:0|0:0,0:0:0:0:
74,18,207734,1,2,0:0:0:0:
22,86,207891,1,8,0:0:0:0:
48,166,208047,1,2,0:0:0:0:
3,238,208203,2,0,L|13:331,1,94.5000003604889,8|0,0:0|0:0,0:0:0:0:
116,313,208516,6,0,P|207:293|302:295,1,189.000000720978,4|8,1:0|0:0,0:0:0:0:
356,373,208984,1,0,0:0:0:0:
451,337,209141,2,0,P|368:294|276:272,1,189.000000720978,0|8,1:0|0:0,0:0:0:0:
205,331,209609,1,0,0:0:0:0:
181,226,209766,6,0,P|185:179|199:135,2,94.5000003604889,8|2|8,3:0|0:0|3:0,0:0:0:0:
284,252,210234,1,2,0:0:0:0:
284,252,210391,1,8,3:0:0:0:
376,196,210547,1,8,3:0:0:0:
376,196,210703,2,0,P|372:149|356:105,1,94.5000003604889,12|0,3:0|0:0,0:0:0:0:
279,35,211016,5,4,1:0:0:0:
205,52,211172,1,0,0:0:0:0:
132,72,211328,2,0,L|40:94,1,94.5000003604889,8|0,0:0|0:0,0:0:0:0:
0,193,211641,1,8,0:0:0:0:
74,210,211797,1,0,0:0:0:0:
147,230,211953,2,0,L|239:252,1,94.5000003604889,8|0,0:0|0:0,0:0:0:0:
352,224,212266,6,0,P|352:271|340:316,1,94.5000003604889,4|2,3:0|0:0,0:0:0:0:
253,375,212578,2,0,P|240:329|241:282,1,94.5000003604889,8|2,0:0|0:0,0:0:0:0:
269,204,212891,1,8,0:0:0:0:
193,182,213047,1,2,0:0:0:0:
114,171,213203,2,0,P|79:203|55:243,1,94.5000003604889,8|2,0:0|0:0,0:0:0:0:
59,107,213516,6,0,P|38:66|7:30,1,94.5000003604889,4|2,1:0|0:0,0:0:0:0:
110,0,213828,2,0,P|131:42|141:89,1,94.5000003604889,8|0,0:0|0:0,0:0:0:0:
228,90,214141,2,0,P|244:45|273:8,1,94.5000003604889,8|2,0:0|0:0,0:0:0:0:
370,56,214453,2,0,P|332:84|304:122,1,94.5000003604889,8|2,0:0|0:0,0:0:0:0:
361,220,214766,5,8,3:0:0:0:
361,220,214922,1,8,3:0:0:0:
443,141,215078,1,8,3:0:0:0:
443,141,215234,1,8,3:0:0:0:
417,26,215391,6,0,P|376:5|329:0,1,94.5000003604889,8|10,3:0|3:0,0:0:0:0:
302,96,215703,2,0,P|326:93|347:82,3,47.2500001802444,4|2|2|2,3:0|0:0|0:0|0:0,0:0:0:0:
230,62,216016,6,0,P|223:155|271:235,1,189.000000720978,4|8,1:0|0:0,0:0:0:0:
352,216,216484,1,0,0:0:0:0:
331,307,216641,2,0,P|324:214|372:134,1,189.000000720978,0|8,1:0|0:0,0:0:0:0:
453,154,217109,1,0,0:0:0:0:
508,216,217266,6,0,P|501:262|482:305,2,94.5000003604889,4|0|8,3:0|0:0|0:0,0:0:0:0:
453,154,217734,1,2,0:0:0:0:
483,74,217891,1,8,0:0:0:0:
421,14,218047,1,2,0:0:0:0:
336,8,218203,2,0,P|308:45|291:90,1,94.5000003604889,8|0,0:0|0:0,0:0:0:0:
361,189,218516,6,0,B|319:205|319:205|190:140,1,189.000000720978,4|8,1:0|0:0,0:0:0:0:
98,131,218984,1,0,0:0:0:0:
120,41,219141,2,0,B|162:25|162:25|291:89,1,189.000000720978,0|8,1:0|0:0,0:0:0:0:
276,173,219609,1,0,0:0:0:0:
225,244,219766,6,0,P|192:278|150:300,2,94.5000003604889,4|2|8,3:0|0:0|0:0,0:0:0:0:
144,167,220234,1,2,0:0:0:0:
71,246,220391,1,8,3:0:0:0:
34,148,220547,1,12,3:3:0:0:
57,271,220703,2,0,P|72:315|72:363,1,94.5000003604889,4|0,3:0|0:0,0:0:0:0:
193,365,221016,5,4,3:0:0:0:
284,342,221172,1,2,0:0:0:0:
374,315,221328,2,0,P|385:269|391:222,1,94.5000003604889,8|2,3:0|0:0,0:0:0:0:
311,102,221641,1,8,3:0:0:0:
402,77,221797,1,2,0:0:0:0:
487,116,221953,1,8,3:0:0:0:
507,208,222109,1,2,0:0:0:0:
463,292,222266,6,0,P|457:338|445:384,1,94.5000003604889,4|2,3:0|0:0,0:0:0:0:
337,325,222578,2,0,P|325:279|319:232,1,94.5000003604889,8|2,3:0|0:0,0:0:0:0:
244,180,222891,1,8,3:0:0:0:
264,87,223047,1,2,0:0:0:0:
291,1,223203,2,0,P|335:15|372:44,1,94.5000003604889,8|2,3:0|0:0,0:0:0:0:
212,20,223516,6,0,P|175:49|130:63,1,94.5000003604889,4|2,1:0|0:0,0:0:0:0:
0,93,223828,2,0,P|36:122|81:137,1,94.5000003604889,8|2,0:0|0:0,0:0:0:0:
191,186,224141,2,0,P|147:203|114:237,1,94.5000003604889,4|2,1:0|0:0,0:0:0:0:
27,291,224453,2,0,P|70:308|103:342,1,94.5000003604889,8|2,0:0|0:0,0:0:0:0:
233,370,224766,5,8,3:0:0:0:
200,276,224922,1,8,3:0:0:0:
315,365,225078,2,0,P|356:340|402:330,1,94.5000003604889,8|8,3:0|3:0,0:0:0:0:
479,259,225391,6,0,P|438:234|392:224,1,94.5000003604889,8|8,3:0|3:0,0:0:0:0:
213,265,225703,1,8,3:0:0:0:
