osu file format v14

[General]
AudioFilename: audio.mp3
AudioLeadIn: 0
PreviewTime:114042
Countdown: 0
SampleSet: Soft
StackLeniency: 0.7
Mode: 0
LetterboxInBreaks: 0
WidescreenStoryboard: 1

[Editor]
Bookmarks: 13759,24367,34975,46908,57516,70776,81384,91991,102599,114533,135748,141052,146356,156964,178179,199395
DistanceSpacing: 1.1
BeatDivisor: 3
GridSize: 8
TimelineZoom: 1.6

[Metadata]
Title:HANIPAGANDA
TitleUnicode:HANIPAGANDA
Artist:Akatsuki Records
ArtistUnicode:暁Records
Creator:Night Mare
Version:NORMAL
Source:東方鬼形獣 ~ Wily Beast and Weakest Creature.
Tags:luna zelq frozz -keqing Stack Bros. 杖刀偶 磨弓 Joutouguu Mayumi Touhou Project Kikeijuu 2hu c97 video game セラミックスの杖刀人 Joutounin of Ceramics ZUN Team Shangai Alice 上海アリス幻樂団 japanese female vocal cafuu haniwa propaganda rock comiket wbawc th17
BeatmapID:2269967
BeatmapSetID:1083844

[Difficulty]
HPDrainRate:3
CircleSize:3
OverallDifficulty:4
ApproachRate:6
SliderMultiplier:0.999999999999999
SliderTickRate:1

[Events]
//Background and Video events
0,0,"image.jpg",0,0
Video,-950,"video.mp4"
//Break Periods
2,24574,33850
2,92198,101474
//Storyboard Layer 0 (Background)
//Storyboard Layer 1 (Fail)
//Storyboard Layer 2 (Pass)
//Storyboard Layer 3 (Foreground)
//Storyboard Layer 4 (Overlay)
//Storyboard Sound Samples

[TimingPoints]
3152,331.491712707182,4,2,1,60,1,0
3483,-111.111111111111,4,2,1,60,0,0
13925,-105.263157894737,4,2,1,60,0,0
14256,-105.263157894737,4,2,1,70,0,0
18732,-105.263157894737,4,2,2,70,0,0
19063,-105.263157894737,4,2,1,70,0,0
24035,-105.263157894737,4,2,2,70,0,0
24367,-105.263157894737,4,2,2,50,0,0
34975,-105.263157894737,4,2,2,65,0,0
39616,-105.263157894737,4,2,1,65,0,0
42931,-105.263157894737,4,2,1,70,0,0
45582,-105.263157894737,4,2,1,40,0,0
46908,-100,4,2,1,80,0,1
48566,-100,4,2,2,80,0,1
48897,-100,4,2,1,80,0,1
49008,-100,4,2,2,80,0,1
49118,-100,4,2,1,80,0,1
49228,-100,4,2,2,80,0,1
49560,-100,4,2,1,80,0,1
51328,-100,4,2,2,80,0,1
51439,-100,4,2,1,80,0,1
53870,-100,4,2,2,80,0,1
54201,-100,4,2,1,80,0,1
54312,-100,4,2,2,80,0,1
54422,-100,4,2,1,80,0,1
54532,-100,4,2,2,80,0,1
54864,-100,4,2,1,80,0,1
57516,-105.263157894737,4,2,2,75,0,0
57626,-105.263157894737,4,2,1,75,0,0
62488,-105.263157894737,4,2,2,75,0,0
62598,-105.263157894737,4,2,1,75,0,0
68124,-105.263157894737,4,2,1,65,0,0
68786,-105.263157894737,4,2,2,65,0,0
69118,-105.263157894737,4,2,1,65,0,0
69450,-105.263157894737,4,2,1,55,0,0
70776,-105.263157894737,4,2,3,65,0,0
70942,-111.111111111111,4,2,1,65,0,0
81384,-105.263157894737,4,2,1,70,0,0
91991,-105.263157894737,4,2,2,50,0,0
102599,-105.263157894737,4,2,2,65,0,0
107240,-105.263157894737,4,2,1,65,0,0
113207,-105.263157894737,4,2,1,40,0,0
114533,-100,4,2,1,80,0,1
116190,-100,4,2,2,80,0,1
116522,-100,4,2,1,80,0,1
116632,-100,4,2,2,80,0,1
116743,-100,4,2,1,80,0,1
116853,-100,4,2,2,80,0,1
117185,-100,4,2,1,80,0,1
118953,-100,4,2,2,80,0,1
119063,-100,4,2,1,80,0,1
121494,-100,4,2,2,80,0,1
121826,-100,4,2,1,80,0,1
121936,-100,4,2,2,80,0,1
122047,-100,4,2,1,80,0,1
122157,-100,4,2,2,80,0,1
122489,-100,4,2,1,80,0,1
124809,-100,4,2,1,80,0,0
125140,-95.2380952380952,4,2,1,85,0,1
126798,-95.2380952380952,4,2,2,85,0,1
127129,-95.2380952380952,4,2,1,85,0,1
127240,-95.2380952380952,4,2,2,85,0,1
127350,-95.2380952380952,4,2,1,85,0,1
127460,-95.2380952380952,4,2,2,85,0,1
127792,-95.2380952380952,4,2,1,85,0,1
129560,-95.2380952380952,4,2,2,85,0,1
129671,-95.2380952380952,4,2,1,85,0,1
132102,-95.2380952380952,4,2,2,85,0,1
132433,-95.2380952380952,4,2,1,85,0,1
132544,-95.2380952380952,4,2,2,85,0,1
132654,-95.2380952380952,4,2,1,85,0,1
132764,-95.2380952380952,4,2,2,85,0,1
133096,-95.2380952380952,4,2,1,85,0,1
135748,-105.263157894737,4,2,2,70,0,0
135859,-105.263157894737,4,2,1,70,0,0
137074,-105.263157894737,4,2,1,65,0,0
138400,-105.263157894737,4,2,1,70,0,0
139726,-105.263157894737,4,2,1,65,0,0
141052,-100,4,2,1,75,0,0
142267,-100,4,2,2,75,0,0
143482,-100,4,2,1,75,0,0
143704,-100,4,2,1,80,0,1
144367,-95.2380952380952,4,2,1,80,0,1
145693,-90.9090909090909,4,2,1,90,0,1
146356,-100,4,2,2,75,0,0
146576,-100,4,2,1,75,0,0
151328,-100,4,2,2,75,0,0
151438,-100,4,2,1,75,0,0
156964,-100,4,2,1,65,0,0
157627,-105.263157894737,4,2,1,65,0,0
158621,-105.263157894737,4,2,2,65,0,0
160720,-105.263157894737,4,2,1,65,0,0
163925,-105.263157894737,4,2,2,65,0,0
166023,-105.263157894737,4,2,1,65,0,0
169229,-105.263157894737,4,2,2,65,0,0
170886,-105.263157894737,4,2,1,65,0,0
174533,-105.263157894737,4,2,2,65,0,0
176190,-105.263157894737,4,2,1,65,0,0
176853,-105.263157894737,4,2,1,50,0,0
177185,-105.263157894737,4,2,1,60,0,0
177516,-105.263157894737,4,2,1,70,0,0
177848,-105.263157894737,4,2,1,80,0,0
178179,-100,4,2,1,85,0,1
179837,-100,4,2,2,85,0,1
180168,-100,4,2,1,85,0,1
180279,-100,4,2,2,85,0,1
180389,-100,4,2,1,85,0,1
180499,-100,4,2,2,85,0,1
180831,-100,4,2,1,85,0,1
182599,-100,4,2,2,85,0,1
182710,-100,4,2,1,85,0,1
185140,-100,4,2,2,85,0,1
185472,-100,4,2,1,85,0,1
185582,-100,4,2,2,85,0,1
185693,-100,4,2,1,85,0,1
185803,-100,4,2,2,85,0,1
186135,-100,4,2,1,85,0,1
188455,-100,4,2,1,85,0,0
188787,-95.2380952380952,4,2,1,90,0,1
190444,-95.2380952380952,4,2,2,90,0,1
190776,-95.2380952380952,4,2,1,90,0,1
190886,-95.2380952380952,4,2,2,90,0,1
190997,-95.2380952380952,4,2,1,90,0,1
191107,-95.2380952380952,4,2,2,90,0,1
191439,-95.2380952380952,4,2,1,90,0,1
193207,-95.2380952380952,4,2,2,90,0,1
193317,-95.2380952380952,4,2,1,90,0,1
195748,-95.2380952380952,4,2,2,90,0,1
196080,-95.2380952380952,4,2,1,90,0,1
196190,-95.2380952380952,4,2,2,90,0,1
196301,-95.2380952380952,4,2,1,90,0,1
196411,-95.2380952380952,4,2,2,90,0,1
196743,-90.9090909090909,4,2,1,90,0,1
198069,-90.9090909090909,4,2,1,95,0,1
199395,-90.9090909090909,4,2,1,95,0,0

[Colours]
Combo1 : 184,98,255
Combo2 : 255,255,128
Combo3 : 255,184,17
Combo4 : 255,128,128
Combo5 : 95,234,174
Combo6 : 62,255,80

[HitObjects]
79,192,3152,85,4,3:0:0:0:
0,252,3483,2,0,P|-5:296|14:336,1,90,8|8,2:0|1:2,2:0:0:0:
101,384,4146,1,0,3:0:0:0:
183,329,4477,2,0,L|271:344,2,90,0|8|8,3:0|2:0|1:2,2:0:0:0:
69,197,5803,38,0,L|76:152,1,45,4|0,3:0|1:0,2:0:0:0:
48,110,6135,2,0,L|55:65,1,45,8|0,1:2|1:0,2:0:0:0:
87,28,6466,1,8,1:2:0:0:
182,0,6798,1,0,3:0:0:0:
261,58,7129,2,0,P|304:63|344:43,2,90,0|8|8,3:0|2:0|2:0,2:0:0:0:
170,98,8124,2,0,L|177:142,1,45,8|8,1:2|2:0,2:0:0:0:
190,190,8455,37,4,3:0:0:0:
283,223,8787,2,0,L|371:207,1,90,8|8,2:0|1:2,2:0:0:0:
444,139,9450,1,0,3:0:0:0:
356,93,9781,2,0,P|350:48|369:9,2,90,4|8|8,3:0|2:0|1:2,2:0:0:0:
465,234,11107,38,0,L|456:281,1,45,4|0,3:0|1:0,2:0:0:0:
476,324,11439,2,0,L|436:351,1,45,8|0,1:2|1:0,2:0:0:0:
393,370,11770,1,8,1:2:0:0:
311,313,12102,1,0,3:0:0:0:
234,375,12433,2,0,P|190:381|150:361,1,90,4|8,3:0|2:0,2:0:0:0:
54,335,13096,2,0,B|28:297|28:297|46:195,1,135,8|8,2:0|2:0,2:0:0:0:
37,160,13759,37,4,3:2:0:0:
40,155,13925,2,0,P|82:134|128:144,1,94.9999999999998,10|2,1:2|1:2,2:0:0:0:
168,178,14422,1,10,1:2:0:0:
237,109,14754,1,10,1:2:0:0:
321,170,15085,2,0,L|312:216,2,47.4999999999999,10|10|2,1:2|1:2|2:0,2:0:0:0:
406,109,15748,2,0,L|397:59,2,47.4999999999999,10|2|10,1:2|2:0|3:2,2:0:0:0:
492,170,16411,37,0,3:0:0:0:
496,175,16577,2,0,L|478:271,1,94.9999999999998,10|2,1:2|1:2,2:0:0:0:
469,319,17074,1,10,1:2:0:0:
386,384,17406,1,10,1:2:0:0:
297,329,17737,2,0,L|243:337,2,47.4999999999999,10|10|2,1:2|1:2|2:0,2:0:0:0:
368,252,18400,1,10,1:2:0:0:
293,178,18732,2,0,L|300:128,1,47.4999999999999,2|2,3:2|3:2,2:0:0:0:
321,83,19063,37,12,3:2:0:0:
317,78,19229,2,0,P|276:56|229:61,1,94.9999999999998,10|2,1:2|1:2,2:0:0:0:
189,97,19726,1,10,1:2:0:0:
118,19,20058,1,10,1:2:0:0:
46,94,20389,2,0,L|-1:85,2,47.4999999999999,10|10|2,1:2|1:2|2:0,2:0:0:0:
133,151,21052,2,0,L|179:142,2,47.4999999999999,10|2|10,1:2|2:0|3:2,2:0:0:0:
35,188,21715,37,8,3:2:0:0:
31,193,21881,2,0,L|48:294,1,94.9999999999998,10|10,1:2|1:2,2:0:0:0:
55,338,22378,1,10,1:2:0:0:
150,384,22710,1,10,1:2:0:0:
230,317,23041,2,0,L|277:325,2,47.4999999999999,10|2|2,1:2|3:2|2:0,2:0:0:0:
153,245,23704,2,0,L|161:198,1,47.4999999999999,10|2,1:2|3:2,2:0:0:0:
137,151,24035,2,0,L|175:123,1,47.4999999999999,10|8,3:2|3:2,2:0:0:0:
200,76,24367,37,6,2:0:0:0:
465,208,34975,38,0,P|478:252|465:297,1,94.9999999999998,6|8,1:2|1:2,2:0:0:0:
391,371,35638,2,0,L|297:354,1,94.9999999999998,2|8,1:2|1:2,2:0:0:0:
236,269,36301,2,0,L|142:285,1,94.9999999999998,2|8,1:2|1:2,2:0:0:0:
39,306,36964,1,2,1:2:0:0:
0,209,37295,1,10,1:2:0:0:
8,104,37627,38,0,P|49:83|96:88,1,94.9999999999998,2|8,1:2|1:2,2:0:0:0:
194,124,38290,2,0,P|240:129|282:108,1,94.9999999999998,2|8,1:2|1:2,2:0:0:0:
321,10,38953,2,0,L|431:29,1,94.9999999999998,2|8,1:2|1:2,2:0:0:0:
511,65,39616,1,2,3:2:0:0:
466,159,39947,1,10,1:2:0:0:
504,256,40279,38,0,B|523:283|523:283|512:343,1,94.9999999999998,2|8,1:2|1:2,2:0:0:0:
412,377,40942,2,0,P|365:382|323:361,1,94.9999999999998,2|8,1:2|1:2,2:0:0:0:
223,329,41605,2,0,L|239:235,1,94.9999999999998,2|8,1:2|1:2,2:0:0:0:
221,132,42268,1,2,1:2:0:0:
297,61,42599,1,10,1:2:0:0:
211,0,42931,38,0,P|164:-5|122:15,1,94.9999999999998,10|8,3:2|3:2,2:0:0:0:
46,87,43593,1,10,3:2:0:0:
98,177,43925,1,8,3:2:0:0:
7,228,44256,2,0,L|23:321,1,94.9999999999998,10|8,3:2|3:2,2:0:0:0:
108,384,44919,2,0,L|154:375,1,47.4999999999999,10|0,3:2|1:0,2:0:0:0:
197,345,45251,2,0,L|243:353,1,47.4999999999999,8|2,3:2|1:2,2:0:0:0:
294,366,45582,37,10,2:0:0:0:
308,384,46908,54,0,L|319:314,1,66.6666666666666,6|2,3:2|3:2,2:0:0:0:
340,288,47240,2,0,L|327:218,1,66.6666666666666,10|2,3:2|3:2,2:0:0:0:
322,186,47571,2,0,P|288:202|251:198,2,66.6666666666666,2|2|2,3:2|3:2|3:2,2:0:0:0:
377,136,48234,1,2,3:2:0:0:
403,29,48566,1,10,3:2:0:0:
295,49,48897,2,0,L|196:31,1,99.9999999999999,10|2,3:2|3:2,2:0:0:0:
84,0,49560,6,0,P|57:20|41:58,1,66.6666666666666,2|2,3:2|2:0,2:0:0:0:
16,75,49892,2,0,P|3:106|12:140,1,66.6666666666666,10|2,3:2|2:0,2:0:0:0:
37,162,50223,2,0,B|48:231|-21:212|3:306,1,133.333333333333,10|10,3:2|3:2,2:0:0:0:
10,356,50886,1,2,3:2:0:0:
117,384,51218,2,0,L|215:366,1,99.9999999999999,10|2,3:2|3:2,2:0:0:0:
321,344,51881,1,10,3:2:0:0:
424,384,52212,70,0,L|435:318,1,66.6666666666666,6|2,3:2|2:0,2:0:0:0:
469,302,52544,2,0,L|455:236,1,66.6666666666666,10|2,3:2|3:2,2:0:0:0:
467,201,52875,2,0,L|377:185,2,66.6666666666666,2|2|2,3:2|3:2|3:2,2:0:0:0:
512,143,53538,1,2,3:2:0:0:
424,75,53870,1,10,3:2:0:0:
328,130,54201,2,0,P|305:173|311:221,1,99.9999999999999,10|2,3:2|3:2,2:0:0:0:
405,274,54864,6,0,P|405:298|383:339,1,66.6666666666666,2|2,3:2|2:0,2:0:0:0:
365,366,55196,2,0,P|343:378|299:377,1,66.6666666666666,10|2,3:2|2:0,2:0:0:0:
275,352,55527,2,0,B|171:334|171:334|134:360,1,133.333333333333,10|10,3:2|3:2,2:0:0:0:
82,384,56190,1,10,3:2:0:0:
0,312,56522,1,10,3:2:0:0:
21,204,56853,2,0,L|37:109,1,66.6666666666666,10|10,3:2|3:2,2:0:0:0:
52,107,57185,2,0,L|40:38,1,66.6666666666666,10|0,3:2|2:0,2:0:0:0:
29,8,57516,70,0,P|69:30|115:23,1,94.9999999999998,14|0,1:2|1:0,2:0:0:0:
218,0,58179,2,0,P|264:-7|304:15,1,94.9999999999998,10|0,1:2|1:0,2:0:0:0:
382,86,58842,1,10,1:2:0:0:
479,47,59174,1,2,1:2:0:0:
512,146,59505,2,0,L|495:239,1,94.9999999999998,10|0,1:2|1:0,2:0:0:0:
502,343,60168,6,0,B|474:362|474:362|414:351,1,94.9999999999998,10|0,3:2|1:0,2:0:0:0:
309,362,60831,2,0,P|286:321|293:275,1,94.9999999999998,10|0,1:2|1:0,2:0:0:0:
358,192,61494,1,10,1:2:0:0:
283,117,61826,1,10,1:2:0:0:
195,173,62157,2,0,B|126:195|126:117|56:151,1,126.666666666666,10|10,1:2|3:2,2:0:0:0:
8,157,62820,70,0,L|24:250,1,94.9999999999998,10|0,1:2|1:0,2:0:0:0:
19,355,63483,2,0,P|59:377|105:370,1,94.9999999999998,10|0,1:2|1:0,2:0:0:0:
188,306,64146,1,10,1:2:0:0:
259,384,64477,1,2,1:2:0:0:
369,349,64809,2,0,L|385:255,1,94.9999999999998,10|0,1:2|1:0,2:0:0:0:
481,214,65472,6,0,L|464:120,1,94.9999999999998,10|0,1:2|1:0,2:0:0:0:
465,15,66135,2,0,P|424:-7|378:0,1,94.9999999999998,10|0,1:2|1:0,2:0:0:0:
300,69,66798,1,10,1:2:0:0:
221,0,67129,1,2,1:2:0:0:
121,31,67461,2,0,B|113:72|113:72|121:109|121:109|113:154,1,126.666666666666,10|10,1:2|3:2,2:0:0:0:
102,224,68124,70,0,P|61:246|15:239,2,94.9999999999998,0|0|0,3:0|1:0|3:0,2:0:0:0:
205,209,69118,1,8,3:2:0:0:
258,298,69450,5,4,1:2:0:0:
292,137,70113,1,8,3:2:0:0:
475,114,70776,53,6,3:2:0:0:
480,118,70942,2,0,B|505:155|505:155|490:243,1,135,8|0,1:2|3:0,2:0:0:0:
511,339,71770,1,10,1:2:0:0:
417,370,72102,2,0,P|330:378|268:316,1,180,2|0,3:2|1:0,2:0:0:0:
243,220,73096,1,10,3:2:0:0:
239,215,73262,38,0,L|150:230,1,90,2|8,1:2|1:2,2:0:0:0:
54,255,73925,2,0,P|34:214|39:170,1,90,10|0,1:2|2:0,2:0:0:0:
64,127,74422,1,10,1:2:0:0:
48,28,74754,2,0,L|136:12,1,90,2|2,1:2|2:0,2:0:0:0:
235,0,75417,1,10,3:2:0:0:
306,68,75748,1,2,3:2:0:0:
382,5,76080,37,6,3:2:0:0:
386,0,76245,2,0,L|474:15,1,90,10|2,1:2|1:2,2:0:0:0:
512,49,76743,1,10,1:2:0:0:
455,129,77074,1,10,1:2:0:0:
490,221,77406,2,0,L|534:213,2,45,10|10|2,1:2|1:2|2:0,2:0:0:0:
395,249,78069,2,0,L|350:241,2,45,10|2|10,1:2|2:0|3:2,2:0:0:0:
439,337,78732,37,8,3:2:0:0:
435,342,78897,2,0,L|346:357,1,90,10|2,1:2|1:2,2:0:0:0:
297,367,79395,1,10,1:2:0:0:
230,293,79726,1,10,1:2:0:0:
142,340,80058,2,0,L|129:410,2,45,2|2|10,3:2|3:2|1:2,2:0:0:0:
66,276,80721,2,0,L|58:231,1,45,2|10,3:2|1:2,2:0:0:0:
21,198,81052,2,0,L|28:153,1,45,2|8,3:2|1:2,2:0:0:0:
18,101,81384,38,0,B|96:112|67:37|153:56,1,142.5,6|8,3:2|1:2,2:0:0:0:
192,75,82047,1,0,3:0:0:0:
278,16,82378,1,10,1:2:0:0:
377,48,82710,2,0,P|411:108|399:177,1,142.5,2|8,3:2|1:2,2:0:0:0:
356,205,83372,1,0,1:0:0:0:
269,146,83704,1,10,3:2:0:0:
264,150,83870,38,0,P|241:190|249:236,1,94.9999999999998,2|8,1:2|1:2,2:0:0:0:
319,313,84533,2,0,L|412:296,1,94.9999999999998,10|0,1:2|2:0,2:0:0:0:
464,289,85030,1,10,1:2:0:0:
512,196,85361,2,0,P|519:150|496:109,1,94.9999999999998,2|2,1:2|2:0,2:0:0:0:
417,39,86024,1,10,3:2:0:0:
326,92,86356,1,2,3:2:0:0:
268,5,86687,37,6,3:2:0:0:
264,0,86853,2,0,L|161:18,1,94.9999999999998,10|2,1:2|1:2,2:0:0:0:
118,26,87350,1,10,1:2:0:0:
36,91,87682,1,10,1:2:0:0:
112,161,88013,2,0,L|167:151,2,47.4999999999999,10|10|2,1:2|1:2|2:0,2:0:0:0:
46,242,88676,2,0,L|-9:232,2,47.4999999999999,10|2|10,1:2|2:0|3:2,2:0:0:0:
101,330,89339,37,8,3:2:0:0:
97,335,89505,2,0,P|137:357|184:349,1,94.9999999999998,10|2,1:2|1:2,2:0:0:0:
226,319,90002,1,10,1:2:0:0:
308,384,90334,1,10,1:2:0:0:
408,356,90665,2,0,L|455:364,2,47.4999999999999,2|2|10,3:2|3:2|1:2,2:0:0:0:
364,260,91328,2,0,L|373:204,1,47.4999999999999,2|10,3:2|1:2,2:0:0:0:
409,175,91660,2,0,L|399:119,1,47.4999999999999,2|8,3:2|1:2,2:0:0:0:
386,77,91991,37,6,2:0:0:0:
474,88,102599,38,0,L|454:198,1,94.9999999999998,6|8,1:2|1:2,2:0:0:0:
400,269,103262,2,0,P|359:291|313:284,1,94.9999999999998,2|0,1:2|1:2,2:0:0:0:
256,196,103925,2,0,P|209:188|169:211,1,94.9999999999998,2|8,1:2|1:2,2:0:0:0:
153,314,104588,1,2,1:2:0:0:
53,344,104919,1,10,1:2:0:0:
0,254,105251,38,0,P|-7:207|15:167,1,94.9999999999998,2|8,1:2|1:2,2:0:0:0:
61,73,105914,2,0,L|154:89,1,94.9999999999998,2|8,1:2|1:2,2:0:0:0:
218,172,106577,2,0,L|311:155,1,94.9999999999998,2|8,1:2|1:2,2:0:0:0:
411,186,107240,1,2,3:2:0:0:
507,146,107571,1,10,1:2:0:0:
512,251,107903,38,0,B|500:314|500:314|475:331,1,94.9999999999998,2|8,1:2|1:2,2:0:0:0:
379,374,108566,2,0,P|332:381|292:359,1,94.9999999999998,2|8,1:2|1:2,2:0:0:0:
266,257,109229,2,0,L|284:154,1,94.9999999999998,2|8,1:2|1:2,2:0:0:0:
303,60,109892,1,2,1:2:0:0:
218,0,110223,1,10,1:2:0:0:
119,36,110555,38,0,P|96:77|103:123,1,94.9999999999998,10|8,3:2|3:2,2:0:0:0:
154,214,111218,1,10,3:2:0:0:
68,274,111549,1,8,3:2:0:0:
113,368,111881,2,0,L|206:384,1,94.9999999999998,10|8,3:2|3:2,2:0:0:0:
295,328,112544,2,0,L|341:336,1,47.4999999999999,10|0,3:2|1:0,2:0:0:0:
378,373,112875,2,0,L|424:364,1,47.4999999999999,8|2,3:2|1:2,2:0:0:0:
475,352,113207,37,10,2:0:0:0:
463,373,114533,54,0,L|451:308,1,66.6666666666666,6|2,3:2|3:2,2:0:0:0:
421,285,114864,2,0,L|431:219,1,66.6666666666666,10|2,3:2|3:2,2:0:0:0:
447,185,115196,2,0,L|520:197,2,66.6666666666666,2|2|2,3:2|3:2|3:2,2:0:0:0:
416,118,115859,1,2,3:2:0:0:
360,23,116190,1,10,3:2:0:0:
253,0,116522,2,0,P|204:-7|161:17,1,99.9999999999999,10|2,3:2|3:2,2:0:0:0:
54,42,117185,6,0,P|38:61|35:108,1,66.6666666666666,2|2,3:2|2:0,2:0:0:0:
6,126,117516,2,0,P|8:149|35:187,1,66.6666666666666,10|2,3:2|2:0,2:0:0:0:
43,220,117848,2,0,B|112:239|90:161|194:184,1,133.333333333333,10|10,3:2|3:2,2:0:0:0:
219,227,118511,1,2,3:2:0:0:
313,173,118842,2,0,L|411:190,1,99.9999999999999,10|2,3:2|3:2,2:0:0:0:
508,242,119505,1,10,3:2:0:0:
508,352,119837,70,0,L|440:362,1,66.6666666666666,6|2,3:2|2:0,2:0:0:0:
409,379,120168,2,0,L|344:367,1,66.6666666666666,10|2,3:2|3:2,2:0:0:0:
314,343,120500,2,0,L|327:269,2,66.6666666666666,2|2|2,3:2|3:2|3:2,2:0:0:0:
249,379,121163,1,2,3:2:0:0:
164,308,121494,1,10,3:2:0:0:
58,338,121826,2,0,P|34:295|41:246,1,99.9999999999999,10|2,3:2|3:2,2:0:0:0:
99,153,122489,6,0,L|111:87,1,66.6666666666666,2|2,3:2|2:0,2:0:0:0:
91,56,122820,2,0,L|145:17,1,66.6666666666666,10|2,3:2|2:0,2:0:0:0:
182,11,123152,2,0,B|284:29|284:29|310:66,1,133.333333333333,10|10,3:2|3:2,2:0:0:0:
317,124,123814,1,10,3:2:0:0:
424,99,124146,1,10,3:2:0:0:
512,167,124477,2,0,P|519:216|495:259,1,99.9999999999999,10|2,3:2|2:0,2:0:0:0:
475,372,125140,70,0,L|391:356,1,70,6|2,3:2|2:0,2:0:0:0:
379,330,125472,2,0,L|302:343,1,70,10|2,3:2|3:2,2:0:0:0:
274,356,125803,2,0,L|260:278,2,70,2|2|2,3:2|3:2|3:2,2:0:0:0:
202,384,126466,1,2,3:2:0:0:
86,374,126798,1,10,3:2:0:0:
38,269,127129,2,0,P|31:219|55:170,1,105,10|2,3:2|3:2,2:0:0:0:
165,201,127792,6,0,L|233:187,1,70,2|2,3:2|2:0,2:0:0:0:
250,223,128124,2,0,L|318:209,1,70,10|2,3:2|2:0,2:0:0:0:
355,222,128455,2,0,P|339:145|401:93,1,140,10|10,3:2|3:2,2:0:0:0:
452,105,129118,1,2,3:2:0:0:
408,0,129450,2,0,P|355:-5|310:18,1,105,10|2,3:2|3:2,2:0:0:0:
270,126,130113,1,10,3:2:0:0:
195,37,130444,70,0,L|123:49,1,70,6|2,3:2|2:0,2:0:0:0:
112,85,130776,2,0,L|31:98,1,70,10|2,3:2|3:2,2:0:0:0:
10,77,131107,2,0,L|-3:-1,2,70,2|2|2,3:2|3:2|3:2,2:0:0:0:
0,154,131770,1,2,3:2:0:0:
4,269,132102,1,10,3:2:0:0:
95,338,132433,2,0,L|205:318,1,105,10|2,3:2|3:2,2:0:0:0:
304,364,133096,6,0,P|330:365|369:342,1,70,2|2,3:2|2:0,2:0:0:0:
404,355,133428,2,0,P|423:337|439:293,1,70,10|2,3:2|2:0,2:0:0:0:
473,281,133759,2,0,B|490:206|425:236|441:131,1,140,10|10,3:2|3:2,2:0:0:0:
493,96,134422,1,10,3:2:0:0:
421,6,134754,1,10,3:2:0:0:
305,12,135085,2,0,L|291:83,1,70,10|10,3:2|3:2,2:0:0:0:
255,95,135417,2,0,L|267:166,1,70,10|0,3:2|2:0,2:0:0:0:
289,191,135748,70,0,L|272:284,1,94.9999999999998,14|2,1:2|1:2,2:0:0:0:
202,362,136411,2,0,P|160:383|113:377,1,94.9999999999998,10|0,1:2|1:0,2:0:0:0:
21,327,137074,1,10,1:2:0:0:
56,228,137406,1,2,1:2:0:0:
0,140,137737,2,0,P|-17:73|20:24,1,126.666666666666,10|10,1:2|3:2,2:0:0:0:
78,4,138400,5,10,3:2:0:0:
179,0,138732,1,2,1:2:0:0:
226,93,139063,2,0,L|209:186,1,94.9999999999998,10|0,1:2|1:0,2:0:0:0:
137,262,139726,1,10,1:2:0:0:
180,357,140058,1,10,1:2:0:0:
276,318,140389,2,0,P|343:303|399:339,1,126.666663284302,10|10,1:2|3:2,2:0:0:0:
442,383,141052,70,0,L|459:284,1,99.9999999999999,10|2,1:2|1:2,2:0:0:0:
512,192,141715,2,0,L|499:122,1,66.6666666666666,10|2,1:2|3:2,2:0:0:0:
465,112,142047,2,0,L|477:42,1,66.6666666666666,2|0,1:2|3:0,2:0:0:0:
484,10,142378,1,10,1:2:0:0:
375,0,142710,1,2,1:2:0:0:
302,82,143041,2,0,P|240:121|172:106,1,133.333333333333,10|10,1:2|3:2,2:0:0:0:
125,61,143704,5,14,1:2:0:0:
11,74,144035,1,10,3:2:0:0:
0,189,144367,2,0,B|12:259|12:259|39:278,1,105,8|8,1:2|3:2,2:0:0:0:
147,334,145030,69,10,1:2:0:0:
237,253,145361,1,10,3:2:0:0:
342,312,145693,2,0,L|324:397,2,73.3333333333333,14|14|14,1:2|1:2|1:2,2:0:0:0:
414,298,146356,6,0,P|443:258|447:208,1,99.9999999999999,14|2,1:2|1:2,2:0:0:0:
363,137,147019,1,10,1:2:0:0:
454,75,147350,1,2,1:2:0:0:
364,10,147682,2,0,L|265:27,1,99.9999999999999,10|2,1:2|1:2,2:0:0:0:
175,91,148345,1,10,3:2:0:0:
105,6,148676,1,2,3:2:0:0:
16,71,149008,70,0,P|-6:114|-1:164,1,99.9999999999999,10|2,3:2|1:2,2:0:0:0:
101,204,149671,2,0,L|199:186,1,99.9999999999999,10|2,1:2|1:2,2:0:0:0:
303,222,150334,1,10,1:2:0:0:
370,135,150665,1,10,1:2:0:0:
472,175,150997,2,0,B|488:245|413:221|442:323,1,133.333333333333,10|10,1:2|3:2,2:0:0:0:
463,367,151660,6,0,L|364:384,1,99.9999999999999,10|2,1:2|1:2,2:0:0:0:
277,316,152323,1,10,1:2:0:0:
188,380,152654,1,2,1:2:0:0:
84,343,152986,2,0,P|62:298|68:249,1,99.9999999999999,10|2,1:2|1:2,2:0:0:0:
137,163,153649,1,10,1:2:0:0:
55,89,153980,1,2,1:2:0:0:
137,15,154312,70,0,P|181:-6|230:0,1,99.9999999999999,10|2,1:2|1:2,2:0:0:0:
283,95,154975,2,0,L|381:77,1,99.9999999999999,10|2,1:2|1:2,2:0:0:0:
491,83,155638,1,10,1:2:0:0:
512,191,155969,1,2,1:2:0:0:
458,287,156301,2,0,B|361:304|361:304|323:277,1,133.333333333333,10|10,1:2|3:2,2:0:0:0:
278,233,156964,37,2,1:2:0:0:
328,141,157295,1,10,1:2:0:0:
281,47,157627,2,0,P|220:11|155:24,1,126.666666666666,2|2,3:2|2:0,2:0:0:0:
116,65,158290,1,10,1:2:0:0:
19,26,158621,1,2,3:2:0:0:
0,130,158953,2,0,L|16:223,1,94.9999999999998,10|2,1:2|2:0,2:0:0:0:
0,326,159616,5,2,1:2:0:0:
91,376,159947,1,10,1:2:0:0:
170,308,160279,2,0,B|211:315|211:315|243:341|243:341|285:349,1,126.666666666666,10|10,1:2|3:2,2:0:0:0:
349,379,160942,2,0,L|442:362,1,94.9999999999998,2|10,1:2|1:2,2:0:0:0:
502,276,161605,1,10,3:2:0:0:
432,198,161936,2,0,L|443:131,1,63.3333333333332,2|2,1:2|2:0,2:0:0:0:
450,101,162268,69,2,1:2:0:0:
386,18,162599,1,10,1:2:0:0:
292,65,162931,2,0,B|221:86|233:9|150:38,1,126.666666666666,2|2,3:2|2:0,2:0:0:0:
109,54,163593,1,10,1:2:0:0:
42,136,163925,1,2,3:2:0:0:
112,213,164256,2,0,B|144:235|144:235|198:226,1,94.9999999999998,10|2,1:2|2:0,2:0:0:0:
302,207,164919,5,2,1:2:0:0:
365,124,165251,1,10,1:2:0:0:
462,160,165582,2,0,L|486:299,1,126.666666666666,10|10,1:2|3:2,2:0:0:0:
494,353,166245,1,2,1:2:0:0:
394,384,166577,1,10,1:2:0:0:
337,297,166908,2,0,P|295:274|249:281,1,94.9999999999998,10|2,3:2|1:2,2:0:0:0:
148,306,167571,69,2,1:2:0:0:
66,371,167903,1,10,1:2:0:0:
0,290,168234,2,0,P|-12:221|21:164,1,126.666666666666,2|2,3:2|2:0,2:0:0:0:
73,139,168897,1,10,1:2:0:0:
50,37,169229,1,2,3:2:0:0:
147,0,169560,2,0,L|249:18,1,94.9999999999998,10|2,1:2|2:0,2:0:0:0:
342,39,170223,5,2,1:2:0:0:
439,1,170555,1,10,1:2:0:0:
512,73,170886,2,0,B|503:114|503:114|477:146|477:146|469:187,1,126.666666666666,2|2,3:2|3:2,2:0:0:0:
465,258,171549,2,0,P|423:235|377:240,1,94.9999999999998,2|10,1:2|1:2,2:0:0:0:
289,298,172212,1,10,3:2:0:0:
210,228,172544,2,0,L|222:152,1,63.3333333333332,2|2,1:2|2:0,2:0:0:0:
227,131,172875,69,2,1:2:0:0:
164,48,173207,1,10,1:2:0:0:
62,72,173538,2,0,B|24:97|24:97|8:193,1,126.666666666666,2|2,3:2|2:0,2:0:0:0:
0,246,174201,1,10,1:2:0:0:
55,334,174533,1,2,3:2:0:0:
139,272,174864,2,0,P|185:265|226:286,1,94.9999999999998,10|2,1:2|2:0,2:0:0:0:
313,345,175527,5,2,1:2:0:0:
410,384,175859,1,10,1:2:0:0:
495,323,176190,2,0,B|509:254|445:271|475:180,1,126.666663284302,2|2,3:2|3:2,2:0:0:0:
485,139,176853,69,2,3:2:0:0:
382,118,177185,5,2,3:2:0:0:
323,204,177516,69,2,3:2:0:0:
221,179,177848,5,10,1:2:0:0:
259,76,178179,22,0,L|187:63,1,66.6666666666666,6|2,3:2|2:0,2:0:0:0:
173,32,178511,2,0,L|101:44,1,66.6666666666666,10|2,3:2|3:2,2:0:0:0:
77,64,178842,2,0,L|63:-9,2,66.6666666666666,2|2|2,3:2|3:2|3:2,2:0:0:0:
40,127,179505,1,2,3:2:0:0:
0,229,179837,1,10,3:2:0:0:
72,311,180168,2,0,P|114:333|163:325,1,99.9999999999999,10|2,3:2|3:2,2:0:0:0:
274,320,180831,6,0,L|342:331,1,66.6666666666666,2|2,3:2|2:0,2:0:0:0:
359,362,181163,2,0,L|427:350,1,66.6666666666666,10|2,3:2|2:0,2:0:0:0:
458,366,181494,2,0,B|465:320|465:320|458:285|458:285|469:221,1,133.333333333333,10|10,3:2|3:2,2:0:0:0:
486,163,182157,1,2,3:2:0:0:
454,58,182489,2,0,P|411:33|362:40,1,99.9999999999999,10|2,3:2|3:2,2:0:0:0:
276,107,183152,1,10,3:2:0:0:
190,38,183483,70,0,L|124:48,1,66.6666666666666,6|2,3:2|2:0,2:0:0:0:
88,41,183814,2,0,L|43:102,1,66.6666666666666,10|2,3:2|3:2,2:0:0:0:
52,132,184146,2,0,L|-21:144,2,66.6666666666666,2|2|2,3:2|3:2|3:2,2:0:0:0:
87,196,184809,1,2,3:2:0:0:
189,159,185140,1,10,3:2:0:0:
273,229,185472,2,0,P|315:252|363:243,1,99.9999999999999,10|2,3:2|3:2,2:0:0:0:
467,205,186135,6,0,P|476:229|470:278,1,66.6666666666666,2|2,3:2|2:0,2:0:0:0:
477,306,186466,2,0,P|466:329|430:354,1,66.6666666666666,10|2,3:2|2:0,2:0:0:0:
409,381,186798,2,0,B|325:395|367:324|265:346,1,133.333333333333,10|10,3:2|3:2,2:0:0:0:
220,370,187461,1,10,3:2:0:0:
125,318,187792,1,10,3:2:0:0:
34,381,188124,2,0,L|16:282,1,99.9999999999999,10|2,3:2|3:2,2:0:0:0:
0,167,188787,70,0,L|12:98,1,70,6|2,3:2|2:0,2:0:0:0:
50,92,189118,2,0,L|106:49,1,70,10|2,3:2|3:2,2:0:0:0:
139,68,189450,2,0,L|152:-9,2,70,2|2|2,3:2|3:2|3:2,2:0:0:0:
204,108,190113,1,2,3:2:0:0:
306,55,190444,1,10,3:2:0:0:
414,98,190776,2,0,P|445:137|448:189,1,105,10|2,3:2|3:2,2:0:0:0:
348,249,191439,5,2,3:2:0:0:
375,360,191770,1,10,3:2:0:0:
261,384,192102,2,0,L|105:356,1,140,10|10,3:2|3:2,2:0:0:0:
47,344,192765,1,2,3:2:0:0:
22,231,193096,2,0,P|61:199|113:196,1,105,10|2,3:2|3:2,2:0:0:0:
187,286,193759,1,10,3:2:0:0:
286,228,194091,70,0,L|297:155,1,70,6|2,3:2|2:0,2:0:0:0:
328,136,194422,2,0,L|286:78,1,70,10|2,3:2|3:2,2:0:0:0:
251,64,194754,2,0,L|266:-13,2,70,2|2|2,3:2|3:2|3:2,2:0:0:0:
178,89,195417,1,2,3:2:0:0:
89,13,195748,1,10,3:2:0:0:
7,95,196080,2,0,P|-1:145|23:191,1,105,10|2,3:2|3:2,2:0:0:0:
20,312,196743,6,0,L|95:324,1,73.3333333333333,2|2,3:2|2:0,2:0:0:0:
108,360,197074,2,0,L|181:346,1,73.3333333333333,10|2,3:2|2:0,2:0:0:0:
207,316,197406,2,0,B|256:324|256:324|294:352|294:352|341:361,1,146.666666666667,10|10,3:2|3:2,2:0:0:0:
422,375,198069,1,10,3:2:0:0:
501,283,198400,1,10,3:2:0:0:
430,185,198732,2,0,P|428:157|458:110,1,73.3333333333333,10|10,3:2|3:2,2:0:0:0:
482,95,199063,1,10,3:2:0:0:
