osu file format v14

[General]
AudioFilename: audio.mp3
AudioLeadIn: 0
PreviewTime:114042
Countdown: 0
SampleSet: Soft
StackLeniency: 0.5
Mode: 0
LetterboxInBreaks: 0
WidescreenStoryboard: 1

[Editor]
Bookmarks: 13759,24367,34975,46908,57516,70776,81384,91991,102599,114533,125140,135748,146356,156964,178179,188787,199395
DistanceSpacing: 1
BeatDivisor: 3
GridSize: 32
TimelineZoom: 2.3

[Metadata]
Title:HANIPAGANDA
TitleUnicode:HANIPAGANDA
Artist:Akatsuki Records
ArtistUnicode:暁Records
Creator:Night Mare
Version:FROZZ'S LUNATIC
Source:東方鬼形獣 ~ Wily Beast and Weakest Creature.
Tags:luna zelq frozz -keqing Stack Bros. 杖刀偶 磨弓 Joutouguu Mayumi Touhou Project Kikeijuu 2hu c97 video game セラミックスの杖刀人 Joutounin of Ceramics ZUN Team Shangai Alice 上海アリス幻樂団 japanese female vocal cafuu haniwa propaganda rock comiket wbawc th17
BeatmapID:2313875
BeatmapSetID:1083844

[Difficulty]
HPDrainRate:6
CircleSize:4
OverallDifficulty:7
ApproachRate:9
SliderMultiplier:1.5
SliderTickRate:1

[Events]
//Background and Video events
0,0,"image.jpg",0,0
Video,-950,"video.mp4"
//Break Periods
//Storyboard Layer 0 (Background)
//Storyboard Layer 1 (Fail)
//Storyboard Layer 2 (Pass)
//Storyboard Layer 3 (Foreground)
//Storyboard Layer 4 (Overlay)
//Storyboard Sound Samples

[TimingPoints]
3152,331.491712707182,4,2,1,60,1,0
3152,-166.666666666667,4,2,1,60,0,0
13925,-125,4,2,1,60,0,0
13980,-125,4,2,1,70,0,0
18732,-125,4,2,2,70,0,0
19063,-125,4,2,1,70,0,0
24035,-125,4,2,2,70,0,0
24367,-125,4,2,2,50,0,0
27019,-125,4,2,1,50,0,0
34975,-125,4,2,2,65,0,0
35306,-111.111111111111,4,2,2,65,0,0
36964,-250,4,2,2,65,0,0
37129,-250,4,2,1,65,0,0
37958,-111.111111111111,4,2,1,65,0,0
39947,-250,4,2,1,65,0,0
40610,-111.111111111111,4,2,1,65,0,0
42268,-250,4,2,1,65,0,0
42931,-250,4,2,1,70,0,0
43262,-111.111111111111,4,2,1,70,0,0
45582,-249.999999999999,4,2,1,40,0,0
46908,-62.5,4,2,1,80,0,1
48566,-62.5,4,2,2,80,0,1
48676,-62.5,4,2,1,80,0,1
49008,-62.5,4,2,2,80,0,1
49118,-62.5,4,2,1,80,0,1
49229,-62.5,4,2,2,80,0,1
49560,-62.5,4,2,1,80,0,1
50997,-62.5,4,2,2,80,0,1
51218,-62.5,4,2,1,80,0,1
51328,-62.5,4,2,2,80,0,1
51439,-62.5,4,2,1,80,0,1
51660,-62.5,4,2,2,80,0,1
51770,-62.5,4,2,1,80,0,1
53870,-62.5,4,2,2,80,0,1
53980,-62.5,4,2,1,80,0,1
54312,-62.5,4,2,2,80,0,1
54422,-62.5,4,2,1,80,0,1
54533,-62.5,4,2,2,80,0,1
54864,-62.5,4,2,1,80,0,1
57516,-100,4,2,2,75,0,0
57737,-100,4,2,1,75,0,0
68124,-100,4,2,1,65,0,0
68787,-100,4,2,2,65,0,0
69118,-100,4,2,1,65,0,0
69450,-111.111111111111,4,2,1,55,0,0
70776,-111.111111111111,4,2,3,65,0,0
70942,-111.111111111111,4,2,1,65,0,0
75582,-125,4,2,2,65,0,0
75748,-125,4,2,1,65,0,0
81384,-125,4,2,1,70,0,0
81549,-100,4,2,1,70,0,0
86190,-100,4,2,2,70,0,0
86356,-100,4,2,1,70,0,0
91991,-100,4,2,2,50,0,0
94643,-100,4,2,1,50,0,0
102599,-100,4,2,2,65,0,0
102931,-111.111111111111,4,2,2,65,0,0
104588,-249.999999999999,4,2,2,65,0,0
104754,-249.999999999999,4,2,1,65,0,0
105582,-111.111111111111,4,2,1,65,0,0
107571,-250,4,2,1,65,0,0
108234,-111.111111111111,4,2,1,65,0,0
109892,-249.999999999999,4,2,1,65,0,0
110886,-111.111111111111,4,2,1,65,0,0
113207,-250,4,2,1,40,0,0
114533,-58.8235294117647,4,2,1,80,0,1
116190,-58.8235294117647,4,2,2,80,0,1
116301,-58.8235294117647,4,2,1,80,0,1
116632,-58.8235294117647,4,2,2,80,0,1
116743,-58.8235294117647,4,2,1,80,0,1
116853,-58.8235294117647,4,2,2,80,0,1
117185,-58.8235294117647,4,2,1,80,0,1
118621,-58.8235294117647,4,2,2,80,0,1
118842,-58.8235294117647,4,2,1,80,0,1
118953,-58.8235294117647,4,2,2,80,0,1
119063,-58.8235294117647,4,2,1,80,0,1
119284,-58.8235294117647,4,2,2,80,0,1
119395,-58.8235294117647,4,2,1,80,0,1
121494,-58.8235294117647,4,2,2,80,0,1
121605,-58.8235294117647,4,2,1,80,0,1
121936,-58.8235294117647,4,2,2,80,0,1
122047,-58.8235294117647,4,2,1,80,0,1
122157,-58.8235294117647,4,2,2,80,0,1
122489,-58.8235294117647,4,2,1,80,0,1
125140,-58.8235294117647,4,2,1,85,0,1
126798,-58.8235294117647,4,2,2,85,0,1
126908,-58.8235294117647,4,2,1,85,0,1
127240,-58.8235294117647,4,2,2,85,0,1
127350,-58.8235294117647,4,2,1,85,0,1
127461,-58.8235294117647,4,2,2,85,0,1
127792,-58.8235294117647,4,2,1,85,0,1
129229,-58.8235294117647,4,2,2,85,0,1
129450,-58.8235294117647,4,2,1,85,0,1
129560,-58.8235294117647,4,2,2,85,0,1
129671,-58.8235294117647,4,2,1,85,0,1
129892,-58.8235294117647,4,2,2,85,0,1
130002,-58.8235294117647,4,2,1,85,0,1
132102,-58.8235294117647,4,2,2,85,0,1
132212,-58.8235294117647,4,2,1,85,0,1
132544,-58.8235294117647,4,2,2,85,0,1
132654,-58.8235294117647,4,2,1,85,0,1
132765,-58.8235294117647,4,2,2,85,0,1
133096,-58.8235294117647,4,2,1,85,0,1
135748,-100,4,2,2,70,0,0
135969,-100,4,2,1,70,0,0
136301,-100,4,2,2,70,0,0
137074,-100,4,2,2,65,0,0
137185,-100,4,2,1,65,0,0
138400,-100,4,2,1,70,0,0
139726,-100,4,2,1,65,0,0
141052,-100,4,2,1,75,0,0
141605,-100,4,2,2,75,0,0
141936,-100,4,2,1,75,0,0
143704,-100,4,2,1,80,0,0
143925,-100,4,2,2,80,0,0
144035,-142.857142857143,4,2,1,80,0,0
144256,-142.857142857143,4,2,2,80,0,0
144367,-100,4,2,2,80,0,0
144698,-125,4,2,1,80,0,0
144919,-125,4,2,2,80,0,0
145030,-100,4,2,2,80,0,0
145361,-111.111111111111,4,2,1,80,0,0
145693,-90.9090909090909,4,2,1,90,0,0
146356,-90.9090909090909,4,2,2,75,0,0
146577,-90.9090909090909,4,2,1,75,0,0
146908,-90.9090909090909,4,2,2,75,0,0
147240,-90.9090909090909,4,2,1,75,0,0
147571,-90.9090909090909,4,2,2,75,0,0
147903,-90.9090909090909,4,2,1,75,0,0
149560,-90.9090909090909,4,2,2,75,0,0
149892,-90.9090909090909,4,2,1,75,0,0
150223,-90.9090909090909,4,2,2,75,0,0
150555,-90.9090909090909,4,2,1,75,0,0
152212,-90.9090909090909,4,2,2,75,0,0
152544,-90.9090909090909,4,2,1,75,0,0
152875,-90.9090909090909,4,2,2,75,0,0
153207,-90.9090909090909,4,2,1,75,0,0
154864,-90.9090909090909,4,2,2,75,0,0
155196,-90.9090909090909,4,2,1,75,0,0
155527,-90.9090909090909,4,2,2,75,0,0
155859,-90.9090909090909,4,2,1,75,0,0
156964,-100,4,2,1,65,0,0
158621,-100,4,2,2,65,0,0
158842,-100,4,2,1,65,0,0
163925,-100,4,2,2,65,0,0
164146,-100,4,2,1,65,0,0
169229,-100,4,2,2,65,0,0
169450,-100,4,2,1,65,0,0
174533,-100,4,2,2,65,0,0
174754,-100,4,2,1,65,0,0
176853,-100,4,2,1,50,0,0
176908,-100,4,2,1,5,0,0
176964,-100,4,2,2,50,0,0
177019,-100,4,2,2,5,0,0
177074,-100,4,2,2,50,0,0
177185,-83.3333333333333,4,2,1,60,0,0
177240,-83.3333333333333,4,2,1,5,0,0
177295,-83.3333333333333,4,2,2,60,0,0
177350,-83.3333333333333,4,2,2,5,0,0
177406,-83.3333333333333,4,2,2,60,0,0
177516,-71.4285714285714,4,2,1,70,0,0
177571,-71.4285714285714,4,2,1,5,0,0
177627,-71.4285714285714,4,2,2,70,0,0
177682,-71.4285714285714,4,2,2,5,0,0
177737,-71.4285714285714,4,2,2,70,0,0
177848,-62.5,4,2,2,80,0,0
177903,-62.5,4,2,2,5,0,0
177958,-62.5,4,2,2,80,0,0
178013,-62.5,4,2,2,5,0,0
178069,-62.5,4,2,2,80,0,0
178179,-58.8235294117647,4,2,1,85,0,1
179837,-58.8235294117647,4,2,2,85,0,1
179947,-58.8235294117647,4,2,1,85,0,1
180279,-58.8235294117647,4,2,2,85,0,1
180389,-58.8235294117647,4,2,1,85,0,1
180500,-58.8235294117647,4,2,2,85,0,1
180831,-58.8235294117647,4,2,1,85,0,1
182268,-58.8235294117647,4,2,2,85,0,1
182489,-58.8235294117647,4,2,1,85,0,1
182599,-58.8235294117647,4,2,2,85,0,1
182710,-58.8235294117647,4,2,1,85,0,1
182931,-58.8235294117647,4,2,2,85,0,1
183041,-58.8235294117647,4,2,1,85,0,1
185140,-58.8235294117647,4,2,2,85,0,1
185251,-58.8235294117647,4,2,1,85,0,1
185582,-58.8235294117647,4,2,2,85,0,1
185693,-58.8235294117647,4,2,1,85,0,1
185803,-58.8235294117647,4,2,2,85,0,1
186135,-58.8235294117647,4,2,1,85,0,1
188787,-58.8235294117647,4,2,1,90,0,1
190444,-58.8235294117647,4,2,2,90,0,1
190555,-58.8235294117647,4,2,1,90,0,1
190886,-58.8235294117647,4,2,2,90,0,1
190997,-58.8235294117647,4,2,1,90,0,1
191107,-58.8235294117647,4,2,2,90,0,1
191439,-58.8235294117647,4,2,1,90,0,1
192875,-58.8235294117647,4,2,2,90,0,1
193096,-58.8235294117647,4,2,1,90,0,1
193207,-58.8235294117647,4,2,2,90,0,1
193317,-58.8235294117647,4,2,1,90,0,1
193538,-58.8235294117647,4,2,2,90,0,1
193649,-58.8235294117647,4,2,1,90,0,1
195748,-58.8235294117647,4,2,2,90,0,1
195859,-58.8235294117647,4,2,1,90,0,1
196190,-58.8235294117647,4,2,2,90,0,1
196301,-58.8235294117647,4,2,1,90,0,1
196411,-58.8235294117647,4,2,2,90,0,1
196743,-58.8235294117647,4,2,1,90,0,1
198069,-58.8235294117647,4,2,1,95,0,1
199063,-50,4,2,1,95,0,1
199174,-50,4,2,1,95,0,0

[Colours]
Combo1 : 184,98,255
Combo2 : 255,255,128
Combo3 : 255,184,17
Combo4 : 255,128,128
Combo5 : 95,234,174
Combo6 : 62,255,80

[HitObjects]
394,188,3152,86,0,P|359:219|349:269,2,89.9999999999998,4|8|8,3:0|2:0|1:2,2:0:0:0:
341,119,4146,1,0,3:0:0:0:
341,119,4477,2,0,P|377:148|395:200,2,89.9999999999998,0|8|8,3:0|2:0|1:2,2:0:0:0:
341,119,5803,38,0,P|309:126|295:135,1,44.9999999999999,4|0,3:0|1:0,2:0:0:0:
210,158,6135,2,0,P|211:135|219:114,1,44.9999999999999,8|0,1:2|1:0,2:0:0:0:
341,119,6466,1,8,1:2:0:0:
393,35,6798,2,0,L|397:6,3,22.5,0|0|0|0,3:0|1:0|1:0|1:0,2:0:0:0:
385,48,7129,2,0,P|347:81|342:126,2,89.9999999999998,0|8|8,3:0|2:0|2:0,2:0:0:0:
385,48,8124,37,8,1:2:0:0:
270,61,8290,1,8,2:0:0:0:
155,74,8455,38,0,P|119:99|107:156,2,89.9999999999998,4|8|8,3:0|2:0|1:2,2:0:0:0:
156,210,9450,1,0,3:0:0:0:
105,141,9781,2,0,P|135:163|157:225,2,89.9999999999998,4|8|8,3:0|2:0|1:2,2:0:0:0:
156,210,11107,38,0,P|122:235|111:254,1,44.9999999999999,4|0,3:0|1:0,2:0:0:0:
44,289,11439,2,0,P|38:267|38:244,1,44.9999999999999,8|0,1:2|1:0,2:0:0:0:
156,210,11770,1,8,1:2:0:0:
212,285,12102,2,0,L|201:321,3,22.5,0|0|0|0,3:0|1:0|1:0|1:0,2:0:0:0:
215,270,12433,2,0,P|196:233|152:209,2,89.9999999999998,4|8|8,3:0|2:0|2:0,2:0:0:0:
215,270,13428,37,8,1:2:0:0:
319,220,13593,1,8,2:0:0:0:
446,246,13759,37,4,3:2:0:0:
394,171,13925,2,0,L|406:97,1,60,10|0,1:2|2:0,2:0:0:0:
446,246,14256,1,2,1:2:0:0:
393,315,14422,2,0,P|359:300|324:299,1,60,10|2,1:2|2:0,2:0:0:0:
283,366,14754,2,0,P|317:381|352:382,1,60,10|2,1:2|2:0,2:0:0:0:
446,246,15085,37,10,1:2:0:0:
393,315,15251,1,10,1:2:0:0:
340,384,15417,1,2,2:0:0:0:
340,384,15748,37,10,1:2:0:0:
336,296,15914,1,2,2:0:0:0:
332,209,16080,1,10,3:2:0:0:
334,197,16163,1,0,1:0:0:0:
337,185,16245,1,0,1:0:0:0:
340,173,16328,1,0,1:0:0:0:
342,162,16411,37,0,3:0:0:0:
264,106,16577,2,0,L|200:123,1,60,10|0,1:2|2:0,2:0:0:0:
342,162,16908,1,2,1:2:0:0:
419,122,17074,2,0,P|405:81|405:52,1,60,10|2,1:2|2:0,2:0:0:0:
482,25,17406,2,0,P|496:66|496:95,1,60,10|2,1:2|2:0,2:0:0:0:
342,162,17737,37,10,1:2:0:0:
419,122,17903,1,10,1:2:0:0:
496,82,18069,1,2,2:0:0:0:
496,82,18400,37,10,1:2:0:0:
462,162,18566,1,2,3:2:0:0:
429,242,18732,1,2,3:2:0:0:
434,252,18897,1,2,3:2:0:0:
348,169,19063,37,12,3:2:0:0:
255,209,19229,2,0,L|236:281,1,60,10|0,1:2|2:0,2:0:0:0:
348,169,19560,1,2,1:2:0:0:
292,93,19726,2,0,P|259:112|220:118,1,60,10|2,1:2|2:0,2:0:0:0:
182,41,20058,2,0,P|214:21|253:15,1,60,10|2,1:2|2:0,2:0:0:0:
348,169,20389,37,10,1:2:0:0:
292,93,20555,1,10,1:2:0:0:
236,17,20721,1,2,2:0:0:0:
348,169,21052,37,10,1:2:0:0:
254,145,21218,1,2,2:0:0:0:
164,121,21384,1,10,3:2:0:0:
155,128,21466,1,0,1:0:0:0:
145,137,21549,1,0,1:0:0:0:
136,144,21632,1,0,1:0:0:0:
128,153,21715,37,8,3:2:0:0:
31,131,21881,2,0,L|8:67,1,60,10|0,1:2|2:0,2:0:0:0:
128,153,22212,1,10,1:2:0:0:
91,227,22378,2,0,P|53:212|27:211,1,60,10|2,1:2|2:0,2:0:0:0:
56,300,22710,1,10,1:2:0:0:
58,311,22792,1,0,1:0:0:0:
61,323,22875,1,2,1:2:0:0:
63,335,22958,1,0,1:0:0:0:
66,346,23041,37,10,1:2:0:0:
159,357,23207,1,2,3:2:0:0:
252,368,23372,1,2,2:0:0:0:
66,346,23704,37,10,1:2:0:0:
144,294,23870,1,2,3:2:0:0:
222,243,24035,1,10,3:2:0:0:
234,249,24201,1,8,3:2:0:0:
336,304,24367,38,0,P|369:327|403:374,2,90,6|2|2,2:0|2:0|2:0,2:0:0:0:
371,188,25030,2,0,P|334:205|276:211,2,90,2|2|2,2:0|2:0|2:0,2:0:0:0:
453,276,25693,2,0,P|456:235|480:182,2,90,2|2|2,2:0|2:0|2:0,2:0:0:0:
503,368,26356,1,2,2:0:0:0:
503,368,26687,1,2,2:0:0:0:
422,113,27019,38,0,L|444:12,2,90,2|2|2,3:2|2:0|2:0,2:0:0:0:
304,127,27682,2,0,L|380:196,2,90,2|2|2,2:0|2:0|2:0,2:0:0:0:
350,17,28345,2,0,L|251:48,2,90,2|2|2,2:0|2:0|2:0,2:0:0:0:
441,25,29008,1,2,2:0:0:0:
441,25,29339,1,2,2:0:0:0:
187,103,29671,38,0,P|158:94|115:89,1,60,2|0,3:2|2:0,2:0:0:0:
118,100,29919,2,0,P|155:109|219:129,1,90,2|2,2:0|2:0,2:0:0:0:
164,233,30334,2,0,P|192:224|236:219,1,60,2|0,2:0|2:0,2:0:0:0:
233,230,30582,2,0,P|196:239|132:259,1,90,2|2,2:0|2:0,2:0:0:0:
132,342,30997,2,0,P|103:333|60:328,1,60,2|0,2:0|2:0,2:0:0:0:
63,339,31245,2,0,P|100:348|164:368,1,90,2|2,2:0|2:0,2:0:0:0:
241,332,31660,1,2,2:0:0:0:
241,332,31991,1,2,2:0:0:0:
372,331,32323,38,0,P|409:315|436:303,1,60,2|0,3:2|2:0,2:0:0:0:
441,313,32571,2,0,P|390:337|348:358,1,90,2|2,2:0|2:0,2:0:0:0:
354,222,32986,2,0,P|317:206|290:194,1,60,2|0,2:0|2:0,2:0:0:0:
285,204,33234,2,0,P|336:228|378:249,1,90,2|2,2:0|2:0,2:0:0:0:
455,153,33649,37,2,2:0:0:0:
348,94,33897,1,2,2:0:0:0:
230,109,34146,1,2,2:0:0:0:
455,153,34312,37,2,2:0:0:0:
357,59,34560,1,2,2:0:0:0:
226,41,34809,1,2,2:0:0:0:
138,124,34975,37,6,1:2:0:0:
216,239,35223,1,2,2:0:0:0:
216,239,35306,2,0,L|206:319,1,67.5000000000001,8|2,1:2|2:0,2:0:0:0:
287,384,35638,1,2,1:2:0:0:
332,300,35886,1,2,2:0:0:0:
332,300,35969,2,0,L|312:227,1,67.5000000000001,8|2,1:2|2:0,2:0:0:0:
389,153,36301,1,2,1:2:0:0:
440,212,36549,1,2,2:0:0:0:
440,212,36632,2,0,L|425:289,1,67.5000000000001,8|0,1:2|2:0,2:0:0:0:
465,351,36964,38,0,L|476:383,1,30,2|0,1:2|3:0,2:0:0:0:
484,376,37295,2,0,L|474:347,1,30,10|0,1:2|3:0,2:0:0:0:
440,212,37627,37,2,1:2:0:0:
316,118,37875,1,2,2:0:0:0:
316,118,37958,2,0,L|227:143,1,67.5000000000001,8|2,1:2|2:0,2:0:0:0:
134,86,38290,1,2,1:2:0:0:
83,174,38538,1,2,2:0:0:0:
83,174,38621,2,0,L|108:263,1,67.5000000000001,8|2,1:2|2:0,2:0:0:0:
70,355,38953,1,2,1:2:0:0:
146,384,39201,1,2,2:0:0:0:
146,384,39284,2,0,L|235:359,1,67.5000000000001,8|2,1:2|2:0,2:0:0:0:
261,272,39616,38,0,L|246:220,2,33.75,2|0|0,3:2|3:0|3:0,2:0:0:0:
271,267,39947,2,0,L|261:234,1,30,10|0,1:2|2:0,2:0:0:0:
210,71,40279,37,2,1:2:0:0:
328,136,40527,1,2,2:0:0:0:
328,136,40610,2,0,L|397:125,1,67.5000000000001,8|2,1:2|2:0,2:0:0:0:
489,197,40942,1,2,1:2:0:0:
405,264,41190,1,2,2:0:0:0:
405,264,41273,2,0,L|336:253,1,67.5000000000001,8|2,1:2|2:0,2:0:0:0:
246,336,41605,1,2,1:2:0:0:
313,384,41853,1,2,2:0:0:0:
313,384,41936,2,0,L|382:373,1,67.5000000000001,8|0,1:2|2:0,2:0:0:0:
457,337,42268,38,0,L|465:365,1,30,2|0,1:2|3:0,2:0:0:0:
478,361,42599,2,0,L|469:332,1,30,10|0,1:2|3:0,2:0:0:0:
414,190,42931,37,10,3:2:0:0:
415,172,43013,1,0,1:0:0:0:
418,156,43096,1,0,1:0:0:0:
421,140,43179,1,2,1:2:0:0:
427,123,43262,2,0,L|445:77,3,33.75,8|0|2|0,3:2|1:0|1:2|1:0,2:0:0:0:
321,77,43593,37,10,3:2:0:0:
313,101,43676,1,0,1:0:0:0:
307,124,43759,1,0,1:0:0:0:
306,150,43842,1,2,1:2:0:0:
305,175,43925,2,0,L|316:213,3,33.75,8|0|2|0,3:2|1:0|1:2|1:0,2:0:0:0:
188,196,44256,37,10,3:2:0:0:
185,162,44339,1,0,1:0:0:0:
188,129,44422,1,0,1:0:0:0:
197,96,44505,1,2,1:2:0:0:
209,65,44588,2,0,L|239:27,3,33.75,8|0|2|0,3:2|1:0|1:2|1:0,2:0:0:0:
88,33,44919,37,10,3:2:0:0:
68,70,45002,1,0,1:0:0:0:
55,109,45085,1,0,1:0:0:0:
52,153,45168,1,2,1:2:0:0:
57,194,45251,2,0,L|74:235,3,33.75,8|0|2|0,3:2|1:0|1:2|1:0,2:0:0:0:
171,315,45582,38,0,P|155:279|167:317,1,120,10|0,2:0|2:0,2:0:0:0:
160,300,46908,6,0,B|257:278|219:361|329:337,1,160,6|2,3:2|3:2,2:0:0:0:
446,332,47240,2,0,P|408:356|380:384,1,80,10|0,3:2|2:0,2:0:0:0:
362,280,47461,1,2,3:2:0:0:
443,229,47571,2,0,B|421:198|421:198|366:187,1,80,2|0,3:2|3:0,2:0:0:0:
283,194,47792,2,0,B|320:190|320:190|357:148,1,80,2|8,3:2|3:2,2:0:0:0:
393,72,48013,2,0,B|377:106|377:106|395:159,1,80,2|0,3:2|2:0,2:0:0:0:
362,280,48234,6,0,P|304:280|266:251,1,80,2|0,3:2|3:0,2:0:0:0:
192,261,48455,1,2,3:2:0:0:
191,280,48566,2,0,P|203:317|232:344,1,80,10|0,3:2|3:0,2:0:0:0:
107,289,48787,1,2,3:2:0:0:
99,273,48897,2,0,P|101:233|121:199,1,80,10|2,3:2|3:2,2:0:0:0:
142,113,49118,1,10,3:2:0:0:
124,107,49229,2,0,P|84:113|53:136,1,80,2|0,3:2|2:0,2:0:0:0:
432,21,49560,70,0,B|415:73|415:73|439:112|439:112|417:183,1,160,2|2,3:2|2:0,2:0:0:0:
477,299,49892,2,0,P|445:274|408:259,1,80,10|0,3:2|2:0,2:0:0:0:
499,202,50113,1,2,2:0:0:0:
340,208,50223,2,0,P|298:247|300:298,1,80,10|0,3:2|2:0,2:0:0:0:
230,148,50444,2,0,P|213:202|240:245,1,80,10|0,3:2|2:0,2:0:0:0:
104,151,50665,2,0,P|116:206|161:230,1,80,10|0,3:2|2:0,2:0:0:0:
250,339,50886,6,0,P|197:349|153:369,1,80,2|0,3:2|3:0,2:0:0:0:
67,253,51107,1,2,2:0:0:0:
85,252,51218,2,0,P|124:259|161:273,1,80,10|2,3:2|3:2,2:0:0:0:
246,148,51439,1,2,3:2:0:0:
230,148,51549,2,0,P|177:158|133:178,1,80,2|2,3:2|3:2,2:0:0:0:
70,40,51770,1,2,3:2:0:0:
88,39,51881,2,0,P|127:46|164:60,1,80,10|10,3:2|3:2,2:0:0:0:
317,50,52102,1,10,3:2:0:0:
388,17,52212,70,0,P|356:79|331:175,1,160,6|2,3:2|2:0,2:0:0:0:
253,284,52544,2,0,P|295:266|351:252,1,80,10|0,3:2|2:0,2:0:0:0:
247,186,52765,1,2,3:2:0:0:
396,320,52875,2,0,B|420:290|420:290|414:241,1,80,2|0,3:2|3:0,2:0:0:0:
377,332,53096,2,0,B|390:367|390:367|436:387,1,80,2|8,3:2|3:2,2:0:0:0:
376,309,53317,2,0,B|338:303|338:303|298:332,1,80,2|0,3:2|2:0,2:0:0:0:
157,365,53538,6,0,P|123:318|76:302,1,80,2|0,3:2|3:0,2:0:0:0:
105,229,53759,1,2,3:2:0:0:
122,224,53870,2,0,P|162:220|199:233,1,80,10|0,3:2|3:0,2:0:0:0:
185,104,54091,1,2,3:2:0:0:
172,101,54201,2,0,P|133:107|101:131,1,80,10|2,3:2|3:2,2:0:0:0:
39,80,54422,1,10,3:2:0:0:
40,66,54533,2,0,P|56:30|86:5,1,80,2|0,3:2|2:0,2:0:0:0:
329,17,54864,70,0,B|383:60|383:60|344:166,1,160,2|2,3:2|2:0,2:0:0:0:
439,239,55196,2,0,P|482:217|538:211,1,80,10|0,3:2|2:0,2:0:0:0:
442,140,55417,1,2,2:0:0:0:
340,241,55527,2,0,P|359:275|366:315,1,80,10|0,3:2|2:0,2:0:0:0:
246,243,55748,2,0,P|238:282|218:316,1,80,10|0,3:2|2:0,2:0:0:0:
172,184,55969,2,0,P|141:209|103:222,1,80,10|0,3:2|2:0,2:0:0:0:
0,120,56190,6,0,B|53:149|53:149|29:276,1,160,10|2,3:2|2:0,2:0:0:0:
65,354,56522,2,0,P|104:326|167:313,1,80,10|0,3:2|3:0,2:0:0:0:
161,214,56743,1,2,2:0:0:0:
172,214,56853,2,0,P|218:225|268:265,1,80,10|10,3:2|3:2,2:0:0:0:
342,198,57074,1,10,3:2:0:0:
349,206,57185,2,0,P|369:249|371:313,1,80,10|8,3:2|1:2,2:0:0:0:
454,375,57406,1,8,1:2:0:0:
431,384,57516,70,0,P|457:326|498:280,1,100,14|0,1:2|3:0,2:0:0:0:
479,297,57848,1,0,1:0:0:0:
332,191,58179,2,0,P|368:259|377:306,1,100,10|0,1:2|3:0,2:0:0:0:
373,280,58511,1,0,1:0:0:0:
504,93,58842,2,0,P|463:124|440:162,1,75,10|0,1:2|2:0,2:0:0:0:
355,94,59174,2,0,P|360:57|376:23,1,75,2|0,1:2|2:0,2:0:0:0:
230,27,59505,2,0,P|237:77|258:116,1,75,10|0,1:2|2:0,2:0:0:0:
332,191,59837,1,0,1:0:0:0:
81,199,60168,2,0,P|142:194|192:210,1,100,10|0,3:2|3:0,2:0:0:0:
178,203,60500,1,0,1:0:0:0:
174,333,60831,2,0,P|224:298|275:287,1,100,10|0,1:2|3:0,2:0:0:0:
260,287,61163,1,0,1:0:0:0:
339,384,61494,2,0,P|365:328|404:293,1,100,10|0,1:2|3:0,2:0:0:0:
390,301,61826,1,10,1:2:0:0:
512,244,62157,2,0,P|471:225|426:177,2,100,10|10|10,1:2|3:2|3:2,2:0:0:0:
392,88,62820,6,0,P|343:120|323:168,1,100,10|0,1:2|3:0,2:0:0:0:
325,156,63152,1,0,1:0:0:0:
187,118,63483,2,0,P|203:174|188:223,1,100,10|0,1:2|3:0,2:0:0:0:
195,213,63814,1,0,1:0:0:0:
370,294,64146,2,0,P|335:279|290:240,1,75,10|0,1:2|2:0,2:0:0:0:
224,309,64477,2,0,P|233:345|250:379,1,75,2|0,1:2|2:0,2:0:0:0:
104,368,64809,2,0,P|112:331|143:280,1,75,10|0,1:2|2:0,2:0:0:0:
195,213,65140,1,0,1:0:0:0:
15,124,65472,2,0,P|74:142|122:143,1,100,10|0,1:2|3:0,2:0:0:0:
111,143,65803,1,0,1:0:0:0:
159,26,66135,2,0,P|192:77|228:109,1,100,10|0,1:2|3:0,2:0:0:0:
220,102,66466,1,0,1:0:0:0:
336,23,66798,2,0,P|328:84|335:131,1,100,10|0,1:2|3:0,2:0:0:0:
333,120,67129,1,2,1:2:0:0:
444,194,67461,2,0,P|387:218|349:248,2,100,10|10|10,1:2|3:2|3:2,2:0:0:0:
424,320,68124,70,0,L|430:372,2,50,0|0|0,3:0|3:0|3:0,2:0:0:0:
350,379,68455,2,0,L|344:329,2,50,0|0|0,1:0|1:0|1:0,2:0:0:0:
258,334,68787,5,0,3:0:0:0:
259,350,68897,1,0,3:0:0:0:
261,367,69008,1,0,3:0:0:0:
263,383,69118,1,8,3:2:0:0:
138,288,69450,70,0,B|110:236|43:258|43:258|131:299|135:382,1,270,4|8,1:2|3:2,2:0:0:0:
136,380,70776,69,6,3:2:0:0:
228,337,70942,1,8,1:2:0:0:
131,372,71273,37,8,1:2:0:0:
223,329,71439,1,0,3:0:0:0:
75,266,71770,37,10,1:2:0:0:
202,179,72102,37,2,3:2:0:0:
116,112,72268,1,8,1:2:0:0:
209,172,72599,37,8,1:2:0:0:
123,105,72765,1,0,1:0:0:0:
300,120,73096,37,10,3:2:0:0:
306,129,73179,1,0,1:0:0:0:
310,139,73262,1,2,1:2:0:0:
313,150,73345,1,0,1:0:0:0:
313,161,73428,37,8,3:2:0:0:
408,116,73593,1,8,1:2:0:0:
312,171,73925,37,10,1:2:0:0:
407,126,74091,1,0,3:0:0:0:
482,240,74422,37,10,1:2:0:0:
323,315,74754,37,2,1:2:0:0:
413,350,74919,1,8,1:2:0:0:
318,323,75251,37,0,3:0:0:0:
408,358,75417,1,10,3:2:0:0:
488,384,75582,38,0,L|512:324,2,60,0|2|0,3:0|3:2|1:0,2:0:0:0:
395,251,76080,37,6,3:2:0:0:
294,243,76245,2,0,P|254:254|185:314,1,120,10|2,1:2|1:2,2:0:0:0:
198,384,76743,1,10,1:2:0:0:
198,384,76908,1,2,2:0:0:0:
108,345,77074,1,10,1:2:0:0:
108,345,77240,1,2,2:0:0:0:
90,244,77406,37,10,1:2:0:0:
150,185,77571,1,10,1:2:0:0:
210,126,77737,1,2,2:0:0:0:
81,234,78069,37,10,1:2:0:0:
141,175,78234,1,2,2:0:0:0:
201,116,78400,1,10,3:2:0:0:
210,113,78483,1,0,1:0:0:0:
220,112,78566,1,0,1:0:0:0:
230,112,78649,1,0,1:0:0:0:
240,113,78732,37,8,3:2:0:0:
314,75,78897,2,0,P|290:139|270:227,1,120,10|2,1:2|1:2,2:0:0:0:
334,259,79395,1,10,1:2:0:0:
334,259,79560,1,2,2:0:0:0:
277,339,79726,1,10,1:2:0:0:
277,339,79892,1,2,2:0:0:0:
376,359,80058,38,0,P|410:361|456:389,1,60,2|2,3:2|3:2,2:0:0:0:
476,270,80389,2,0,P|446:269|417:278,1,60,10|0,1:2|1:0,2:0:0:0:
425,185,80721,2,0,P|448:166|476:156,1,60,2|10,3:2|1:2,2:0:0:0:
441,45,81052,2,0,P|417:63|401:89,1,60,2|8,3:2|1:2,2:0:0:0:
330,204,81384,37,6,3:2:0:0:
325,331,81549,2,0,P|275:275|179:284,1,150,0|8,2:0|1:2,2:0:0:0:
105,317,82047,2,0,B|72:357|105:378|150:307|96:222,1,150,0|10,3:0|1:2,2:0:0:0:
108,245,82710,1,2,3:2:0:0:
50,161,82875,2,0,B|91:70|91:70|29:104,1,150,8|8,1:2|1:2,2:0:0:0:
108,245,83372,2,0,P|195:236|224:183,1,150,0|10,1:0|3:2,2:0:0:0:
219,178,83787,1,0,1:0:0:0:
215,169,83870,1,2,1:2:0:0:
211,161,83953,1,0,1:0:0:0:
207,152,84035,37,8,3:2:0:0:
250,57,84201,2,0,P|329:77|326:172,1,150,8|10,1:2|1:2,2:0:0:0:
312,230,84698,2,0,B|286:253|290:285|290:285|311:243|369:222,1,150,0|10,3:0|1:2,2:0:0:0:
354,227,85361,1,2,1:2:0:0:
331,358,85527,2,0,P|278:303|184:314,1,150,8|0,1:2|3:0,2:0:0:0:
110,384,86024,2,0,B|128:351|128:351|111:283,1,75,10|0,3:2|3:0,2:0:0:0:
54,251,86356,2,0,B|38:229|38:229|55:297,1,75,2|0,3:2|1:0,2:0:0:0:
124,169,86687,37,6,3:2:0:0:
77,98,86853,2,0,P|150:132|274:167,1,150,10|2,1:2|1:2,2:0:0:0:
301,121,87350,1,10,1:2:0:0:
301,121,87516,1,2,2:0:0:0:
373,204,87682,1,10,1:2:0:0:
373,204,87848,1,2,2:0:0:0:
468,138,88013,37,10,1:2:0:0:
488,224,88179,1,10,1:2:0:0:
508,310,88345,1,2,2:0:0:0:
460,141,88676,37,10,1:2:0:0:
480,227,88842,1,2,2:0:0:0:
500,313,89008,1,10,3:2:0:0:
497,321,89091,1,0,1:0:0:0:
494,330,89174,1,0,1:0:0:0:
490,338,89256,1,0,1:0:0:0:
484,346,89339,37,8,3:2:0:0:
365,350,89505,2,0,P|302:317|218:300,1,150,10|2,1:2|1:2,2:0:0:0:
159,346,90002,1,10,1:2:0:0:
159,346,90168,1,2,2:0:0:0:
66,290,90334,1,10,1:2:0:0:
66,290,90500,1,2,2:0:0:0:
90,182,90665,38,0,P|151:195|183:241,1,75,2|2,3:2|3:2,2:0:0:0:
248,199,90997,2,0,P|241:162|219:133,1,75,10|0,1:2|1:0,2:0:0:0:
339,200,91328,2,0,P|315:257|264:281,1,75,2|10,3:2|1:2,2:0:0:0:
293,351,91660,2,0,P|330:351|364:334,1,75,2|8,3:2|1:2,2:0:0:0:
465,303,91991,38,0,P|441:254|386:228,2,112.5,6|2|2,2:0|2:0|2:0,2:0:0:0:
500,129,92654,2,0,P|469:174|474:234,2,112.5,2|2|2,2:0|2:0|2:0,2:0:0:0:
332,186,93317,2,0,P|386:189|436:155,2,112.5,2|2|2,2:0|2:0|2:0,2:0:0:0:
372,68,93980,1,2,2:0:0:0:
372,68,94312,1,2,2:0:0:0:
141,103,94643,38,0,L|177:215,2,112.5,2|2|2,3:2|2:0|2:0,2:0:0:0:
39,255,95306,2,0,L|117:167,2,112.5,2|2|2,2:0|2:0|2:0,2:0:0:0:
222,268,95969,2,0,L|107:243,2,112.5,2|2|2,2:0|2:0|2:0,2:0:0:0:
130,359,96632,1,2,2:0:0:0:
130,359,96964,1,2,2:0:0:0:
396,308,97295,38,0,P|358:324|327:349,1,75,2|0,3:2|2:0,2:0:0:0:
325,364,97544,2,0,P|371:334|433:307,1,112.5,2|2,2:0|2:0,2:0:0:0:
341,207,97958,2,0,P|376:196|414:194,1,75,2|0,2:0|2:0,2:0:0:0:
439,206,98207,2,0,P|382:210|328:222,1,112.5,2|2,2:0|2:0,2:0:0:0:
447,96,98621,2,0,P|407:83|367:83,1,75,2|0,2:0|2:0,2:0:0:0:
356,92,98870,2,0,P|410:98|475:117,1,112.5,2|2,2:0|2:0,2:0:0:0:
428,0,99284,1,2,2:0:0:0:
428,0,99616,1,2,2:0:0:0:
210,62,99947,38,0,P|157:66|108:78,1,75,2|0,3:2|2:0,2:0:0:0:
124,93,100196,2,0,P|169:84|246:80,1,112.5,2|2,2:0|2:0,2:0:0:0:
134,194,100610,2,0,P|187:198|236:210,1,75,2|0,2:0|2:0,2:0:0:0:
220,225,100859,2,0,P|175:216|98:212,1,112.5,2|2,2:0|2:0,2:0:0:0:
159,334,101273,37,2,2:0:0:0:
284,364,101522,1,2,2:0:0:0:
381,297,101770,1,2,2:0:0:0:
159,334,101936,37,2,2:0:0:0:
282,297,102185,1,2,2:0:0:0:
332,190,102433,1,2,2:0:0:0:
417,142,102599,37,6,1:2:0:0:
268,57,102848,1,2,2:0:0:0:
268,57,102931,2,0,P|224:70|177:82,1,67.5000000000001,8|2,1:2|2:0,2:0:0:0:
91,113,103262,1,2,1:2:0:0:
176,194,103511,1,2,2:0:0:0:
176,194,103593,2,0,P|220:207|267:219,1,67.5000000000001,8|2,1:2|2:0,2:0:0:0:
328,278,103925,1,2,1:2:0:0:
269,331,104174,1,2,2:0:0:0:
269,331,104256,2,0,P|225:344|178:356,1,67.5000000000001,8|0,1:2|2:0,2:0:0:0:
99,347,104588,38,0,L|114:386,1,30.0000000000001,2|0,1:2|3:0,2:0:0:0:
97,381,104919,2,0,L|86:352,1,30.0000000000001,10|0,1:2|3:0,2:0:0:0:
37,191,105251,37,2,1:2:0:0:
159,100,105500,1,2,2:0:0:0:
159,100,105582,2,0,P|219:112|254:123,1,67.5000000000001,8|2,1:2|2:0,2:0:0:0:
308,40,105914,1,2,1:2:0:0:
411,70,106163,1,2,2:0:0:0:
411,70,106245,2,0,P|439:109|454:140,1,67.5000000000001,8|2,1:2|2:0,2:0:0:0:
512,225,106577,1,2,1:2:0:0:
448,271,106826,1,2,2:0:0:0:
448,271,106908,2,0,P|433:304|415:334,1,67.5000000000001,8|2,1:2|2:0,2:0:0:0:
284,352,107240,38,0,L|277:319,2,33.75,2|0|0,3:2|3:0|3:0,2:0:0:0:
272,353,107571,2,0,L|265:323,1,30,10|0,1:2|2:0,2:0:0:0:
137,306,107903,37,2,1:2:0:0:
264,217,108152,1,2,2:0:0:0:
264,217,108234,2,0,P|313:224|359:237,1,67.5000000000001,8|2,1:2|2:0,2:0:0:0:
434,186,108566,1,2,1:2:0:0:
362,107,108814,1,2,2:0:0:0:
362,107,108897,2,0,P|312:114|266:127,1,67.5000000000001,8|2,1:2|2:0,2:0:0:0:
222,43,109229,1,2,1:2:0:0:
293,7,109477,1,2,2:0:0:0:
293,7,109560,2,0,P|342:14|388:27,1,67.5000000000001,8|0,1:2|2:0,2:0:0:0:
445,57,109892,38,0,L|455:24,1,30.0000000000001,2|0,1:2|3:0,2:0:0:0:
464,35,110223,2,0,L|455:63,1,30.0000000000001,10|0,1:2|3:0,2:0:0:0:
428,220,110555,37,10,3:2:0:0:
421,235,110638,1,0,1:0:0:0:
419,252,110721,1,0,1:0:0:0:
421,268,110803,1,2,1:2:0:0:
427,284,110886,2,0,L|480:259,3,33.75,8|0|2|0,3:2|1:0|1:2|1:0,2:0:0:0:
329,309,111218,37,10,3:2:0:0:
314,289,111301,1,0,1:0:0:0:
307,265,111384,1,0,1:0:0:0:
309,240,111466,1,2,1:2:0:0:
321,217,111549,2,0,L|370:252,3,33.75,8|0|2|0,3:2|1:0|1:2|1:0,2:0:0:0:
209,205,111881,37,10,3:2:0:0:
186,229,111964,1,0,1:0:0:0:
177,261,112047,1,0,1:0:0:0:
184,294,112129,1,2,1:2:0:0:
205,319,112212,2,0,L|246:277,3,33.75,8|0|2|0,3:2|1:0|1:2|1:0,2:0:0:0:
90,336,112544,37,10,3:2:0:0:
57,311,112627,1,0,1:0:0:0:
45,271,112710,1,0,1:0:0:0:
57,231,112792,1,2,1:2:0:0:
89,206,112875,2,0,L|119:257,3,33.75,8|0|2|0,3:2|1:0|1:2|1:0,2:0:0:0:
144,109,113207,38,0,B|120:81|144:54|144:54|168:74|153:112,1,120,10|0,2:0|2:0,2:0:0:0:
149,108,114533,6,0,B|252:91|205:164|319:146,1,170,6|2,3:2|3:2,2:0:0:0:
464,139,114864,2,0,P|406:170|377:199,1,85,10|0,3:2|2:0,2:0:0:0:
375,84,115085,1,2,3:2:0:0:
309,232,115196,2,0,B|321:272|321:272|372:295,1,85,2|0,3:2|3:0,2:0:0:0:
453,276,115417,2,0,B|412:266|412:266|366:299,1,85,2|8,3:2|3:2,2:0:0:0:
342,378,115638,2,0,B|370:347|370:347|365:291,1,85,2|0,3:2|2:0,2:0:0:0:
232,314,115859,6,0,P|179:286|162:236,1,85,2|0,3:2|3:0,2:0:0:0:
98,212,116080,1,2,3:2:0:0:
87,224,116190,2,0,P|76:264|89:303,1,85,10|0,3:2|3:0,2:0:0:0:
0,206,116411,1,2,3:2:0:0:
4,190,116522,2,0,P|25:153|63:135,1,85,10|2,3:2|3:2,2:0:0:0:
124,77,116743,1,10,3:2:0:0:
110,64,116853,2,0,P|71:46|29:52,1,85,2|0,3:2|2:0,2:0:0:0:
315,44,117185,70,0,B|330:92|330:92|384:111|384:111|405:188,1,170,2|2,3:2|2:0,2:0:0:0:
449,306,117516,2,0,P|461:265|477:226,1,85,10|0,3:2|2:0,2:0:0:0:
359,271,117737,1,2,2:0:0:0:
300,368,117848,2,0,P|343:360|384:375,1,85,10|0,3:2|2:0,2:0:0:0:
242,298,118069,2,0,P|269:264|310:249,1,85,10|0,3:2|2:0,2:0:0:0:
163,255,118290,2,0,P|162:211|184:173,1,85,10|0,3:2|2:0,2:0:0:0:
257,70,118511,6,0,P|303:90|353:81,1,85,2|0,3:2|3:0,2:0:0:0:
383,155,118732,1,2,2:0:0:0:
375,166,118842,2,0,P|340:188|298:191,1,85,10|2,3:2|3:2,2:0:0:0:
362,300,119063,1,2,3:2:0:0:
377,297,119174,2,0,P|417:267|434:219,1,85,2|2,3:2|3:2,2:0:0:0:
503,277,119395,1,2,3:2:0:0:
507,286,119505,2,0,P|508:328|490:366,1,85,10|10,3:2|3:2,2:0:0:0:
292,343,119726,1,10,3:2:0:0:
228,384,119837,70,0,P|263:305|289:211,1,170,6|2,3:2|2:0,2:0:0:0:
302,105,120168,2,0,P|338:153|374:183,1,85,10|0,3:2|2:0,2:0:0:0:
210,149,120389,1,2,3:2:0:0:
119,65,120500,2,0,B|154:43|154:43|205:46,1,85,2|0,3:2|3:0,2:0:0:0:
89,70,120721,2,0,B|52:50|52:50|29:5,1,85,2|8,3:2|3:2,2:0:0:0:
109,94,120942,2,0,B|110:135|110:135|82:177,1,85,2|0,3:2|2:0,2:0:0:0:
5,313,121163,6,0,P|70:286|106:299,1,85,2|0,3:2|3:0,2:0:0:0:
161,265,121384,1,2,3:2:0:0:
161,245,121494,2,0,P|133:214|93:203,1,85,10|0,3:2|3:0,2:0:0:0:
221,181,121715,1,2,3:2:0:0:
234,191,121826,2,0,P|249:259|230:292,1,85,10|2,3:2|3:2,2:0:0:0:
261,352,122047,1,10,3:2:0:0:
275,351,122157,2,0,P|310:329|329:292,1,85,2|0,3:2|2:0,2:0:0:0:
505,19,122489,70,0,B|454:58|454:58|502:171,1,170,2|2,3:2|2:0,2:0:0:0:
398,230,122820,2,0,P|337:205|296:201,1,85,10|0,3:2|2:0,2:0:0:0:
396,133,123041,1,2,2:0:0:0:
491,260,123152,2,0,P|453:312|446:370,1,85,10|0,3:2|2:0,2:0:0:0:
327,278,123372,2,0,P|320:342|343:395,1,85,10|0,3:2|2:0,2:0:0:0:
163,308,123593,2,0,P|189:366|235:401,1,85,10|0,3:2|2:0,2:0:0:0:
234,213,123814,6,0,B|200:268|200:268|76:240,1,170,10|2,3:2|2:0,2:0:0:0:
98,134,124146,2,0,P|156:111|203:112,1,85,10|0,3:2|3:0,2:0:0:0:
236,33,124367,1,2,2:0:0:0:
254,36,124477,2,0,P|313:55|348:86,1,85,10|2,3:2|2:0,2:0:0:0:
430,44,124698,1,10,3:2:0:0:
441,57,124809,2,0,P|473:110|480:156,1,85,2|8,2:0|3:2,2:0:0:0:
452,253,125030,1,2,2:0:0:0:
493,332,125140,70,0,P|449:280|332:293,1,170,6|2,3:2|2:0,2:0:0:0:
257,262,125472,2,0,P|223:303|186:324,1,85,10|0,3:2|2:0,2:0:0:0:
301,350,125693,1,2,3:2:0:0:
175,237,125803,2,0,B|167:194|167:194|190:155,1,85,2|0,3:2|3:0,2:0:0:0:
285,133,126024,2,0,B|251:161|251:161|206:161,1,85,2|8,3:2|3:2,2:0:0:0:
140,90,126245,2,0,B|181:104|181:104|203:143,1,85,2|0,3:2|2:0,2:0:0:0:
270,258,126466,6,0,P|314:248|346:205,1,85,2|0,3:2|3:0,2:0:0:0:
414,177,126687,1,2,3:2:0:0:
406,271,126798,2,0,P|427:229|415:177,1,85,10|0,3:2|3:0,2:0:0:0:
431,95,127019,1,2,3:2:0:0:
498,162,127129,2,0,P|480:118|432:95,1,85,10|2,3:2|3:2,2:0:0:0:
377,30,127350,1,10,3:2:0:0:
471,22,127461,2,0,P|427:8|378:28,1,85,2|0,3:2|2:0,2:0:0:0:
133,20,127792,70,0,B|157:73|157:73|142:108|142:108|182:202,1,170,2|2,3:2|2:0,2:0:0:0:
160,274,128124,2,0,P|120:327|110:378,1,85,10|0,3:2|2:0,2:0:0:0:
57,254,128345,1,2,2:0:0:0:
203,351,128455,2,0,P|246:333|305:332,1,85,10|0,3:2|2:0,2:0:0:0:
248,220,128676,2,0,P|292:233|338:271,1,85,10|0,3:2|2:0,2:0:0:0:
364,133,128897,2,0,P|389:172|400:230,1,85,10|0,3:2|2:0,2:0:0:0:
414,348,129118,6,0,P|477:320|530:322,1,85,2|0,3:2|3:0,2:0:0:0:
482,228,129339,1,2,2:0:0:0:
381,255,129450,2,0,P|418:234|460:226,1,85,10|2,3:2|3:2,2:0:0:0:
443,136,129671,1,2,3:2:0:0:
342,163,129781,2,0,P|378:142|420:133,1,85,2|2,3:2|3:2,2:0:0:0:
407,49,130002,1,2,3:2:0:0:
306,76,130113,2,0,P|342:55|384:46,1,85,10|10,3:2|3:2,2:0:0:0:
245,141,130334,1,10,3:2:0:0:
248,220,130444,70,0,P|212:127|128:117,1,170,6|2,3:2|2:0,2:0:0:0:
71,140,130776,2,0,P|33:176|-11:193,1,85,10|0,3:2|2:0,2:0:0:0:
73,53,130997,1,2,3:2:0:0:
128,227,131107,2,0,B|137:264|137:264|202:290,1,85,2|0,3:2|3:0,2:0:0:0:
120,206,131328,2,0,B|82:195|82:195|27:239,1,85,2|8,3:2|3:2,2:0:0:0:
141,208,131549,2,0,B|168:181|168:181|158:111,1,85,2|0,3:2|2:0,2:0:0:0:
219,22,131770,6,0,P|250:53|302:62,1,85,2|0,3:2|3:0,2:0:0:0:
339,135,131991,1,2,3:2:0:0:
250,163,132102,2,0,P|293:166|339:140,1,85,10|0,3:2|3:0,2:0:0:0:
413,187,132323,1,2,3:2:0:0:
362,265,132433,2,0,P|397:239|415:190,1,85,10|2,3:2|3:2,2:0:0:0:
497,221,132654,1,10,3:2:0:0:
508,313,132765,2,0,P|519:270|501:221,1,85,2|0,3:2|2:0,2:0:0:0:
163,384,133096,70,0,B|111:342|111:342|142:239,1,170,2|2,3:2|2:0,2:0:0:0:
127,155,133428,2,0,P|91:127|63:82,1,85,10|0,3:2|2:0,2:0:0:0:
58,217,133649,1,2,2:0:0:0:
218,188,133759,2,0,P|258:174|304:177,1,85,10|0,3:2|2:0,2:0:0:0:
263,65,133980,2,0,P|304:72|342:98,1,85,10|0,3:2|2:0,2:0:0:0:
375,0,134201,2,0,P|407:27|427:68,1,85,10|0,3:2|2:0,2:0:0:0:
512,174,134422,6,0,B|468:227|468:227|352:197,1,170,10|2,3:2|2:0,2:0:0:0:
298,319,134754,2,0,P|348:296|407:303,1,85,10|0,3:2|3:0,2:0:0:0:
208,323,134975,1,2,2:0:0:0:
207,308,135085,2,0,P|229:257|279:224,1,85,10|10,3:2|3:2,2:0:0:0:
141,375,135306,1,10,3:2:0:0:
131,366,135417,2,0,P|116:311|133:254,1,85,10|8,3:2|1:2,2:0:0:0:
59,141,135638,1,8,1:2:0:0:
33,216,135748,70,0,P|73:193|131:183,1,100,14|2,1:2|3:2,2:0:0:0:
125,183,136080,1,2,1:2:0:0:
132,75,136301,1,2,3:2:0:0:
132,75,136411,2,0,P|177:83|228:112,1,100,10|0,1:2|3:0,2:0:0:0:
223,108,136743,1,0,1:0:0:0:
338,77,137074,1,10,1:2:0:0:
350,82,137185,1,0,3:0:0:0:
343,61,137295,1,0,3:0:0:0:
355,66,137406,1,2,1:2:0:0:
348,45,137516,1,0,3:0:0:0:
360,50,137627,1,0,3:0:0:0:
361,37,137737,2,0,B|390:69|390:69|366:134,2,100,10|10|10,1:2|3:2|3:2,2:0:0:0:
450,201,138400,6,0,P|393:210|337:228,1,100,10|0,3:2|3:0,2:0:0:0:
352,222,138732,1,2,1:2:0:0:
428,378,139063,2,0,B|394:344|394:344|325:336,2,100,10|2|0,1:2|3:2|3:0,2:0:0:0:
227,300,139726,1,10,1:2:0:0:
219,287,139837,1,0,3:0:0:0:
212,308,139947,1,0,3:0:0:0:
204,295,140058,1,10,1:2:0:0:
198,316,140168,1,0,3:0:0:0:
190,303,140279,1,0,3:0:0:0:
182,314,140389,2,0,B|176:268|176:268|227:226,2,100,10|10|10,1:2|3:2|3:2,2:0:0:0:
87,373,141052,70,0,P|82:302|66:262,1,100,10|2,1:2|3:2,2:0:0:0:
72,275,141384,1,2,1:2:0:0:
176,200,141605,1,0,3:0:0:0:
176,200,141715,2,0,P|118:158|77:144,1,100,10|2,1:2|3:2,2:0:0:0:
91,148,142047,1,2,1:2:0:0:
182,53,142378,1,10,1:2:0:0:
187,67,142489,1,0,3:0:0:0:
198,49,142599,1,0,3:0:0:0:
203,63,142710,1,2,1:2:0:0:
214,46,142820,1,0,3:0:0:0:
219,60,142931,1,0,3:0:0:0:
228,47,143041,2,0,B|261:71|261:71|246:148,2,100,10|10|10,1:2|3:2|3:2,2:0:0:0:
385,75,143704,6,0,P|360:137|368:180,1,100,14|0,1:2|3:0,2:0:0:0:
372,180,144035,2,0,L|421:171,2,35,10|0|0,3:2|3:0|3:0,2:0:0:0:
320,306,144367,2,0,P|288:246|250:225,1,100,8|0,1:2|3:0,2:0:0:0:
248,228,144698,2,0,L|221:270,2,40,8|0|0,3:2|3:0|3:0,2:0:0:0:
175,100,145030,2,0,P|236:125|279:117,1,100,10|0,1:2|3:0,2:0:0:0:
280,113,145361,2,0,L|271:58,2,45,10|8|8,3:2|2:0|2:0,2:0:0:0:
406,74,145693,2,0,L|371:179,2,110,14|14|14,1:2|1:2|1:2,2:0:0:0:
512,210,146356,70,0,P|477:155|415:150,1,110,14|0,1:2|3:0,2:0:0:0:
371,178,146687,1,2,1:2:0:0:
368,345,146908,1,0,3:0:0:0:
368,345,147019,2,0,P|353:281|297:255,1,110,10|0,1:2|3:0,2:0:0:0:
246,265,147350,1,2,1:2:0:0:
126,384,147571,1,0,3:0:0:0:
126,384,147682,2,0,P|156:326|129:269,1,110,10|0,1:2|3:0,2:0:0:0:
83,244,148013,1,2,1:2:0:0:
179,97,148234,1,0,3:0:0:0:
179,97,148345,2,0,B|224:105|224:105|253:177,2,110,10|2|2,3:2|3:2|3:2,2:0:0:0:
7,41,149008,6,0,P|56:85|117:75,1,110,10|0,3:2|3:0,2:0:0:0:
147,27,149339,1,2,1:2:0:0:
170,181,149560,1,0,3:0:0:0:
170,181,149671,2,0,P|235:183|276:136,1,110,10|0,1:2|3:0,2:0:0:0:
268,80,150002,1,2,1:2:0:0:
380,253,150223,1,0,3:0:0:0:
380,253,150334,2,0,P|431:212|432:150,1,110,10|0,1:2|3:0,2:0:0:0:
390,112,150665,1,10,1:2:0:0:
270,269,150886,1,0,3:0:0:0:
270,269,150997,2,0,L|309:375,2,110,10|10|10,1:2|3:2|3:2,2:0:0:0:
166,216,151660,70,0,P|113:239|106:308,1,110,10|0,1:2|3:0,2:0:0:0:
152,344,151991,1,2,1:2:0:0:
301,224,152212,1,0,3:0:0:0:
301,224,152323,2,0,P|275:275|314:333,1,110,10|0,1:2|3:0,2:0:0:0:
372,332,152654,1,2,1:2:0:0:
388,143,152875,1,0,3:0:0:0:
388,143,152986,2,0,P|401:199|468:218,1,110,10|0,1:2|3:0,2:0:0:0:
511,180,153317,1,2,1:2:0:0:
228,105,153538,1,0,3:0:0:0:
228,105,153649,2,0,B|190:83|190:83|210:8,2,110,10|2|2,1:2|3:2|3:2,2:0:0:0:
336,87,154312,6,0,P|368:47|444:44,1,110,10|0,1:2|3:0,2:0:0:0:
486,80,154643,1,2,1:2:0:0:
283,191,154864,1,0,3:0:0:0:
283,191,154975,2,0,P|333:180|393:227,1,110,10|0,1:2|3:0,2:0:0:0:
402,282,155306,1,2,1:2:0:0:
161,237,155527,1,0,3:0:0:0:
161,237,155638,2,0,P|205:261|222:335,1,110,10|0,1:2|3:0,2:0:0:0:
193,383,155969,1,2,1:2:0:0:
44,267,156190,1,0,3:0:0:0:
44,267,156301,2,0,B|14:233|14:233|49:160,2,110,10|10|10,1:2|3:2|3:2,2:0:0:0:
110,100,156964,22,0,P|161:130|209:154,1,100,2|2,1:2|2:0,2:0:0:0:
240,76,157295,2,0,P|195:53|152:27,1,100,10|2,1:2|1:2,2:0:0:0:
305,17,157627,2,0,B|333:57|333:57|318:119,2,100,2|2|2,3:2|3:2|2:0,2:0:0:0:
444,63,158290,2,0,P|418:122|412:182,1,100,10|2,1:2|3:2,2:0:0:0:
411,260,158621,2,0,P|450:228|495:208,1,100,2|2,3:2|3:2,2:0:0:0:
447,353,158953,1,10,1:2:0:0:
415,342,159063,1,2,2:2:0:0:
382,337,159174,1,2,3:2:0:0:
349,338,159284,1,2,2:2:0:0:
136,369,159616,6,0,P|87:323|83:283,1,100,2|2,1:2|2:0,2:0:0:0:
153,246,159947,2,0,P|167:293|207:321,1,100,10|2,1:2|2:0,2:0:0:0:
207,175,160279,2,0,B|166:151|166:151|114:173,2,100,10|10|10,1:2|3:2|3:2,2:0:0:0:
259,81,160942,2,0,P|311:56|369:61,1,100,2|2,1:2|2:0,2:0:0:0:
400,124,161273,2,0,P|363:157|344:202,1,100,10|2,1:2|3:2,2:0:0:0:
395,265,161605,2,0,P|447:240|505:245,1,100,10|0,3:2|3:0,2:0:0:0:
400,369,161936,1,2,1:2:0:0:
375,346,162047,1,10,3:2:0:0:
345,332,162157,1,2,2:0:0:0:
312,327,162268,1,2,1:2:0:0:
156,332,162599,70,0,P|129:261|143:226,1,100,10|2,1:2|1:2,2:0:0:0:
98,167,162931,2,0,B|59:185|59:185|50:250,2,100,2|2|2,3:2|3:2|2:0,2:0:0:0:
108,31,163593,2,0,P|141:75|212:121,1,100,10|2,1:2|3:2,2:0:0:0:
272,136,163925,2,0,P|263:87|267:38,1,100,2|2,3:2|3:2,2:0:0:0:
382,140,164256,1,10,1:2:0:0:
357,163,164367,1,2,2:0:0:0:
338,189,164477,1,2,3:2:0:0:
322,219,164588,1,2,2:0:0:0:
138,374,164919,6,0,P|124:326|95:285,1,100,2|2,1:2|2:0,2:0:0:0:
183,252,165251,2,0,P|212:292|225:340,1,100,10|2,1:2|2:0,2:0:0:0:
302,381,165582,2,0,B|336:348|336:348|320:277,2,100,10|10|10,1:2|3:2|3:2,2:0:0:0:
429,346,166245,2,0,P|437:281|458:235,1,100,2|2,1:2|2:0,2:0:0:0:
388,186,166577,2,0,P|344:210|309:246,1,100,10|2,1:2|3:2,2:0:0:0:
229,192,166908,2,0,P|237:127|258:81,1,100,10|2,3:2|3:2,2:0:0:0:
188,32,167240,1,2,1:2:0:0:
158,47,167350,1,10,3:2:0:0:
132,67,167461,1,2,2:2:0:0:
109,92,167571,70,0,P|140:143|163:227,1,100,2|2,1:2|2:0,2:0:0:0:
152,284,167903,2,0,P|203:253|287:230,1,100,10|2,1:2|1:2,2:0:0:0:
323,276,168234,2,0,B|350:310|350:310|328:404,2,100,2|2|2,3:2|3:2|2:0,2:0:0:0:
420,220,168897,2,0,P|368:189|293:196,1,100,10|2,1:2|3:2,2:0:0:0:
255,132,169229,2,0,P|307:101|382:108,1,100,2|2,3:2|3:2,2:0:0:0:
419,48,169560,1,10,1:2:0:0:
392,27,169671,1,2,2:0:0:0:
361,15,169781,1,2,3:2:0:0:
328,13,169892,1,2,2:0:0:0:
43,98,170223,6,0,P|72:156|78:220,1,100,2|2,1:2|2:0,2:0:0:0:
180,197,170555,2,0,P|154:256|109:302,1,100,10|10,1:2|1:2,2:0:0:0:
82,362,170886,2,0,B|38:344|38:344|26:276,2,100,2|2|2,3:2|3:2|3:2,2:0:0:0:
210,324,171549,2,0,P|266:332|340:373,1,100,2|2,1:2|2:0,2:0:0:0:
361,287,171881,2,0,P|337:243|303:206,1,100,10|2,1:2|3:2,2:0:0:0:
355,132,172212,2,0,P|411:140|485:181,1,100,10|2,3:2|3:2,2:0:0:0:
506,95,172544,1,2,1:2:0:0:
491,65,172654,1,10,3:2:0:0:
472,37,172765,1,2,2:0:0:0:
448,14,172875,70,0,P|419:28|385:37,2,50,2|2|2,1:2|2:0|2:0,2:0:0:0:
319,61,173207,2,0,P|253:36|196:27,1,100,10|2,1:2|1:2,2:0:0:0:
150,77,173538,2,0,B|128:122|128:122|162:180,2,100,2|2|2,3:2|3:2|2:0,2:0:0:0:
121,237,174201,2,0,P|183:217|249:216,1,100,10|2,1:2|3:2,2:0:0:0:
321,221,174533,2,0,P|286:257|261:300,1,100,2|2,3:2|3:2,2:0:0:0:
314,366,174864,1,10,1:2:0:0:
344,353,174975,1,2,2:0:0:0:
377,345,175085,1,2,3:2:0:0:
410,343,175196,1,2,2:0:0:0:
133,363,175527,6,0,P|107:318|49:301,1,100,2|2,1:2|2:0,2:0:0:0:
129,237,175859,2,0,P|174:255|197:299,1,100,10|10,1:2|1:2,2:0:0:0:
280,308,176190,2,0,B|308:267|308:267|282:214,2,100,2|2|2,3:2|3:2|3:2,2:0:0:0:
428,306,176853,70,0,L|498:321,2,50,2|2|2,3:2|3:2|3:2,2:0:0:0:
365,229,177185,6,0,L|294:244,2,60,2|2|2,3:2|3:2|3:2,2:0:0:0:
444,169,177516,70,0,L|514:184,2,70,2|2|2,3:2|3:2|3:2,2:0:0:0:
381,92,177848,6,0,L|279:114,2,80,10|10|10,1:2|1:2|1:2,2:0:0:0:
484,30,178179,22,0,B|395:1|418:85|308:55,1,170,6|2,3:2|2:0,2:0:0:0:
209,160,178511,2,0,P|269:132|332:134,1,85,10|0,3:2|2:0,2:0:0:0:
208,60,178732,1,2,3:2:0:0:
119,137,178842,2,0,B|105:176|105:176|136:235,1,85,2|0,3:2|3:0,2:0:0:0:
204,266,179063,2,0,B|177:234|177:234|110:231,1,85,2|8,3:2|3:2,2:0:0:0:
49,275,179284,2,0,B|89:267|89:267|125:211,1,85,2|0,3:2|2:0,2:0:0:0:
203,384,179505,6,0,P|245:343|325:346,1,85,2|0,3:2|3:0,2:0:0:0:
338,286,179726,1,2,3:2:0:0:
327,269,179837,2,0,P|290:250|248:250,1,85,10|0,3:2|3:0,2:0:0:0:
365,193,180058,1,2,3:2:0:0:
380,199,180168,2,0,P|413:247|396:325,1,85,10|2,3:2|3:2,2:0:0:0:
457,351,180389,1,10,3:2:0:0:
471,339,180500,2,0,P|497:306|505:265,1,85,2|0,3:2|2:0,2:0:0:0:
130,369,180831,70,0,B|117:315|117:315|77:293|77:293|55:200,1,170,2|2,3:2|2:0,2:0:0:0:
199,152,181163,2,0,P|162:187|144:246,1,85,10|0,3:2|2:0,2:0:0:0:
95,121,181384,1,2,2:0:0:0:
208,55,181494,2,0,P|253:75|277:129,1,85,10|0,3:2|2:0,2:0:0:0:
340,23,181715,2,0,P|361:67|345:124,1,85,10|0,3:2|2:0,2:0:0:0:
471,72,181936,2,0,P|459:119|410:152,1,85,10|0,3:2|2:0,2:0:0:0:
353,283,182157,6,0,P|346:228|372:186,1,85,2|0,3:2|3:0,2:0:0:0:
282,166,182378,1,2,2:0:0:0:
271,170,182489,2,0,P|247:204|245:246,1,85,10|2,3:2|3:2,2:0:0:0:
157,235,182710,1,2,3:2:0:0:
147,223,182820,2,0,P|140:168|166:126,1,85,2|2,3:2|3:2,2:0:0:0:
78,106,183041,1,2,3:2:0:0:
67,112,183152,2,0,P|43:146|41:188,1,85,10|10,3:2|3:2,2:0:0:0:
132,326,183372,1,10,3:2:0:0:
78,384,183483,70,0,P|164:334|266:313,1,170,6|2,3:2|2:0,2:0:0:0:
363,284,183814,2,0,P|311:262|260:214,1,85,10|0,3:2|2:0,2:0:0:0:
311,366,184035,1,2,3:2:0:0:
391,192,184146,2,0,B|409:155|409:155|396:102,1,85,2|0,3:2|3:0,2:0:0:0:
376,212,184367,2,0,B|399:246|399:246|451:261,1,85,2|8,3:2|3:2,2:0:0:0:
366,189,184588,2,0,B|324:191|324:191|285:229,1,85,2|0,3:2|2:0,2:0:0:0:
197,341,184809,6,0,P|170:311|165:239,1,85,2|0,3:2|3:0,2:0:0:0:
118,195,185030,1,2,3:2:0:0:
103,201,185140,2,0,P|77:234|71:276,1,85,10|0,3:2|3:0,2:0:0:0:
34,148,185361,1,2,3:2:0:0:
40,137,185472,2,0,P|75:115|117:112,1,85,10|2,3:2|3:2,2:0:0:0:
203,82,185693,1,10,3:2:0:0:
194,69,185803,2,0,P|165:38|125:24,1,85,2|0,3:2|2:0,2:0:0:0:
356,3,186135,70,0,B|410:49|410:49|360:182,1,170,2|2,3:2|2:0,2:0:0:0:
430,237,186466,2,0,P|490:240|546:274,1,85,10|0,3:2|2:0,2:0:0:0:
464,153,186687,1,2,2:0:0:0:
337,228,186798,2,0,P|323:267|341:346,1,85,10|0,3:2|2:0,2:0:0:0:
200,242,187019,2,0,P|207:282|262:342,1,85,10|0,3:2|2:0,2:0:0:0:
82,324,187240,2,0,P|108:355|186:379,1,85,10|0,3:2|2:0,2:0:0:0:
0,384,187461,6,0,B|49:342|49:342|19:212,1,170,10|2,3:2|2:0,2:0:0:0:
72,129,187792,2,0,P|127:107|213:141,1,85,10|0,3:2|3:0,2:0:0:0:
193,25,188013,1,2,2:0:0:0:
213,25,188124,2,0,P|265:52|294:140,1,85,10|2,3:2|3:2,2:0:0:0:
379,59,188345,1,10,3:2:0:0:
391,74,188455,2,0,P|403:131|354:210,1,85,2|8,3:2|3:2,2:0:0:0:
327,265,188676,1,0,2:0:0:0:
357,338,188787,70,0,P|307:272|179:303,1,170,6|2,3:2|2:0,2:0:0:0:
131,252,189118,2,0,P|80:290|23:299,1,85,10|0,3:2|2:0,2:0:0:0:
157,347,189339,1,2,3:2:0:0:
142,163,189450,2,0,B|148:122|148:122|107:82,1,85,2|0,3:2|3:0,2:0:0:0:
30,80,189671,2,0,B|61:105|61:105|117:90,1,85,2|8,3:2|3:2,2:0:0:0:
156,25,189892,2,0,B|117:39|117:39|102:95,1,85,2|0,3:2|2:0,2:0:0:0:
221,143,190113,6,0,P|262:147|297:170,1,85,2|0,3:2|3:0,2:0:0:0:
380,193,190334,1,2,3:2:0:0:
356,104,190444,2,0,P|379:138|383:180,1,85,10|0,3:2|3:0,2:0:0:0:
430,257,190665,1,2,3:2:0:0:
471,173,190776,2,0,P|466:214|443:249,1,85,10|2,3:2|3:2,2:0:0:0:
412,329,190997,1,10,3:2:0:0:
506,307,191107,2,0,P|471:330|429:334,1,85,2|0,3:2|2:0,2:0:0:0:
63,373,191439,70,0,B|81:316|81:316|132:291|132:291|149:240,1,170,2|2,3:2|2:0,2:0:0:0:
119,149,191770,2,0,P|87:108|77:51,1,85,10|0,3:2|2:0,2:0:0:0:
29,178,191991,1,2,2:0:0:0:
212,178,192102,2,0,P|262:186|299:242,1,85,10|0,3:2|2:0,2:0:0:0:
321,94,192323,2,0,P|354:132|346:198,1,85,10|0,3:2|2:0,2:0:0:0:
459,99,192544,2,0,P|459:149|411:195,1,85,10|0,3:2|2:0,2:0:0:0:
415,371,192765,6,0,P|423:320|460:268,1,85,2|0,3:2|3:0,2:0:0:0:
358,261,192986,1,2,2:0:0:0:
319,349,193096,2,0,P|327:298|364:246,1,85,10|2,3:2|3:2,2:0:0:0:
259,224,193317,1,2,3:2:0:0:
220,312,193428,2,0,P|228:261|265:209,1,85,2|2,3:2|3:2,2:0:0:0:
163,193,193649,1,2,3:2:0:0:
124,281,193759,2,0,P|132:230|169:178,1,85,10|10,3:2|3:2,2:0:0:0:
174,69,193980,1,10,3:2:0:0:
105,107,194091,70,0,P|179:92|307:75,1,170,6|2,3:2|2:0,2:0:0:0:
356,122,194422,2,0,P|369:193|365:236,1,85,10|0,3:2|2:0,2:0:0:0:
449,156,194643,1,2,3:2:0:0:
331,280,194754,2,0,B|290:264|290:264|281:203,1,85,2|0,3:2|3:0,2:0:0:0:
338,297,194975,2,0,B|344:340|344:340|296:378,1,85,2|8,3:2|3:2,2:0:0:0:
350,283,195196,2,0,B|384:255|384:255|441:278,1,85,2|0,3:2|2:0,2:0:0:0:
225,318,195417,6,0,P|181:286|178:221,1,85,2|0,3:2|3:0,2:0:0:0:
120,199,195638,1,2,3:2:0:0:
94,285,195748,2,0,P|90:230|138:186,1,85,10|0,3:2|3:0,2:0:0:0:
115,126,195969,1,2,3:2:0:0:
31,162,196080,2,0,P|70:124|134:132,1,85,10|2,3:2|3:2,2:0:0:0:
169,69,196301,1,10,3:2:0:0:
86,33,196411,2,0,P|140:38|175:93,1,85,2|0,3:2|2:0,2:0:0:0:
343,19,196743,70,0,B|388:62|388:62|354:198,1,170,2|2,3:2|2:0,2:0:0:0:
428,258,197074,2,0,P|469:250|542:256,1,85,10|0,3:2|2:0,2:0:0:0:
449,161,197295,1,2,2:0:0:0:
332,261,197406,2,0,P|325:308|363:377,1,85,10|0,3:2|2:0,2:0:0:0:
252,220,197627,2,0,P|222:257|220:335,1,85,10|0,3:2|2:0,2:0:0:0:
195,149,197848,2,0,P|150:166|110:233,1,85,10|0,3:2|2:0,2:0:0:0:
6,48,198069,6,0,B|55:90|55:90|180:57,1,170,10|2,3:2|2:0,2:0:0:0:
267,77,198400,2,0,P|313:88|349:157,1,85,10|0,3:2|3:0,2:0:0:0:
415,86,198621,1,2,2:0:0:0:
428,92,198732,2,0,P|449:134|419:206,1,85,10|10,3:2|3:2,2:0:0:0:
499,242,198953,1,10,3:2:0:0:
511,262,199063,2,0,B|496:304|496:304|499:312|499:312|460:429,1,100,10|0,3:2|2:0,2:0:0:0:
