osu file format v14

[General]
AudioFilename: audio.mp3
AudioLeadIn: 0
PreviewTime: 114042
Countdown: 0
SampleSet: Soft
StackLeniency: 0.2
Mode: 0
LetterboxInBreaks: 0
WidescreenStoryboard: 0

[Editor]
Bookmarks: 13759,24367,34975,46908,57516,70776,81384,91991,102599,114533,135748,141052,146356,156964,178179,199395
DistanceSpacing: 1
BeatDivisor: 3
GridSize: 8
TimelineZoom: 1.5

[Metadata]
Title:HANIPAGANDA
TitleUnicode:HANIPAGANDA
Artist:Akatsuki Records
ArtistUnicode:暁Records
Creator:Night Mare
Version:AN ARMY OF CERAMICS
Source:東方鬼形獣 ~ Wily Beast and Weakest Creature.
Tags:luna zelq frozz -keqing Stack Bros. 杖刀偶 磨弓 Joutouguu Mayumi Touhou Project Kikeijuu 2hu c97 video game セラミックスの杖刀人 Joutounin of Ceramics ZUN Team Shangai Alice 上海アリス幻樂団 japanese female vocal cafuu haniwa propaganda rock comiket wbawc th17
BeatmapID:2266726
BeatmapSetID:1083844

[Difficulty]
HPDrainRate:5.5
CircleSize:4.2
OverallDifficulty:9
ApproachRate:9.4
SliderMultiplier:2
SliderTickRate:1

[Events]
//Background and Video events
0,0,"image.jpg",0,0
Video,-950,"video.mp4"
//Break Periods
//Storyboard Layer 0 (Background)
//Storyboard Layer 1 (Fail)
//Storyboard Layer 2 (Pass)
//Storyboard Layer 3 (Foreground)
//Storyboard Layer 4 (Overlay)
//Storyboard Sound Samples

[TimingPoints]
3152,331.491712707182,4,2,1,60,1,0
6798,-200,4,2,1,60,0,0
13096,-111.111111111111,4,2,1,60,0,0
13344,-111.111111111111,4,2,1,5,0,0
13428,-111.111111111111,4,2,1,60,0,0
13925,-125,4,2,1,60,0,0
13980,-125,4,2,1,70,0,0
18732,-125,4,2,2,70,0,0
19063,-125,4,2,1,70,0,0
24035,-125,4,2,2,70,0,0
24367,-188.679245283019,4,2,2,50,0,0
27019,-188.679245283019,4,2,1,50,0,0
34975,-125,4,2,2,65,0,0
37129,-125,4,2,1,65,0,0
39863,-125,4,2,2,65,0,0
42433,-125,4,2,1,65,0,0
42931,-125,4,2,1,70,0,0
45582,-1000,4,2,1,40,0,0
46908,-83.3333333333333,4,2,1,80,0,1
48566,-83.3333333333333,4,2,2,80,0,1
48676,-83.3333333333333,4,2,1,80,0,1
49008,-83.3333333333333,4,2,2,80,0,1
49118,-83.3333333333333,4,2,1,80,0,1
49229,-83.3333333333333,4,2,2,80,0,1
49560,-83.3333333333333,4,2,1,80,0,1
50996,-83.3333333333333,4,2,2,80,0,1
51218,-83.3333333333333,4,2,1,80,0,1
51328,-83.3333333333333,4,2,2,80,0,1
51439,-83.3333333333333,4,2,1,80,0,1
51660,-83.3333333333333,4,2,2,80,0,1
51770,-83.3333333333333,4,2,1,80,0,1
53870,-83.3333333333333,4,2,2,80,0,1
53980,-83.3333333333333,4,2,1,80,0,1
54312,-83.3333333333333,4,2,2,80,0,1
54422,-83.3333333333333,4,2,1,80,0,1
54533,-83.3333333333333,4,2,2,80,0,1
54864,-83.3333333333333,4,2,1,80,0,1
57185,-71.4285714285714,4,2,1,80,0,1
57516,-111.111111111111,4,2,2,75,0,0
57626,-111.111111111111,4,2,1,75,0,0
58069,-111.111111111111,4,2,2,75,0,0
58289,-111.111111111111,4,2,1,75,0,0
58732,-111.111111111111,4,2,2,75,0,0
58952,-111.111111111111,4,2,1,75,0,0
60721,-111.111111111111,4,2,2,75,0,0
60942,-111.111111111111,4,2,1,75,0,0
61384,-111.111111111111,4,2,2,75,0,0
61605,-111.111111111111,4,2,1,75,0,0
62488,-111.111111111111,4,2,2,75,0,0
62599,-111.111111111111,4,2,1,75,0,0
63372,-111.111111111111,4,2,2,75,0,0
63593,-111.111111111111,4,2,1,75,0,0
64035,-111.111111111111,4,2,2,75,0,0
64256,-111.111111111111,4,2,1,75,0,0
66024,-111.111111111111,4,2,2,75,0,0
66245,-111.111111111111,4,2,1,75,0,0
66687,-111.111111111111,4,2,2,75,0,0
66908,-111.111111111111,4,2,1,75,0,0
67461,-90.9090909090908,4,2,1,75,0,0
68124,-90.9090909090908,4,2,1,65,0,0
68787,-90.9090909090908,4,2,2,65,0,0
69118,-90.9090909090908,4,2,1,65,0,0
69450,-90.9090909090908,4,2,1,55,0,0
70776,-90.9090909090908,4,2,3,65,0,0
70942,-125,4,2,1,65,0,0
75582,-125,4,2,2,65,0,0
75748,-125,4,2,1,65,0,0
81384,-105.263157894737,4,2,1,70,0,0
86190,-105.263157894737,4,2,2,70,0,0
86356,-105.263157894737,4,2,1,70,0,0
91991,-188.679245283019,4,2,2,50,0,0
94643,-188.679245283019,4,2,1,50,0,0
102599,-125,4,2,2,65,0,0
104754,-125,4,2,1,65,0,0
107488,-125,4,2,2,65,0,0
110058,-125,4,2,1,65,0,0
113207,-1000,4,2,1,40,0,0
114533,-83.3333333333333,4,2,1,80,0,1
116190,-83.3333333333333,4,2,2,80,0,1
116300,-83.3333333333333,4,2,1,80,0,1
116632,-83.3333333333333,4,2,2,80,0,1
116743,-83.3333333333333,4,2,1,80,0,1
116853,-83.3333333333333,4,2,2,80,0,1
117185,-83.3333333333333,4,2,1,80,0,1
118621,-83.3333333333333,4,2,2,80,0,1
118842,-83.3333333333333,4,2,1,80,0,1
118953,-83.3333333333333,4,2,2,80,0,1
119063,-83.3333333333333,4,2,1,80,0,1
119284,-83.3333333333333,4,2,2,80,0,1
119395,-83.3333333333333,4,2,1,80,0,1
121494,-83.3333333333333,4,2,2,80,0,1
121604,-83.3333333333333,4,2,1,80,0,1
121936,-83.3333333333333,4,2,2,80,0,1
122047,-83.3333333333333,4,2,1,80,0,1
122157,-83.3333333333333,4,2,2,80,0,1
122489,-83.3333333333333,4,2,1,80,0,1
124919,-83.3333333333333,4,2,1,80,0,0
125140,-83.3333333333333,4,2,1,85,0,1
125472,-71.4285714285714,4,2,1,85,0,1
126798,-71.4285714285714,4,2,2,85,0,1
126908,-71.4285714285714,4,2,1,85,0,1
127240,-71.4285714285714,4,2,2,85,0,1
127350,-71.4285714285714,4,2,1,85,0,1
127461,-71.4285714285714,4,2,2,85,0,1
127792,-71.4285714285714,4,2,1,85,0,1
129228,-71.4285714285714,4,2,2,85,0,1
129450,-71.4285714285714,4,2,1,85,0,1
129560,-71.4285714285714,4,2,2,85,0,1
129671,-71.4285714285714,4,2,1,85,0,1
129892,-71.4285714285714,4,2,2,85,0,1
130002,-71.4285714285714,4,2,1,85,0,1
132102,-71.4285714285714,4,2,2,85,0,1
132212,-71.4285714285714,4,2,1,85,0,1
132544,-71.4285714285714,4,2,2,85,0,1
132654,-71.4285714285714,4,2,1,85,0,1
132765,-71.4285714285714,4,2,2,85,0,1
133096,-71.4285714285714,4,2,1,85,0,1
135417,-66.6666666666667,4,2,1,85,0,1
135748,-66.6666666666667,4,2,2,70,0,0
135859,-66.6666666666667,4,2,1,70,0,0
136080,-100,4,2,1,70,0,0
136300,-100,4,2,2,70,0,0
136522,-100,4,2,1,70,0,0
136963,-100,4,2,2,70,0,0
137074,-100,4,2,2,65,0,0
137185,-100,4,2,1,65,0,0
138400,-100,4,2,1,70,0,0
138952,-100,4,2,2,70,0,0
139174,-100,4,2,1,70,0,0
139615,-100,4,2,2,70,0,0
139726,-100,4,2,2,65,0,0
139837,-100,4,2,1,65,0,0
141052,-90.9090909090909,4,2,1,75,0,0
141604,-90.9090909090909,4,2,2,75,0,0
141825,-90.9090909090909,4,2,1,75,0,0
142267,-90.9090909090909,4,2,2,75,0,0
142489,-90.9090909090909,4,2,1,75,0,0
143704,-83.3333333333333,4,2,1,80,0,1
143925,-83.3333333333333,4,2,2,80,0,1
144035,-83.3333333333333,4,2,1,80,0,1
144256,-83.3333333333333,4,2,2,80,0,1
144367,-100,4,2,2,80,0,1
144698,-100,4,2,1,80,0,1
144919,-100,4,2,2,80,0,1
145030,-76.9230769230769,4,2,2,80,0,1
145361,-76.9230769230769,4,2,1,80,0,1
145693,-62.5,4,2,1,90,0,1
146356,-90.9090909090909,4,2,2,75,0,0
146576,-90.9090909090909,4,2,1,75,0,0
146908,-90.9090909090909,4,2,2,75,0,0
147129,-90.9090909090909,4,2,1,75,0,0
147570,-90.9090909090909,4,2,2,75,0,0
147792,-90.9090909090909,4,2,1,75,0,0
149560,-90.9090909090909,4,2,2,75,0,0
149781,-90.9090909090909,4,2,1,75,0,0
150222,-90.9090909090909,4,2,2,75,0,0
150444,-90.9090909090909,4,2,1,75,0,0
151328,-90.9090909090909,4,2,2,75,0,0
151439,-90.9090909090909,4,2,1,75,0,0
152212,-90.9090909090909,4,2,2,75,0,0
152433,-90.9090909090909,4,2,1,75,0,0
152875,-90.9090909090909,4,2,2,75,0,0
153096,-90.9090909090909,4,2,1,75,0,0
154864,-90.9090909090909,4,2,2,75,0,0
155085,-90.9090909090909,4,2,1,75,0,0
155527,-90.9090909090909,4,2,2,75,0,0
155748,-90.9090909090909,4,2,1,75,0,0
156964,-125,4,2,1,65,0,0
158621,-125,4,2,2,65,0,0
158731,-125,4,2,1,65,0,0
163925,-125,4,2,2,65,0,0
164035,-125,4,2,1,65,0,0
169229,-125,4,2,2,65,0,0
169339,-125,4,2,1,65,0,0
174533,-125,4,2,2,65,0,0
174643,-125,4,2,1,65,0,0
176853,-125,4,2,1,50,0,0
176908,-125,4,2,1,5,0,0
176964,-125,4,2,2,50,0,0
177019,-125,4,2,2,5,0,0
177074,-125,4,2,2,50,0,0
177129,-125,4,2,2,5,0,0
177185,-90.9090909090909,4,2,1,60,0,0
177240,-90.9090909090909,4,2,1,5,0,0
177295,-90.9090909090909,4,2,2,60,0,0
177350,-90.9090909090909,4,2,2,5,0,0
177406,-90.9090909090909,4,2,2,60,0,0
177461,-90.9090909090909,4,2,2,5,0,0
177516,-71.4285714285714,4,2,1,70,0,0
177571,-71.4285714285714,4,2,1,5,0,0
177627,-71.4285714285714,4,2,2,70,0,0
177682,-71.4285714285714,4,2,2,5,0,0
177737,-71.4285714285714,4,2,2,70,0,0
177792,-71.4285714285714,4,2,2,5,0,0
177848,-58.8235294117647,4,2,2,80,0,0
177903,-58.8235294117647,4,2,2,5,0,0
177958,-58.8235294117647,4,2,2,80,0,0
178013,-58.8235294117647,4,2,2,5,0,0
178069,-58.8235294117647,4,2,2,80,0,0
178124,-58.8235294117647,4,2,2,5,0,0
178179,-58.8235294117647,4,2,1,85,0,1
178511,-76.9230769230769,4,2,1,85,0,1
179837,-76.9230769230769,4,2,2,85,0,1
179947,-76.9230769230769,4,2,1,85,0,1
180279,-76.9230769230769,4,2,2,85,0,1
180389,-76.9230769230769,4,2,1,85,0,1
180500,-76.9230769230769,4,2,2,85,0,1
180831,-76.9230769230769,4,2,1,85,0,1
182267,-76.9230769230769,4,2,2,85,0,1
182489,-76.9230769230769,4,2,1,85,0,1
182599,-76.9230769230769,4,2,2,85,0,1
182710,-76.9230769230769,4,2,1,85,0,1
182931,-76.9230769230769,4,2,2,85,0,1
183041,-76.9230769230769,4,2,1,85,0,1
185140,-76.9230769230769,4,2,2,85,0,1
185250,-76.9230769230769,4,2,1,85,0,1
185582,-76.9230769230769,4,2,2,85,0,1
185693,-76.9230769230769,4,2,1,85,0,1
185803,-76.9230769230769,4,2,2,85,0,1
186135,-76.9230769230769,4,2,1,85,0,1
188566,-76.9230769230769,4,2,1,85,0,0
188787,-76.9230769230769,4,2,1,90,0,1
189118,-66.6666666666667,4,2,1,90,0,1
190444,-66.6666666666667,4,2,2,90,0,1
190554,-66.6666666666667,4,2,1,90,0,1
190886,-66.6666666666667,4,2,2,90,0,1
190997,-66.6666666666667,4,2,1,90,0,1
191107,-66.6666666666667,4,2,2,90,0,1
191439,-66.6666666666667,4,2,1,90,0,1
192875,-66.6666666666667,4,2,2,90,0,1
193096,-66.6666666666667,4,2,1,90,0,1
193207,-66.6666666666667,4,2,2,90,0,1
193317,-66.6666666666667,4,2,1,90,0,1
193538,-66.6666666666667,4,2,2,90,0,1
193649,-66.6666666666667,4,2,1,90,0,1
195748,-66.6666666666667,4,2,2,90,0,1
195858,-66.6666666666667,4,2,1,90,0,1
196190,-66.6666666666667,4,2,2,90,0,1
196301,-66.6666666666667,4,2,1,90,0,1
196411,-66.6666666666667,4,2,2,90,0,1
196743,-62.5,4,2,1,90,0,1
198069,-58.8235294117647,4,2,1,95,0,1
199063,-55.5555555555556,4,2,1,95,0,1
199395,-55.5555555555556,4,2,1,95,0,0

[Colours]
Combo1 : 184,98,255
Combo2 : 255,255,128
Combo3 : 255,184,17
Combo4 : 255,128,128
Combo5 : 95,234,174
Combo6 : 62,255,80

[HitObjects]
163,281,3152,85,4,3:0:0:0:
163,281,3483,1,8,2:0:0:0:
163,281,3814,1,8,1:2:0:0:
80,384,4146,1,0,3:0:0:0:
65,195,4477,37,0,3:0:0:0:
65,195,4809,1,8,2:0:0:0:
65,195,5140,1,8,1:2:0:0:
65,195,5803,37,4,3:0:0:0:
65,195,5969,1,0,1:0:0:0:
154,151,6135,1,8,1:2:0:0:
154,151,6301,1,0,1:0:0:0:
15,104,6466,1,8,1:2:0:0:
179,51,6756,1,0,3:0:0:0:
184,59,6798,2,0,L|207:63,3,25,0|0|0|0,3:0|1:0|1:0|1:0,2:0:0:0:
304,0,7129,38,0,L|280:4,3,25,0|0|0|0,3:0|2:0|2:0|2:0,2:0:0:0:
363,81,7461,1,8,2:0:0:0:
363,81,7792,1,8,2:0:0:0:
363,81,8124,1,8,1:2:0:0:
363,81,8290,1,8,2:0:0:0:
512,0,8455,37,4,3:0:0:0:
512,0,8787,1,8,2:0:0:0:
512,0,9118,1,8,1:2:0:0:
486,168,9450,1,0,3:0:0:0:
234,154,9781,37,4,3:0:0:0:
234,154,10113,1,8,2:0:0:0:
234,154,10444,1,8,1:2:0:0:
234,154,11107,37,4,3:0:0:0:
234,154,11273,1,0,1:0:0:0:
264,265,11439,1,8,1:2:0:0:
264,265,11605,1,0,1:0:0:0:
334,108,11770,1,8,1:2:0:0:
447,187,12060,1,0,3:0:0:0:
452,194,12102,2,0,L|447:216,3,25,0|0|0|0,3:0|1:0|1:0|1:0,2:0:0:0:
512,305,12433,38,0,L|507:282,3,25,4|0|0|0,3:0|2:0|2:0|2:0,2:0:0:0:
446,384,12765,1,8,2:0:0:0:
347,301,13096,2,0,B|290:288|290:376|205:339,1,135,8|0,2:0|2:0,2:0:0:0:
232,267,13428,1,8,1:2:0:0:
353,384,13593,1,8,2:0:0:0:
151,384,13759,37,4,3:2:0:0:
241,259,13925,2,0,P|253:221|241:183,1,80,10|0,1:2|2:0,2:0:0:0:
109,230,14256,1,2,1:2:0:0:
136,97,14422,37,10,1:2:0:0:
35,136,14588,1,2,2:0:0:0:
141,105,14754,1,10,1:2:0:0:
56,44,14919,1,2,2:0:0:0:
146,113,15085,37,10,1:2:0:0:
169,7,15251,1,10,1:2:0:0:
283,0,15417,2,0,P|322:2|353:26,1,80,2|8,2:0|1:2,2:0:0:0:
399,134,15748,37,10,1:2:0:0:
281,112,15914,1,2,2:0:0:0:
226,224,16080,1,10,3:2:0:0:
223,243,16163,1,0,1:0:0:0:
225,262,16245,1,0,1:0:0:0:
233,280,16328,1,0,1:0:0:0:
262,301,16411,38,0,P|243:301|225:309,1,40,0|0,3:0|2:0,2:0:0:0:
96,380,16577,2,0,P|56:385|21:366,1,80,10|0,1:2|2:0,2:0:0:0:
0,235,16908,1,2,1:2:0:0:
122,277,17074,37,10,1:2:0:0:
114,168,17240,1,2,2:0:0:0:
117,287,17406,1,10,1:2:0:0:
210,226,17571,1,2,2:0:0:0:
112,297,17737,37,10,1:2:0:0:
220,351,17903,1,10,1:2:0:0:
222,227,18069,2,0,P|221:188|216:148,1,80,2|8,2:0|1:2,2:0:0:0:
22,126,18400,37,10,1:2:0:0:
128,213,18566,1,2,3:2:0:0:
117,83,18732,1,2,3:2:0:0:
32,244,18897,1,2,3:2:0:0:
33,0,19063,38,0,P|34:19|38:39,1,40,12|0,3:2|2:0,2:0:0:0:
191,130,19229,2,0,P|230:135|265:116,1,80,10|0,1:2|2:0,2:0:0:0:
305,0,19560,1,2,1:2:0:0:
411,102,19726,37,10,1:2:0:0:
421,0,19892,1,2,2:0:0:0:
406,110,20058,1,10,1:2:0:0:
512,78,20223,1,2,2:0:0:0:
401,119,20389,37,10,1:2:0:0:
496,193,20555,1,10,1:2:0:0:
471,304,20721,2,0,P|441:330|402:335,1,80,2|8,2:0|1:2,2:0:0:0:
284,308,21052,37,10,1:2:0:0:
397,233,21218,1,2,2:0:0:0:
314,113,21384,1,10,3:2:0:0:
294,111,21466,1,0,1:0:0:0:
274,109,21549,1,0,1:0:0:0:
254,107,21632,1,0,1:0:0:0:
229,77,21715,38,0,L|218:115,1,40,8|0,3:2|2:0,2:0:0:0:
199,272,21881,2,0,P|169:298|130:303,1,80,10|0,1:2|2:0,2:0:0:0:
12,201,22212,1,10,1:2:0:0:
118,145,22378,37,10,1:2:0:0:
18,77,22544,1,2,2:0:0:0:
127,158,22710,1,10,1:2:0:0:
133,172,22792,1,0,1:0:0:0:
136,187,22875,1,2,1:2:0:0:
136,203,22958,1,0,1:0:0:0:
133,218,23041,37,10,1:2:0:0:
31,326,23207,1,2,3:2:0:0:
0,195,23372,2,0,P|2:148|12:100,1,80,2|0,2:0|3:0,2:0:0:0:
235,81,23704,37,10,1:2:0:0:
97,0,23870,1,2,3:2:0:0:
189,178,24035,2,0,P|225:193|263:184,1,80,10|8,3:2|3:2,2:0:0:0:
379,3,24367,38,0,P|417:-5|459:1,2,79.4999999999999,6|2|2,2:0|2:0|2:0,2:0:0:0:
310,77,25030,37,2,2:0:0:0:
267,95,25279,1,2,2:0:0:0:
221,86,25527,1,2,2:0:0:0:
385,132,25693,37,2,2:0:0:0:
428,114,25942,1,2,2:0:0:0:
474,123,26190,1,2,2:0:0:0:
402,258,26356,38,0,P|363:263|324:252,1,79.5,2|0,2:0|2:0,2:0:0:0:
197,349,26687,2,0,P|236:351|273:336,1,79.5,2|0,2:0|2:0,2:0:0:0:
277,148,27019,38,0,P|284:108|283:67,2,79.4999999999999,2|2|2,3:2|2:0|2:0,2:0:0:0:
171,181,27682,37,2,2:0:0:0:
160,227,27931,1,2,2:0:0:0:
168,271,28179,1,2,2:0:0:0:
92,134,28345,37,2,2:0:0:0:
103,88,28593,1,2,2:0:0:0:
95,44,28842,1,2,2:0:0:0:
17,206,29008,38,0,P|12:246|29:286,1,79.4999999999999,2|0,2:0|2:0,2:0:0:0:
1,382,29339,2,0,P|41:387|80:370,1,79.4999999999999,2|0,2:0|2:0,2:0:0:0:
170,252,29671,37,2,3:2:0:0:
205,229,29919,1,2,2:0:0:0:
247,233,30168,1,2,2:0:0:0:
283,384,30334,37,2,2:0:0:0:
244,364,30582,1,2,2:0:0:0:
227,325,30831,1,2,2:0:0:0:
341,221,30997,37,2,2:0:0:0:
343,262,31245,1,2,2:0:0:0:
318,297,31494,1,2,2:0:0:0:
273,139,31660,38,0,P|304:115|344:113,1,79.5,2|0,2:0|2:0,2:0:0:0:
479,223,31991,2,0,P|442:207|421:174,1,79.5,2|0,2:0|2:0,2:0:0:0:
441,44,32323,37,2,3:2:0:0:
399,11,32571,1,2,2:0:0:0:
346,16,32820,1,2,2:0:0:0:
214,126,32986,37,2,2:0:0:0:
265,67,33234,1,2,2:0:0:0:
239,0,33483,1,2,2:0:0:0:
81,42,33649,37,2,2:0:0:0:
25,133,33897,1,2,2:0:0:0:
81,221,34146,1,2,2:0:0:0:
302,294,34312,37,2,2:0:0:0:
184,230,34560,1,2,2:0:0:0:
95,327,34809,1,2,2:0:0:0:
378,384,34975,38,0,P|398:366|406:308,1,80,6|0,1:2|2:0,2:0:0:0:
414,232,35223,1,2,2:0:0:0:
396,214,35306,2,0,L|388:293,1,80,8|2,1:2|2:0,2:0:0:0:
497,180,35638,38,0,P|487:155|440:128,1,80,2|0,1:2|2:0,2:0:0:0:
459,44,35886,2,0,P|432:40|385:67,1,80,2|0,2:0|2:0,2:0:0:0:
323,10,36135,1,2,2:0:0:0:
301,143,36301,38,0,L|221:151,1,80,2|0,1:2|2:0,2:0:0:0:
160,71,36549,1,2,2:0:0:0:
179,72,36632,2,0,P|209:119|183:185,1,120,8|0,1:2|2:0,2:0:0:0:
97,250,36964,37,2,1:2:0:0:
0,146,37129,1,0,3:0:0:0:
0,304,37295,37,10,1:2:0:0:
104,121,37461,1,0,3:0:0:0:
153,335,37627,38,0,P|131:349|68:347,1,80,2|0,1:2|2:0,2:0:0:0:
175,243,37875,1,2,2:0:0:0:
197,239,37958,2,0,P|230:260|248:295,1,80,8|2,1:2|2:0,2:0:0:0:
260,384,38290,38,0,L|343:368,1,80,2|0,1:2|2:0,2:0:0:0:
364,289,38538,2,0,L|447:305,1,80,2|0,2:0|2:0,2:0:0:0:
480,384,38787,1,2,2:0:0:0:
423,201,38953,38,0,L|438:107,1,80,2|0,1:2|2:0,2:0:0:0:
512,79,39201,2,0,L|496:-14,1,80,2|0,2:0|2:0,2:0:0:0:
512,168,39450,1,2,2:0:0:0:
349,0,39616,38,0,P|334:13|326:31,1,40,2|0,3:2|3:0,2:0:0:0:
338,178,39781,2,0,P|333:158|321:142,1,40,0|0,3:0|3:0,2:0:0:0:
217,41,39947,37,10,1:2:0:0:
414,66,40113,1,0,2:0:0:0:
239,201,40279,38,0,L|159:215,1,80,2|0,1:2|2:0,2:0:0:0:
96,124,40527,1,2,2:0:0:0:
105,110,40610,2,0,L|185:124,1,80,8|2,1:2|2:0,2:0:0:0:
26,187,40942,38,0,P|0:158|0:119,1,80,2|0,1:2|2:0,2:0:0:0:
51,274,41190,2,0,P|13:281|-21:263,1,80,2|0,2:0|2:0,2:0:0:0:
78,360,41439,1,2,2:0:0:0:
141,209,41605,38,0,P|179:200|215:216,1,80,2|0,1:2|2:0,2:0:0:0:
260,288,41853,1,2,2:0:0:0:
282,292,41936,2,0,P|313:250|308:180,1,120,8|0,1:2|2:0,2:0:0:0:
222,223,42268,37,2,1:2:0:0:
415,173,42433,1,0,3:0:0:0:
215,117,42599,37,10,1:2:0:0:
403,274,42765,1,0,3:0:0:0:
302,61,42931,37,10,3:2:0:0:
292,43,43013,1,0,1:0:0:0:
279,28,43096,1,0,1:0:0:0:
262,17,43179,1,2,1:2:0:0:
244,9,43262,1,8,3:2:0:0:
224,6,43345,1,0,1:0:0:0:
204,7,43428,1,2,1:2:0:0:
185,13,43511,1,0,1:0:0:0:
168,22,43593,37,10,3:2:0:0:
147,4,43676,1,0,1:0:0:0:
119,8,43759,1,0,1:0:0:0:
101,29,43842,1,2,1:2:0:0:
93,55,43925,1,8,3:2:0:0:
98,82,44008,1,0,1:0:0:0:
91,109,44091,1,2,1:2:0:0:
69,127,44174,1,0,1:0:0:0:
41,130,44256,37,10,3:2:0:0:
57,97,44339,1,0,1:0:0:0:
92,89,44422,1,0,1:0:0:0:
124,105,44505,1,2,1:2:0:0:
141,136,44588,1,8,3:2:0:0:
141,172,44671,1,0,1:0:0:0:
153,205,44754,1,2,1:2:0:0:
182,226,44837,1,0,1:0:0:0:
217,224,44919,37,10,3:2:0:0:
189,189,45002,1,0,1:0:0:0:
146,199,45085,1,0,1:0:0:0:
134,241,45168,1,2,1:2:0:0:
105,274,45251,1,8,3:2:0:0:
62,284,45334,1,0,1:0:0:0:
23,261,45417,1,2,1:2:0:0:
10,218,45500,1,0,1:0:0:0:
25,176,45582,38,0,P|48:157|77:152,1,60,10|2,2:0|2:0,2:0:0:0:
11,173,46908,54,0,P|40:147|79:141,1,80,6|0,3:2|2:0,2:0:0:0:
163,184,47129,1,2,3:2:0:0:
101,50,47240,2,0,P|138:61|163:92,1,80,10|0,3:2|2:0,2:0:0:0:
176,178,47461,1,2,3:2:0:0:
262,102,47571,5,2,3:2:0:0:
253,72,47682,1,0,3:0:0:0:
337,137,47792,1,2,3:2:0:0:
346,107,47903,1,8,3:2:0:0:
263,188,48013,2,0,P|287:218|325:229,1,80,2|0,3:2|2:0,2:0:0:0:
420,57,48234,70,0,P|394:27|356:15,1,80,2|0,3:2|3:0,2:0:0:0:
356,15,48455,1,2,3:2:0:0:
426,156,48566,2,0,P|464:148|493:121,1,80,10|0,3:2|3:0,2:0:0:0:
493,120,48787,1,2,3:2:0:0:
337,137,48897,5,10,3:2:0:0:
350,216,49008,1,2,3:2:0:0:
421,251,49118,1,10,3:2:0:0:
500,241,49229,2,0,P|421:240|360:290,1,160,2|0,3:2|2:0,2:0:0:0:
200,344,49560,70,0,P|173:372|134:381,1,80,2|0,3:2|2:0,2:0:0:0:
52,338,49781,1,2,2:0:0:0:
208,256,49892,2,0,P|246:264|272:294,1,80,10|0,3:2|2:0,2:0:0:0:
279,384,50113,1,2,2:0:0:0:
128,294,50223,6,0,P|117:256|128:218,1,80,10|0,3:2|2:0,2:0:0:0:
265,136,50444,2,0,P|238:164|199:173,1,80,10|0,3:2|2:0,2:0:0:0:
60,97,50665,2,0,P|98:106|125:135,1,80,10|0,3:2|2:0,2:0:0:0:
191,0,50886,70,0,P|190:39|195:79,1,80,2|0,3:2|3:0,2:0:0:0:
331,197,51107,1,2,2:0:0:0:
366,103,51218,5,10,3:2:0:0:
357,79,51328,1,2,3:2:0:0:
342,98,51439,1,2,3:2:0:0:
350,116,51549,69,2,3:2:0:0:
382,80,51660,1,2,3:2:0:0:
333,72,51770,1,2,3:2:0:0:
295,112,51881,5,10,3:2:0:0:
404,131,51991,1,10,3:2:0:0:
367,27,52102,1,10,3:2:0:0:
343,212,52212,70,0,P|363:242|403:257,2,80,6|2|2,3:2|2:0|2:0,2:0:0:0:
414,381,52544,2,0,P|453:377|484:353,1,80,10|0,3:2|2:0,2:0:0:0:
485,277,52765,1,2,3:2:0:0:
337,344,52875,5,2,3:2:0:0:
331,368,52986,1,0,3:0:0:0:
246,301,53096,1,2,3:2:0:0:
252,325,53207,1,8,3:2:0:0:
291,224,53317,2,0,P|256:208|217:214,1,80,2|0,3:2|2:0,2:0:0:0:
115,376,53538,70,0,P|76:386|34:384,1,80,2|0,3:2|3:0,2:0:0:0:
36,384,53759,1,2,3:2:0:0:
79,255,53870,2,0,P|40:244|-2:247,1,80,10|0,3:2|3:0,2:0:0:0:
0,246,54091,1,2,3:2:0:0:
166,298,54201,5,10,3:2:0:0:
177,218,54312,1,2,3:2:0:0:
124,158,54422,1,10,3:2:0:0:
45,143,54533,2,0,P|116:181|203:181,1,160,2|0,3:2|2:0,2:0:0:0:
375,172,54864,70,0,P|373:131|350:102,1,80,2|0,3:2|2:0,2:0:0:0:
266,75,55085,1,2,2:0:0:0:
401,20,55196,2,0,P|365:0|328:6,1,80,10|0,3:2|2:0,2:0:0:0:
261,87,55417,1,2,2:0:0:0:
323,240,55527,6,0,P|357:262|394:260,1,80,10|0,3:2|2:0,2:0:0:0:
512,128,55748,2,0,P|475:146|458:179,1,80,10|0,3:2|2:0,2:0:0:0:
510,347,55969,2,0,P|512:306|492:274,1,80,10|0,3:2|2:0,2:0:0:0:
306,220,56190,70,0,P|307:259|302:302,1,80,10|0,3:2|2:0,2:0:0:0:
302,299,56411,1,2,2:0:0:0:
198,173,56522,2,0,P|209:211|215:253,1,80,10|0,3:2|3:0,2:0:0:0:
215,250,56743,1,2,2:0:0:0:
77,167,56853,5,10,3:2:0:0:
121,249,56964,1,10,3:2:0:0:
140,96,57074,1,10,3:2:0:0:
26,245,57185,2,0,P|63:327|151:344,1,186.666666666667,10|0,3:2|2:0,2:0:0:0:
312,318,57516,70,0,P|341:321|369:331,2,60.0000000000001,14|0|0,1:2|3:0|3:0,2:0:0:0:
233,384,57848,1,0,1:0:0:0:
295,223,58069,1,0,3:0:0:0:
389,236,58179,6,0,P|416:246|441:264,2,60.0000000000001,10|0|0,1:2|3:0|3:0,2:0:0:0:
289,232,58511,1,0,1:0:0:0:
358,135,58732,1,0,3:0:0:0:
469,164,58842,70,0,P|493:181|512:204,2,60.0000000000001,10|0|0,1:2|3:0|3:0,2:0:0:0:
430,74,59174,1,2,1:2:0:0:
386,41,59284,1,0,3:0:0:0:
331,46,59395,1,0,3:0:0:0:
268,149,59505,5,10,1:2:0:0:
193,82,59726,1,2,3:2:0:0:
245,0,59947,1,2,3:2:0:0:
184,174,60168,69,10,3:2:0:0:
141,207,60279,1,0,3:0:0:0:
87,198,60389,1,0,3:0:0:0:
23,125,60500,2,0,P|24:93|28:65,1,60.0000000000001,0|0,1:0|2:0,2:0:0:0:
120,119,60721,1,0,3:0:0:0:
0,210,60831,5,10,1:2:0:0:
16,261,60942,1,0,3:0:0:0:
65,281,61052,1,0,3:0:0:0:
164,330,61163,2,0,P|179:353|181:383,1,60.0000000000001,0|0,1:0|2:0,2:0:0:0:
93,383,61384,1,0,3:0:0:0:
146,244,61494,69,10,1:2:0:0:
200,245,61605,1,0,3:0:0:0:
239,281,61715,1,0,3:0:0:0:
306,217,61826,5,10,1:2:0:0:
353,243,61936,1,0,3:0:0:0:
405,231,62047,1,0,3:0:0:0:
474,160,62157,70,0,P|494:181|502:210,1,60.0000000000001,10|0,1:2|2:0,2:0:0:0:
446,74,62378,2,0,P|474:66|503:74,1,60.0000000000001,10|0,3:2|3:0,2:0:0:0:
357,55,62599,2,0,P|365:26|385:5,1,60.0000000000001,10|0,3:2|2:0,2:0:0:0:
400,226,62820,6,0,P|404:259|414:283,2,60.0000000000001,10|0|0,1:2|3:0|3:0,2:0:0:0:
385,135,63152,1,0,1:0:0:0:
203,131,63372,1,0,3:0:0:0:
263,58,63483,70,0,P|258:24|248:0,2,60.0000000000001,10|0|0,1:2|3:0|3:0,2:0:0:0:
191,133,63814,1,0,1:0:0:0:
310,236,64035,1,0,3:0:0:0:
300,332,64146,6,0,P|313:363|328:383,2,60.0000000000001,10|0|0,1:2|3:0|3:0,2:0:0:0:
201,288,64477,1,2,1:2:0:0:
147,299,64588,1,0,3:0:0:0:
118,344,64698,1,0,3:0:0:0:
208,382,64809,69,10,1:2:0:0:
34,384,65030,1,10,3:2:0:0:
159,214,65251,1,10,3:2:0:0:
0,58,65472,5,10,1:2:0:0:
31,14,65582,1,0,3:0:0:0:
84,3,65693,1,0,3:0:0:0:
165,80,65803,2,0,P|194:85|222:74,1,60.0000000000001,0|0,1:0|2:0,2:0:0:0:
187,0,66024,1,0,3:0:0:0:
78,89,66135,69,10,1:2:0:0:
95,145,66245,1,0,3:0:0:0:
149,170,66356,1,0,3:0:0:0:
236,217,66466,2,0,P|255:239|259:270,1,60.0000000000001,0|0,1:0|2:0,2:0:0:0:
172,272,66687,1,0,3:0:0:0:
229,129,66798,5,10,1:2:0:0:
290,92,66908,1,0,3:0:0:0:
357,118,67019,1,0,3:0:0:0:
425,35,67129,69,2,1:2:0:0:
473,103,67240,1,0,3:0:0:0:
448,182,67350,1,0,3:0:0:0:
313,260,67461,6,0,P|289:232|287:196,1,73.3333333333334,10|0,1:2|2:0,2:0:0:0:
456,335,67682,2,0,P|443:369|413:389,1,73.3333333333334,10|0,3:2|2:0,2:0:0:0:
449,174,67903,2,0,P|485:167|517:183,1,73.3333333333334,10|0,3:2|2:0,2:0:0:0:
347,295,68124,69,0,3:0:0:0:
309,286,68234,1,0,3:0:0:0:
334,258,68345,1,0,3:0:0:0:
305,367,68455,5,0,1:0:0:0:
291,381,68566,1,0,1:0:0:0:
285,363,68676,1,0,1:0:0:0:
217,299,68787,69,0,3:0:0:0:
217,299,68897,1,0,3:0:0:0:
217,299,69008,1,0,3:0:0:0:
77,384,69118,5,8,3:2:0:0:
0,100,69450,69,4,1:2:0:0:
7,83,70113,1,8,3:2:0:0:
33,202,70776,69,6,3:2:0:0:
91,86,70942,2,0,P|130:81|166:98,1,80,8|0,1:2|2:0,2:0:0:0:
205,224,71273,1,8,1:2:0:0:
279,96,71439,2,0,P|277:56|270:16,1,80,0|0,3:0|2:0,2:0:0:0:
422,152,71770,2,0,P|431:113|434:73,1,80,10|0,1:2|2:0,2:0:0:0:
299,271,72102,37,2,3:2:0:0:
454,266,72268,2,0,P|490:250|512:217,1,80,8|0,1:2|2:0,2:0:0:0:
323,182,72599,1,8,1:2:0:0:
389,358,72765,2,0,P|420:381|460:384,1,80,0|0,1:0|2:0,2:0:0:0:
440,257,73096,1,10,3:2:0:0:
425,243,73179,1,0,1:0:0:0:
405,237,73262,1,2,1:2:0:0:
385,241,73345,1,0,1:0:0:0:
355,271,73428,38,0,P|337:277|317:279,1,40,8|0,3:2|2:0,2:0:0:0:
239,167,73593,2,0,P|182:153|132:184,1,120,8|0,1:2|2:0,2:0:0:0:
133,206,73925,1,10,1:2:0:0:
6,303,74091,2,0,P|0:263|0:223,1,80,0|0,3:0|2:0,2:0:0:0:
150,370,74422,2,0,P|155:330|156:290,1,80,10|0,1:2|2:0,2:0:0:0:
93,123,74754,38,0,P|111:157|104:195,1,80,2|8,1:2|1:2,2:0:0:0:
0,69,75085,2,0,P|20:35|57:22,1,80,2|0,2:0|3:0,2:0:0:0:
163,54,75417,37,10,3:2:0:0:
272,131,75582,1,0,3:0:0:0:
340,0,75748,37,2,3:2:0:0:
252,36,75914,1,0,1:0:0:0:
453,127,76080,37,6,3:2:0:0:
512,14,76245,2,0,P|474:-5|434:2,1,80,10|0,1:2|2:0,2:0:0:0:
361,96,76577,1,2,1:2:0:0:
403,209,76743,37,10,1:2:0:0:
293,183,76908,1,2,2:0:0:0:
410,200,77074,1,10,1:2:0:0:
342,288,77240,1,2,2:0:0:0:
417,191,77406,37,10,1:2:0:0:
468,308,77571,1,10,1:2:0:0:
365,382,77737,2,0,P|322:386|287:366,1,80,2|8,2:0|1:2,2:0:0:0:
282,190,78069,37,10,1:2:0:0:
340,302,78234,1,2,2:0:0:0:
207,381,78400,1,10,3:2:0:0:
187,384,78483,1,0,1:0:0:0:
167,378,78566,1,0,1:0:0:0:
152,364,78649,1,0,1:0:0:0:
144,328,78732,38,0,P|128:320|107:318,1,40,8|0,3:2|2:0,2:0:0:0:
0,383,78897,2,0,P|22:351|26:309,1,80,10|0,1:2|2:0,2:0:0:0:
0,194,79229,1,2,1:2:0:0:
122,229,79395,37,10,1:2:0:0:
87,112,79560,1,2,2:0:0:0:
114,238,79726,1,10,1:2:0:0:
200,147,79892,1,2,2:0:0:0:
106,247,80058,37,2,3:2:0:0:
236,265,80223,1,2,3:2:0:0:
307,161,80389,2,0,P|311:121|293:86,1,80,10|0,1:2|1:0,2:0:0:0:
160,71,80721,37,2,3:2:0:0:
327,0,80886,1,10,1:2:0:0:
428,128,81052,37,2,3:2:0:0:
278,76,81218,1,8,1:2:0:0:
344,332,81384,38,0,B|399:352|432:308|432:308|462:266|517:284,1,190,6|0,3:2|2:0,2:0:0:0:
512,384,81881,1,8,1:2:0:0:
339,231,82047,2,0,P|292:237|258:269,1,94.9999999999999,0|0,3:0|2:0,2:0:0:0:
127,334,82378,2,0,P|174:340|208:372,1,94.9999999999999,10|0,1:2|2:0,2:0:0:0:
340,324,82710,37,2,3:2:0:0:
168,246,82875,2,0,P|162:198|166:151,1,94.9999999999999,8|0,1:2|2:0,2:0:0:0:
262,94,83207,1,8,1:2:0:0:
62,147,83372,2,0,P|69:100|84:55,1,94.9999999999999,0|0,1:0|2:0,2:0:0:0:
231,6,83704,1,10,3:2:0:0:
253,0,83787,1,0,1:0:0:0:
276,1,83870,1,2,1:2:0:0:
297,8,83953,1,0,1:0:0:0:
320,34,84035,38,0,P|341:44|364:45,1,47.4999999999999,8|0,3:2|2:0,2:0:0:0:
509,0,84201,2,0,P|502:70|508:141,1,142.5,8|0,1:2|2:0,2:0:0:0:
512,156,84533,1,10,1:2:0:0:
341,131,84698,2,0,P|302:157|292:202,1,94.9999999999999,0|0,3:0|2:0,2:0:0:0:
423,292,85030,2,0,P|417:245|384:213,1,94.9999999999999,10|0,1:2|2:0,2:0:0:0:
181,208,85361,38,0,P|184:253|219:285,1,94.9999999999999,2|8,1:2|1:2,2:0:0:0:
124,110,85693,2,0,P|85:136|75:181,1,94.9999999999999,2|0,2:0|3:0,2:0:0:0:
154,345,86024,37,10,3:2:0:0:
273,207,86190,1,0,3:0:0:0:
412,300,86356,37,2,3:2:0:0:
236,286,86522,1,0,1:0:0:0:
439,179,86687,37,6,3:2:0:0:
512,310,86853,2,0,P|504:355|468:384,1,94.9999999999999,10|0,1:2|2:0,2:0:0:0:
340,245,87185,1,2,1:2:0:0:
271,384,87350,37,10,1:2:0:0:
237,220,87516,1,2,2:0:0:0:
281,377,87682,1,10,1:2:0:0:
153,286,87848,1,2,2:0:0:0:
291,370,88013,37,10,1:2:0:0:
139,384,88179,1,10,1:2:0:0:
47,261,88345,2,0,P|61:216|100:190,1,94.9999999999999,2|8,2:0|1:2,2:0:0:0:
243,123,88676,37,10,1:2:0:0:
148,14,88842,1,2,2:0:0:0:
22,72,89008,1,10,3:2:0:0:
14,94,89091,1,0,1:0:0:0:
16,117,89174,1,0,1:0:0:0:
26,138,89256,1,0,1:0:0:0:
35,175,89339,38,0,P|56:184|80:184,1,47.4999999999999,8|0,3:2|2:0,2:0:0:0:
240,225,89505,2,0,P|286:221|318:187,1,94.9999999999999,10|0,1:2|2:0,2:0:0:0:
274,12,89837,1,2,1:2:0:0:
396,107,90002,37,10,1:2:0:0:
251,141,90168,1,2,2:0:0:0:
388,98,90334,1,10,1:2:0:0:
370,247,90500,1,2,2:0:0:0:
380,89,90665,37,2,3:2:0:0:
512,188,90831,1,2,3:2:0:0:
410,332,90997,2,0,P|365:345|323:325,1,94.9999999999999,10|0,1:2|1:0,2:0:0:0:
190,144,91328,37,2,3:2:0:0:
234,330,91494,1,10,1:2:0:0:
44,384,91660,37,2,3:2:0:0:
88,198,91826,1,8,1:2:0:0:
330,318,91991,38,0,P|365:333|404:325,2,79.4999999999999,6|2|2,2:0|2:0|2:0,2:0:0:0:
385,207,92654,37,2,2:0:0:0:
433,196,92903,1,2,2:0:0:0:
477,223,93152,1,2,2:0:0:0:
295,239,93317,37,2,2:0:0:0:
245,237,93566,1,2,2:0:0:0:
210,199,93814,1,2,2:0:0:0:
358,70,93980,38,0,P|395:57|433:67,1,79.5,2|0,2:0|2:0,2:0:0:0:
295,150,94312,2,0,P|265:123|255:85,1,79.5,2|0,2:0|2:0,2:0:0:0:
137,5,94643,38,0,P|97:-3|54:0,2,79.4999999999999,2|2|2,3:2|2:0|2:0,2:0:0:0:
140,123,95306,37,2,2:0:0:0:
149,169,95555,1,2,2:0:0:0:
122,211,95803,1,2,2:0:0:0:
17,295,95969,37,2,2:0:0:0:
6,339,96218,1,2,2:0:0:0:
35,383,96466,1,2,2:0:0:0:
212,253,96632,38,0,P|250:245|286:262,1,79.5,2|0,2:0|2:0,2:0:0:0:
347,382,96964,2,0,P|385:389|421:372,1,79.5,2|0,2:0|2:0,2:0:0:0:
482,221,97295,37,2,3:2:0:0:
480,269,97544,1,2,2:0:0:0:
512,303,97792,1,2,2:0:0:0:
451,138,97958,37,2,2:0:0:0:
408,159,98207,1,2,2:0:0:0:
393,205,98455,1,2,2:0:0:0:
507,70,98621,37,2,2:0:0:0:
467,43,98870,1,2,2:0:0:0:
420,53,99118,1,2,2:0:0:0:
237,93,99284,38,0,P|269:115|309:115,1,79.5,2|0,2:0|2:0,2:0:0:0:
196,0,99616,2,0,P|160:17|140:51,1,79.5,2|0,2:0|2:0,2:0:0:0:
101,194,99947,37,2,3:2:0:0:
45,191,100196,1,2,2:0:0:0:
12,146,100444,1,2,2:0:0:0:
197,140,100610,37,2,2:0:0:0:
214,218,100859,1,2,2:0:0:0:
162,278,101107,1,2,2:0:0:0:
0,384,101273,37,2,2:0:0:0:
74,310,101522,1,2,2:0:0:0:
158,376,101770,1,2,2:0:0:0:
373,249,101936,37,2,2:0:0:0:
272,342,102185,1,2,2:0:0:0:
154,275,102433,1,2,2:0:0:0:
376,161,102599,38,0,P|414:167|443:195,1,80,6|0,1:2|2:0,2:0:0:0:
512,260,102848,1,2,2:0:0:0:
493,276,102931,2,0,L|485:366,1,80,8|2,1:2|2:0,2:0:0:0:
512,148,103262,38,0,P|491:114|455:97,1,80,2|0,1:2|2:0,2:0:0:0:
466,6,103511,2,0,P|426:7|394:29,1,80,2|0,2:0|2:0,2:0:0:0:
311,0,103759,1,2,2:0:0:0:
256,180,103925,38,0,L|241:102,1,80,2|0,1:2|2:0,2:0:0:0:
197,0,104174,1,2,2:0:0:0:
175,7,104256,2,0,L|152:131,1,120,8|0,1:2|2:0,2:0:0:0:
100,232,104588,37,2,1:2:0:0:
8,116,104754,1,0,3:0:0:0:
0,250,104919,37,10,1:2:0:0:
81,59,105085,1,0,3:0:0:0:
178,200,105251,38,0,P|189:237|175:274,1,80,2|0,1:2|2:0,2:0:0:0:
74,384,105500,1,2,2:0:0:0:
68,373,105582,2,0,P|94:344|133:337,1,80,8|2,1:2|2:0,2:0:0:0:
274,382,105914,38,0,P|235:373|210:342,1,80,2|0,1:2|2:0,2:0:0:0:
283,261,106163,2,0,P|271:223|285:186,1,80,2|0,2:0|2:0,2:0:0:0:
394,221,106411,1,2,2:0:0:0:
378,384,106577,38,0,L|362:304,1,80,2|0,1:2|2:0,2:0:0:0:
463,312,106826,2,0,L|479:232,1,80,2|0,2:0|2:0,2:0:0:0:
512,384,107074,1,2,2:0:0:0:
512,160,107240,38,0,P|493:150|474:150,1,40,2|0,3:2|3:0,2:0:0:0:
364,223,107406,2,0,P|381:212|391:195,1,40,0|0,3:0|3:0,2:0:0:0:
391,90,107571,37,10,1:2:0:0:
474,227,107737,1,0,2:0:0:0:
302,98,107903,38,0,P|303:58|327:26,1,80,2|0,1:2|2:0,2:0:0:0:
215,121,108152,1,2,2:0:0:0:
212,138,108234,2,0,P|227:174|261:195,1,80,8|2,1:2|2:0,2:0:0:0:
113,79,108566,38,0,L|96:0,1,80,2|0,1:2|2:0,2:0:0:0:
0,139,108814,2,0,L|16:60,1,80,2|0,2:0|2:0,2:0:0:0:
117,163,109063,1,2,2:0:0:0:
15,297,109229,38,0,L|0:375,1,80,2|0,1:2|2:0,2:0:0:0:
118,384,109477,1,2,2:0:0:0:
140,367,109560,2,0,L|112:246,1,120,8|0,1:2|2:0,2:0:0:0:
37,208,109892,37,2,1:2:0:0:
2,384,110058,1,0,3:0:0:0:
183,207,110223,37,10,1:2:0:0:
226,383,110389,1,0,3:0:0:0:
276,160,110555,37,10,3:2:0:0:
278,140,110638,1,0,1:0:0:0:
281,120,110721,1,0,1:0:0:0:
284,100,110803,1,2,1:2:0:0:
287,80,110886,1,8,3:2:0:0:
290,60,110969,1,0,1:0:0:0:
293,40,111052,1,2,1:2:0:0:
296,20,111135,1,0,1:0:0:0:
299,0,111218,37,10,3:2:0:0:
271,8,111301,1,0,1:0:0:0:
256,34,111384,1,0,1:0:0:0:
262,62,111466,1,2,1:2:0:0:
286,79,111549,1,8,3:2:0:0:
310,96,111632,1,0,1:0:0:0:
316,124,111715,1,2,1:2:0:0:
301,150,111798,1,0,1:0:0:0:
274,159,111881,37,10,3:2:0:0:
265,123,111964,1,0,1:0:0:0:
282,91,112047,1,0,1:0:0:0:
316,83,112129,1,2,1:2:0:0:
347,101,112212,1,8,3:2:0:0:
364,132,112295,1,0,1:0:0:0:
398,141,112378,1,2,1:2:0:0:
430,124,112461,1,0,1:0:0:0:
433,88,112544,37,10,3:2:0:0:
388,86,112627,1,0,1:0:0:0:
361,121,112710,1,0,1:0:0:0:
369,163,112792,1,2,1:2:0:0:
402,191,112875,1,8,3:2:0:0:
418,231,112958,1,0,1:0:0:0:
407,273,113041,1,2,1:2:0:0:
369,296,113124,1,0,1:0:0:0:
324,287,113207,38,0,P|307:263|307:233,1,60,10|2,2:0|2:0,2:0:0:0:
293,231,114533,54,0,P|293:270|317:301,1,80,6|0,3:2|2:0,2:0:0:0:
409,302,114754,1,2,3:2:0:0:
268,369,114864,2,0,P|302:387|341:383,1,80,10|0,3:2|2:0,2:0:0:0:
404,310,115085,1,2,3:2:0:0:
512,362,115196,5,2,3:2:0:0:
503,384,115306,1,0,3:0:0:0:
473,254,115417,1,2,3:2:0:0:
482,276,115527,1,8,3:2:0:0:
512,173,115638,2,0,P|474:159|436:168,1,80,2|0,3:2|2:0,2:0:0:0:
307,202,115859,70,0,P|315:162|333:127,1,80,2|0,3:2|3:0,2:0:0:0:
333,127,116080,1,2,3:2:0:0:
200,234,116190,2,0,P|197:194|206:155,1,80,10|0,3:2|3:0,2:0:0:0:
206,155,116411,1,2,3:2:0:0:
277,309,116522,5,10,3:2:0:0:
205,343,116632,1,2,3:2:0:0:
129,316,116743,1,10,3:2:0:0:
98,242,116853,2,0,P|139:308|123:385,1,160,2|0,3:2|2:0,2:0:0:0:
0,132,117185,70,0,P|27:104|66:99,1,80,2|0,3:2|2:0,2:0:0:0:
150,147,117406,1,2,2:0:0:0:
85,6,117516,2,0,P|122:15|146:46,1,80,10|0,3:2|2:0,2:0:0:0:
141,156,117737,1,2,2:0:0:0:
252,76,117848,6,0,P|262:39|227:17,1,80,10|0,3:2|2:0,2:0:0:0:
278,246,118069,2,0,P|314:229|328:181,1,80,10|0,3:2|2:0,2:0:0:0:
174,378,118290,2,0,P|213:383|253:382,1,80,10|0,3:2|2:0,2:0:0:0:
476,311,118511,70,0,P|483:349|465:384,1,80,2|0,3:2|3:0,2:0:0:0:
337,313,118732,1,2,2:0:0:0:
440,222,118842,5,10,3:2:0:0:
439,189,118953,1,2,3:2:0:0:
413,206,119063,1,2,3:2:0:0:
458,169,119174,69,2,3:2:0:0:
403,138,119284,1,2,3:2:0:0:
406,200,119395,1,2,3:2:0:0:
393,94,119505,5,10,3:2:0:0:
297,152,119616,1,10,3:2:0:0:
397,203,119726,1,10,3:2:0:0:
300,48,119837,70,0,P|259:49|228:76,2,80,6|2|2,3:2|2:0|2:0,2:0:0:0:
143,26,120168,2,0,P|124:60|130:99,1,80,10|0,3:2|2:0,2:0:0:0:
192,171,120389,1,2,3:2:0:0:
8,221,120500,5,2,3:2:0:0:
0,191,120610,1,0,3:0:0:0:
106,266,120721,1,2,3:2:0:0:
114,236,120831,1,8,3:2:0:0:
12,325,120942,2,0,P|32:359|71:370,1,80,2|0,3:2|2:0,2:0:0:0:
263,326,121163,70,0,P|232:350|193:346,1,80,2|0,3:2|3:0,2:0:0:0:
193,347,121384,1,2,3:2:0:0:
294,233,121494,2,0,P|330:247|346:282,1,80,10|0,3:2|3:0,2:0:0:0:
347,283,121715,1,2,3:2:0:0:
199,250,121826,5,10,3:2:0:0:
213,171,121936,1,2,3:2:0:0:
286,137,122047,1,10,3:2:0:0:
361,159,122157,2,0,P|282:169|210:136,1,160,2|0,3:2|2:0,2:0:0:0:
0,1,122489,70,0,P|38:6|66:34,1,80,2|0,3:2|2:0,2:0:0:0:
75,135,122710,1,2,2:0:0:0:
151,0,122820,2,0,P|165:36|154:74,1,80,10|0,3:2|2:0,2:0:0:0:
70,125,123041,1,2,2:0:0:0:
244,35,123152,6,0,P|276:13|315:18,1,80,10|0,3:2|2:0,2:0:0:0:
261,208,123372,2,0,P|225:190|211:154,1,80,10|0,3:2|2:0,2:0:0:0:
403,107,123593,2,0,P|405:146|381:176,1,80,10|0,3:2|2:0,2:0:0:0:
379,381,123814,70,0,P|418:388|457:384,1,80,10|0,3:2|2:0,2:0:0:0:
458,384,124035,1,2,2:0:0:0:
341,255,124146,2,0,P|376:272|416:278,1,80,10|0,3:2|3:0,2:0:0:0:
417,279,124367,1,2,2:0:0:0:
291,348,124477,5,10,3:2:0:0:
212,365,124588,1,2,2:0:0:0:
162,302,124698,1,10,3:2:0:0:
185,225,124809,2,0,P|198:266|184:301,1,80,2|8,2:0|3:2,2:0:0:0:
114,380,125030,1,2,2:0:0:0:
86,221,125140,69,6,3:2:0:0:
0,245,125251,1,2,2:0:0:0:
64,308,125361,1,2,2:0:0:0:
21,159,125472,2,0,P|19:112|25:66,1,93.3333333333334,10|0,3:2|2:0,2:0:0:0:
144,148,125693,1,2,3:2:0:0:
203,0,125803,5,2,3:2:0:0:
253,17,125914,1,0,3:0:0:0:
149,63,126024,1,2,3:2:0:0:
99,80,126135,1,8,3:2:0:0:
230,126,126245,2,0,P|274:143|324:155,1,93.3333333333334,2|0,3:2|2:0,2:0:0:0:
436,18,126466,70,0,P|389:26|342:47,1,93.3333333333334,2|0,3:2|3:0,2:0:0:0:
347,43,126687,1,2,3:2:0:0:
512,153,126798,2,0,P|467:136|416:131,1,93.3333333333334,10|0,3:2|3:0,2:0:0:0:
422,131,127019,1,2,3:2:0:0:
475,309,127129,5,10,3:2:0:0:
395,323,127240,1,2,3:2:0:0:
381,243,127350,1,10,3:2:0:0:
460,229,127461,2,0,B|427:276|427:276|300:297,1,186.666666666667,2|0,3:2|2:0,2:0:0:0:
89,336,127792,70,0,P|116:372|160:384,1,93.3333333333334,2|0,3:2|2:0,2:0:0:0:
278,300,128013,1,2,2:0:0:0:
173,204,128124,2,0,P|155:246|167:290,1,93.3333333333334,10|0,3:2|2:0,2:0:0:0:
268,384,128345,1,2,2:0:0:0:
291,191,128455,6,0,P|277:147|239:121,1,93.3333333333334,10|0,3:2|2:0,2:0:0:0:
58,229,128676,2,0,P|55:183|82:145,1,93.3333333333334,10|0,3:2|2:0,2:0:0:0:
305,157,128897,2,0,P|280:118|236:102,1,93.3333333333334,10|0,3:2|2:0,2:0:0:0:
111,0,129118,70,0,P|114:45|147:77,1,93.3333333333334,2|0,3:2|3:0,2:0:0:0:
271,29,129339,1,2,2:0:0:0:
210,193,129450,5,10,3:2:0:0:
210,211,129560,1,2,3:2:0:0:
196,171,129671,1,2,3:2:0:0:
132,257,129781,69,2,3:2:0:0:
125,212,129892,1,2,3:2:0:0:
120,284,130002,1,2,3:2:0:0:
44,244,130113,5,10,3:2:0:0:
0,306,130223,1,10,3:2:0:0:
5,178,130334,1,10,3:2:0:0:
65,362,130444,70,0,P|103:386|149:379,2,93.3333333333334,6|2|2,3:2|2:0|2:0,2:0:0:0:
311,362,130776,2,0,P|266:363|229:334,1,93.3333333333334,10|0,3:2|2:0,2:0:0:0:
250,211,130997,1,2,3:2:0:0:
392,330,131107,5,2,3:2:0:0:
405,384,131218,1,0,3:0:0:0:
438,251,131328,1,2,3:2:0:0:
476,291,131439,1,8,3:2:0:0:
443,145,131549,2,0,P|488:161|534:167,1,93.3333333333334,2|0,3:2|2:0,2:0:0:0:
403,23,131770,70,0,P|353:30|312:45,1,93.3333333333334,2|0,3:2|3:0,2:0:0:0:
313,45,131991,1,2,3:2:0:0:
199,165,132102,2,0,P|249:172|290:187,1,93.3333333333334,10|0,3:2|3:0,2:0:0:0:
289,186,132323,1,2,3:2:0:0:
219,0,132433,5,10,3:2:0:0:
139,14,132544,1,2,3:2:0:0:
153,94,132654,1,10,3:2:0:0:
232,80,132765,2,0,B|184:47|184:47|58:70,1,186.666666666667,2|0,3:2|2:0,2:0:0:0:
77,266,133096,70,0,P|115:291|160:286,1,93.3333333333334,2|0,3:2|2:0,2:0:0:0:
214,186,133317,1,2,2:0:0:0:
45,180,133428,2,0,P|4:200|-14:242,1,93.3333333333334,10|0,3:2|2:0,2:0:0:0:
28,361,133649,1,2,2:0:0:0:
264,368,133759,6,0,P|222:353|191:385,1,93.3333333333334,10|0,3:2|2:0,2:0:0:0:
299,208,133980,2,0,P|268:173|223:167,1,93.3333333333334,10|0,3:2|2:0,2:0:0:0:
487,206,134201,2,0,P|478:160|456:119,1,93.3333333333334,10|0,3:2|2:0,2:0:0:0:
262,68,134422,70,0,P|306:76|345:51,1,93.3333333333334,10|0,3:2|2:0,2:0:0:0:
345,51,134643,1,2,2:0:0:0:
192,0,134754,2,0,P|162:34|164:79,1,93.3333333333334,10|0,3:2|3:0,2:0:0:0:
165,80,134975,1,2,2:0:0:0:
0,92,135085,5,10,3:2:0:0:
79,131,135196,1,10,3:2:0:0:
32,7,135306,1,10,3:2:0:0:
53,216,135417,2,0,B|77:237|118:234|151:213|129:186|167:168|203:162|234:190,1,200,10|0,3:2|2:0,2:0:0:0:
360,150,135748,69,14,1:2:0:0:
374,208,135859,1,2,3:2:0:0:
431,221,135969,1,2,3:2:0:0:
512,194,136080,2,0,P|450:214|428:275,1,133.333333333333,2|2,1:2|3:2,2:0:0:0:
504,384,136411,1,10,1:2:0:0:
412,384,136522,2,0,B|347:381|321:299|321:299|268:367|205:347,1,266.666666666667,0|0,3:0|3:0,2:0:0:0:
101,384,137074,5,10,1:2:0:0:
97,357,137185,1,0,3:0:0:0:
92,330,137295,1,0,3:0:0:0:
51,304,137406,69,2,1:2:0:0:
53,290,137516,1,0,3:0:0:0:
55,276,137627,1,0,3:0:0:0:
119,208,137737,5,10,1:2:0:0:
25,139,137958,1,10,3:2:0:0:
103,38,138179,1,10,3:2:0:0:
279,183,138400,70,0,P|340:202|392:164,1,133.333333333333,10|0,3:2|3:0,2:0:0:0:
366,0,138732,2,0,P|318:43|324:107,1,133.333333333333,2|0,1:2|3:0,2:0:0:0:
512,157,139063,1,10,1:2:0:0:
491,101,139174,1,2,3:2:0:0:
408,75,139284,2,0,P|485:131|466:224,1,200,2|0,3:2|3:0,2:0:0:0:
484,331,139726,5,10,1:2:0:0:
444,343,139837,1,0,3:0:0:0:
411,319,139947,1,0,3:0:0:0:
345,384,140058,69,10,1:2:0:0:
311,359,140168,1,0,3:0:0:0:
272,370,140279,1,0,3:0:0:0:
214,295,140389,5,10,1:2:0:0:
335,264,140610,1,10,3:2:0:0:
190,178,140831,1,10,3:2:0:0:
425,160,141052,70,0,P|391:169|359:153,1,73.3333333333333,10|0,1:2|3:0,2:0:0:0:
270,2,141273,1,2,3:2:0:0:
360,4,141384,2,0,P|333:69|265:93,1,146.666666666667,2|0,1:2|3:0,2:0:0:0:
18,0,141715,6,0,P|52:-9|84:6,1,73.3333333333333,10|0,1:2|3:0,2:0:0:0:
170,161,141936,1,2,3:2:0:0:
80,161,142047,2,0,P|106:95|174:71,1,146.666666666667,2|0,1:2|3:0,2:0:0:0:
245,222,142378,69,10,1:2:0:0:
237,265,142489,1,0,3:0:0:0:
229,307,142599,1,0,3:0:0:0:
181,340,142710,5,2,1:2:0:0:
184,360,142820,1,0,3:0:0:0:
188,382,142931,1,0,3:0:0:0:
281,384,143041,69,10,1:2:0:0:
144,258,143262,1,10,3:2:0:0:
0,384,143483,1,10,3:2:0:0:
145,173,143704,6,0,P|135:218|131:251,1,80,14|0,1:2|2:0,2:0:0:0:
74,89,143925,1,0,3:0:0:0:
23,214,144035,2,0,P|25:260|29:293,1,80,10|0,3:2|2:0,2:0:0:0:
244,224,144256,1,0,3:0:0:0:
267,242,144367,70,0,P|274:274|279:307,1,66.6666666666667,10|0,1:2|2:0,2:0:0:0:
383,295,144588,1,0,3:0:0:0:
400,318,144698,2,0,P|398:351|395:384,1,66.6666666666667,10|0,3:2|2:0,2:0:0:0:
512,264,144919,1,0,3:0:0:0:
498,121,145030,6,0,P|493:76|481:35,1,86.6666666666667,10|0,1:2|2:0,2:0:0:0:
331,192,145251,1,0,3:0:0:0:
368,47,145361,1,10,3:2:0:0:
256,125,145472,1,8,2:0:0:0:
427,189,145582,1,8,2:0:0:0:
273,38,145693,70,0,P|230:9|178:13,1,106.666666666667,14|0,1:2|2:0,2:0:0:0:
253,342,145914,2,0,P|299:319|321:272,1,106.666666666667,14|0,1:2|2:0,2:0:0:0:
0,172,146135,2,0,P|-3:223|26:265,1,106.666666666667,14|0,1:2|2:0,2:0:0:0:
231,237,146356,6,0,B|255:161|169:180|208:92,1,146.666666666667,14|0,1:2|3:0,2:0:0:0:
124,253,146687,2,0,P|128:288|153:315,1,73.3333333333333,2|0,1:2|2:0,2:0:0:0:
260,356,146908,1,0,3:0:0:0:
314,273,147019,69,10,1:2:0:0:
369,256,147129,1,0,3:0:0:0:
417,289,147240,1,0,3:0:0:0:
465,384,147350,2,0,P|496:365|512:333,2,73.3333333333333,2|0|0,1:2|2:0|3:0,2:0:0:0:
486,232,147682,5,10,1:2:0:0:
443,191,147792,1,0,3:0:0:0:
447,132,147903,1,0,3:0:0:0:
512,64,148013,2,0,P|483:86|447:92,1,73.3333333333333,2|0,1:2|3:0,2:0:0:0:
347,26,148234,1,0,3:0:0:0:
315,122,148345,69,10,3:2:0:0:
260,142,148455,1,0,3:0:0:0:
207,115,148566,1,2,3:2:0:0:
74,79,148676,1,0,3:0:0:0:
132,84,148787,1,2,3:2:0:0:
176,44,148897,1,0,3:0:0:0:
31,4,149008,6,0,P|-14:58|0:128,1,146.666666666667,10|0,3:2|3:0,2:0:0:0:
110,233,149339,2,0,P|137:209|145:174,1,73.3333333333333,2|0,1:2|2:0,2:0:0:0:
0,225,149560,1,0,3:0:0:0:
61,327,149671,69,10,1:2:0:0:
116,344,149781,1,0,3:0:0:0:
168,317,149892,1,0,3:0:0:0:
238,226,150002,2,0,P|274:226|303:247,2,73.3333333333333,2|0|0,1:2|2:0|3:0,2:0:0:0:
275,351,150334,5,10,1:2:0:0:
331,366,150444,1,0,3:0:0:0:
379,332,150555,1,0,3:0:0:0:
465,382,150665,2,0,P|433:363|417:331,1,73.3333333333333,10|0,1:2|3:0,2:0:0:0:
400,210,150886,1,0,3:0:0:0:
512,284,150997,69,10,1:2:0:0:
494,307,151107,1,0,2:0:0:0:
459,205,151218,5,10,3:2:0:0:
430,208,151328,1,0,3:0:0:0:
512,125,151439,69,10,3:2:0:0:
490,107,151549,1,0,2:0:0:0:
342,82,151660,6,0,B|424:98|386:-4|489:20,1,146.666666666667,10|0,1:2|3:0,2:0:0:0:
282,0,151991,2,0,P|254:17|237:54,1,73.3333333333333,2|0,1:2|2:0,2:0:0:0:
268,149,152212,1,0,3:0:0:0:
163,114,152323,69,10,1:2:0:0:
146,170,152433,1,0,3:0:0:0:
183,214,152544,1,0,3:0:0:0:
315,246,152654,2,0,P|279:248|251:272,1,73.3333333333333,2|0,1:2|2:0,2:0:0:0:
211,367,152875,1,0,3:0:0:0:
128,289,152986,5,10,1:2:0:0:
82,326,153096,1,0,3:0:0:0:
85,384,153207,1,0,3:0:0:0:
0,334,153317,1,2,1:2:0:0:
11,276,153428,1,0,3:0:0:0:
59,244,153538,1,0,3:0:0:0:
141,188,153649,70,0,P|121:158|86:146,1,73.3333333333333,10|0,1:2|2:0,2:0:0:0:
10,37,153870,2,0,P|45:34|72:10,1,73.3333333333333,2|0,3:2|1:0,2:0:0:0:
206,0,154091,2,0,P|190:32|197:67,1,73.3333333333333,2|0,3:2|2:0,2:0:0:0:
281,173,154312,5,10,1:2:0:0:
330,204,154422,1,0,3:0:0:0:
392,194,154533,1,0,3:0:0:0:
440,95,154643,2,0,P|439:54|428:8,1,73.3333333333333,2|0,1:2|2:0,2:0:0:0:
347,111,154864,1,0,3:0:0:0:
482,184,154975,69,10,1:2:0:0:
482,242,155085,1,0,3:0:0:0:
434,277,155196,1,0,3:0:0:0:
379,368,155306,2,0,P|409:387|445:384,1,73.3333333333333,2|0,1:2|2:0,2:0:0:0:
342,282,155527,1,0,3:0:0:0:
272,371,155638,5,10,1:2:0:0:
219,345,155748,1,0,3:0:0:0:
212,286,155859,1,0,3:0:0:0:
119,242,155969,69,2,1:2:0:0:
149,191,156080,1,0,3:0:0:0:
206,181,156190,1,0,3:0:0:0:
315,233,156301,6,0,P|329:199|322:163,1,73.3333333333333,10|0,1:2|2:0,2:0:0:0:
303,14,156522,2,0,P|325:43|360:55,1,73.3333333333333,10|0,3:2|2:0,2:0:0:0:
498,113,156743,2,0,P|461:117|433:141,1,73.3333333333333,10|0,3:2|2:0,2:0:0:0:
244,192,156964,22,0,P|218:184|199:163,1,53.3333333333333,2|0,1:2|2:0,2:0:0:0:
196,63,157185,1,2,2:0:0:0:
122,120,157295,1,10,1:2:0:0:
102,101,157406,1,2,3:2:0:0:
96,74,157516,1,2,1:2:0:0:
121,23,157627,6,0,P|125:49|121:75,1,53.3333333333333,2|0,3:2|2:0,2:0:0:0:
0,99,157848,2,0,P|2:125|12:149,1,53.3333333333333,2|8,3:2|1:2,2:0:0:0:
117,177,158069,2,0,P|114:203|104:227,1,53.3333333333333,2|0,2:0|2:0,2:0:0:0:
0,295,158290,70,0,P|23:304|52:301,1,53.3333333333333,10|0,1:2|3:0,2:0:0:0:
91,384,158511,1,2,3:2:0:0:
118,384,158621,2,0,P|137:368|150:341,1,53.3333333333333,2|0,3:2|3:0,2:0:0:0:
352,259,158842,1,2,3:2:0:0:
335,271,158953,2,0,P|312:261|293:238,1,53.3333333333333,10|0,1:2|2:0,2:0:0:0:
206,269,159174,1,2,3:2:0:0:
190,252,159284,2,0,P|193:200|227:161,1,106.666666666667,2|0,2:0|2:0,2:0:0:0:
379,175,159616,6,0,P|379:148|374:121,1,53.3333333333333,2|0,1:2|2:0,2:0:0:0:
280,69,159837,1,2,2:0:0:0:
261,53,159947,2,0,P|262:26|269:0,1,53.3333333333333,10|0,1:2|2:0,2:0:0:0:
402,13,160168,1,2,2:0:0:0:
439,99,160279,70,0,L|386:108,1,53.3333333333333,10|0,1:2|2:0,2:0:0:0:
459,205,160500,2,0,L|511:214,1,53.3333333333333,10|0,3:2|2:0,2:0:0:0:
439,311,160721,2,0,L|386:320,1,53.3333333333333,10|0,3:2|2:0,2:0:0:0:
247,222,160942,6,0,L|300:231,1,53.3333333333333,2|0,1:2|2:0,2:0:0:0:
299,335,161163,1,2,2:0:0:0:
227,384,161273,1,10,1:2:0:0:
200,379,161384,1,2,3:2:0:0:
173,374,161494,1,2,3:2:0:0:
81,384,161605,2,0,P|95:361|102:335,1,53.3333333333333,10|0,3:2|2:0,2:0:0:0:
56,259,161826,1,0,3:0:0:0:
103,149,161936,1,2,1:2:0:0:
124,223,162047,1,10,3:2:0:0:
40,188,162157,1,2,2:0:0:0:
54,77,162268,70,0,P|77:62|106:61,1,53.3333333333333,2|0,1:2|2:0,2:0:0:0:
191,0,162489,1,2,2:0:0:0:
223,0,162599,2,0,P|247:12|262:37,1,53.3333333333333,10|0,1:2|3:0,2:0:0:0:
228,119,162820,1,2,1:2:0:0:
318,125,162931,6,0,L|309:177,1,53.3333333333333,2|0,3:2|2:0,2:0:0:0:
403,82,163152,2,0,L|421:131,1,53.3333333333333,2|8,3:2|1:2,2:0:0:0:
455,2,163372,2,0,L|496:35,1,53.3333333333333,2|0,2:0|2:0,2:0:0:0:
493,189,163593,70,0,P|508:167|512:141,1,53.3333333333333,10|0,1:2|3:0,2:0:0:0:
390,219,163814,1,2,3:2:0:0:
385,244,163925,2,0,P|395:268|416:284,2,53.3333333333333,2|2|2,3:2|3:2|3:2,2:0:0:0:
512,303,164256,1,10,1:2:0:0:
507,334,164367,1,2,2:0:0:0:
483,355,164477,1,2,3:2:0:0:
396,384,164588,2,0,L|278:369,1,106.666666666667,2|0,2:0|2:0,2:0:0:0:
152,332,164919,6,0,P|154:359|159:384,1,53.3333333333333,2|0,1:2|2:0,2:0:0:0:
71,283,165140,1,2,2:0:0:0:
56,292,165251,2,0,P|51:319|49:344,1,53.3333333333333,10|0,1:2|2:0,2:0:0:0:
153,240,165472,1,2,2:0:0:0:
63,199,165582,70,0,P|36:197|10:216,1,53.3333333333333,10|0,1:2|2:0,2:0:0:0:
90,101,165803,2,0,P|67:86|35:89,1,53.3333333333333,10|0,3:2|2:0,2:0:0:0:
175,36,166024,2,0,P|163:12|133:-1,1,53.3333333333333,10|0,3:2|2:0,2:0:0:0:
279,152,166245,6,0,L|269:206,1,53.3333333333333,2|0,1:2|2:0,2:0:0:0:
182,283,166466,1,2,2:0:0:0:
167,304,166577,2,0,L|177:358,1,53.3333333333333,10|0,1:2|3:0,2:0:0:0:
290,384,166798,1,2,3:2:0:0:
347,278,166908,1,10,3:2:0:0:
279,311,167019,1,2,2:0:0:0:
364,357,167129,1,2,3:2:0:0:
423,251,167240,2,0,P|413:226|392:209,1,53.3333333333333,2|8,1:2|3:2,2:0:0:0:
303,210,167461,1,2,2:0:0:0:
356,129,167571,70,0,P|380:119|406:123,1,53.3333333333333,2|0,1:2|2:0,2:0:0:0:
456,43,167792,1,2,2:0:0:0:
482,50,167903,2,0,P|502:66|512:91,1,53.3333333333333,10|0,1:2|3:0,2:0:0:0:
340,0,168124,1,2,1:2:0:0:
275,67,168234,6,0,L|267:119,1,53.3333333333333,2|0,3:2|2:0,2:0:0:0:
166,16,168455,2,0,L|173:68,1,53.3333333333333,2|8,3:2|1:2,2:0:0:0:
70,76,168676,2,0,L|62:128,1,53.3333333333333,2|0,2:0|2:0,2:0:0:0:
37,246,168897,70,0,P|63:249|88:241,1,53.3333333333333,10|0,1:2|3:0,2:0:0:0:
133,323,169118,1,2,3:2:0:0:
163,314,169229,2,0,P|179:293|184:267,1,53.3333333333333,2|0,3:2|3:0,2:0:0:0:
162,171,169450,1,2,3:2:0:0:
258,214,169560,1,10,1:2:0:0:
274,240,169671,1,2,2:0:0:0:
276,271,169781,1,2,3:2:0:0:
244,357,169892,2,0,P|295:345|339:372,1,106.666666666667,2|0,2:0|2:0,2:0:0:0:
483,384,170223,6,0,L|476:331,1,53.3333333333333,2|0,1:2|2:0,2:0:0:0:
382,284,170444,1,2,2:0:0:0:
364,266,170555,2,0,L|370:213,1,53.3333333333333,10|0,1:2|2:0,2:0:0:0:
493,154,170776,1,10,1:2:0:0:
462,47,170886,70,0,P|444:27|418:23,1,53.3333333333333,2|0,3:2|2:0,2:0:0:0:
357,134,171107,2,0,P|382:128|399:107,1,53.3333333333333,2|8,3:2|1:2,2:0:0:0:
333,0,171328,2,0,P|325:25|334:49,1,53.3333333333333,2|0,3:2|2:0,2:0:0:0:
276,182,171549,6,0,L|223:170,1,53.3333333333333,2|0,1:2|2:0,2:0:0:0:
239,72,171770,1,2,2:0:0:0:
218,57,171881,2,0,L|165:68,1,53.3333333333333,10|0,1:2|3:0,2:0:0:0:
97,139,172102,1,2,3:2:0:0:
17,96,172212,69,10,3:2:0:0:
9,70,172323,1,2,2:0:0:0:
17,44,172433,1,2,3:2:0:0:
105,144,172544,1,2,1:2:0:0:
100,220,172654,1,10,3:2:0:0:
37,180,172765,1,2,2:0:0:0:
175,203,172875,6,0,P|178:229|169:254,2,53.3333333333333,2|2|2,1:2|2:0|2:0,2:0:0:0:
55,305,173207,2,0,P|79:294|105:296,1,53.3333333333333,10|0,1:2|3:0,2:0:0:0:
184,340,173428,1,2,1:2:0:0:
249,274,173538,70,0,L|300:286,1,53.3333333333333,2|0,3:2|3:0,2:0:0:0:
431,310,173759,2,0,L|379:322,1,53.3333333333333,2|8,3:2|1:2,2:0:0:0:
265,372,173980,2,0,L|316:384,1,53.3333333333333,2|0,2:0|3:0,2:0:0:0:
374,244,174201,6,0,P|376:217|371:191,2,53.3333333333333,10|0|2,1:2|3:0|3:2,2:0:0:0:
444,311,174533,2,0,P|439:337|442:363,2,53.3333333333333,2|0|2,3:2|3:0|3:2,2:0:0:0:
474,215,174864,1,10,1:2:0:0:
482,184,174975,1,2,2:0:0:0:
478,152,175085,1,2,3:2:0:0:
511,86,175196,2,0,P|468:115|417:110,1,106.666666666667,2|0,2:0|2:0,2:0:0:0:
283,49,175527,70,0,P|256:50|231:66,1,53.3333333333333,2|0,1:2|2:0,2:0:0:0:
168,1,175748,1,2,2:0:0:0:
144,19,175859,2,0,P|131:42|132:72,1,53.3333333333333,10|0,1:2|2:0,2:0:0:0:
189,142,176080,1,10,1:2:0:0:
99,173,176190,6,0,P|74:173|75:149,1,53.3333333333333,2|0,3:2|2:0,2:0:0:0:
164,235,176411,2,0,P|152:256|120:262,1,53.3333333333333,2|8,3:2|1:2,2:0:0:0:
254,214,176632,2,0,P|266:234|265:293,1,53.3333333333333,2|0,3:2|2:0,2:0:0:0:
283,350,176853,70,0,P|277:361|267:370,1,26.6666666666667,2|0,3:2|2:0,2:0:0:0:
297,354,176964,2,0,P|294:367|287:378,1,26.6666666666667,2|0,3:2|2:0,2:0:0:0:
311,355,177074,2,0,P|311:368|307:380,1,26.6666666666667,2|0,3:2|2:0,2:0:0:0:
388,349,177185,6,0,P|393:366|392:384,1,36.6666666666667,2|0,3:2|2:0,2:0:0:0:
406,341,177295,2,0,P|416:356|419:374,1,36.6666666666667,2|0,3:2|2:0,2:0:0:0:
421,328,177406,2,0,P|434:339|442:356,1,36.6666666666667,2|0,3:2|2:0,2:0:0:0:
465,252,177516,70,0,P|485:262|500:279,1,46.6666666666667,2|0,3:2|2:0,2:0:0:0:
469,230,177627,2,0,P|491:234|510:247,1,46.6666666666667,2|0,3:2|2:0,2:0:0:0:
467,207,177737,2,0,P|490:205|511:213,1,46.6666666666667,2|0,3:2|2:0,2:0:0:0:
484,106,177848,6,0,P|457:112|433:128,1,56.6666666666667,10|0,1:2|2:0,2:0:0:0:
439,32,177958,2,0,P|414:47|398:70,1,56.6666666666667,10|0,1:2|2:0,2:0:0:0:
353,0,178069,2,0,P|339:23|336:52,1,56.6666666666667,10|0,1:2|2:0,2:0:0:0:
255,114,178179,21,6,3:2:0:0:
344,158,178290,1,2,2:0:0:0:
335,64,178400,1,2,2:0:0:0:
266,194,178511,2,0,P|239:227|197:235,1,86.6666666666667,10|0,3:2|2:0,2:0:0:0:
116,158,178732,1,2,3:2:0:0:
46,259,178842,5,2,3:2:0:0:
56,297,178953,1,0,3:0:0:0:
152,346,179063,1,2,3:2:0:0:
142,384,179174,1,8,3:2:0:0:
158,249,179284,2,0,P|200:254|228:286,1,86.6666666666667,2|0,3:2|2:0,2:0:0:0:
333,384,179505,70,0,P|338:341|338:297,1,86.6666666666667,2|0,3:2|3:0,2:0:0:0:
338,298,179726,1,2,3:2:0:0:
470,339,179837,2,0,P|464:296|452:254,1,86.6666666666667,10|0,3:2|3:0,2:0:0:0:
453,255,180058,1,2,3:2:0:0:
512,147,180168,5,10,3:2:0:0:
439,98,180279,1,2,3:2:0:0:
357,127,180389,1,10,3:2:0:0:
341,212,180500,2,0,P|392:144|392:59,1,173.333333333333,2|0,3:2|2:0,2:0:0:0:
174,166,180831,70,0,P|167:123|189:87,1,86.6666666666667,2|0,3:2|2:0,2:0:0:0:
288,49,181052,1,2,2:0:0:0:
129,25,181163,2,0,P|162:-1|204:0,1,86.6666666666667,10|0,3:2|2:0,2:0:0:0:
295,56,181384,1,2,2:0:0:0:
243,224,181494,6,0,P|213:254|171:259,1,86.6666666666667,10|0,3:2|2:0,2:0:0:0:
31,146,181715,2,0,P|71:156|97:190,1,86.6666666666667,10|0,3:2|2:0,2:0:0:0:
70,369,181936,2,0,P|59:328|75:289,1,86.6666666666667,10|0,3:2|2:0,2:0:0:0:
253,208,182157,70,0,P|246:250|249:294,1,86.6666666666667,2|0,3:2|3:0,2:0:0:0:
314,384,182378,1,2,2:0:0:0:
365,271,182489,5,10,3:2:0:0:
375,300,182599,1,2,3:2:0:0:
344,293,182710,1,2,3:2:0:0:
397,247,182820,69,2,3:2:0:0:
439,255,182931,1,2,3:2:0:0:
408,287,183041,1,2,3:2:0:0:
350,194,183152,5,10,3:2:0:0:
456,64,183262,1,10,3:2:0:0:
507,233,183372,1,10,3:2:0:0:
368,78,183483,70,0,P|368:35|395:-1,2,86.6666666666667,6|2|2,3:2|2:0|2:0,2:0:0:0:
512,133,183814,2,0,P|475:154|432:150,1,86.6666666666667,10|0,3:2|2:0,2:0:0:0:
278,125,184035,1,2,3:2:0:0:
269,246,184146,5,2,3:2:0:0:
231,259,184256,1,0,3:0:0:0:
160,164,184367,1,2,3:2:0:0:
198,177,184477,1,8,3:2:0:0:
84,226,184588,2,0,P|64:187|69:145,1,86.6666666666667,2|0,3:2|2:0,2:0:0:0:
187,0,184809,70,0,P|199:41|198:84,1,86.6666666666667,2|0,3:2|3:0,2:0:0:0:
198,84,185030,1,2,3:2:0:0:
68,37,185140,2,0,P|55:78|56:121,1,86.6666666666667,10|0,3:2|3:0,2:0:0:0:
56,121,185361,1,2,3:2:0:0:
0,241,185472,5,10,3:2:0:0:
50,310,185582,1,2,3:2:0:0:
137,307,185693,1,10,3:2:0:0:
186,237,185803,2,0,P|126:295|124:380,1,173.333333333333,2|0,3:2|2:0,2:0:0:0:
326,177,186135,70,0,P|316:135|284:106,1,86.6666666666667,2|0,3:2|2:0,2:0:0:0:
167,147,186356,1,2,2:0:0:0:
285,275,186466,2,0,P|325:287|366:274,1,86.6666666666667,10|0,3:2|2:0,2:0:0:0:
444,165,186687,1,2,2:0:0:0:
462,341,186798,6,0,P|495:357|503:320,1,86.6666666666667,10|0,3:2|2:0,2:0:0:0:
266,319,187019,2,0,P|259:357|294:385,1,86.6666666666667,10|0,3:2|2:0,2:0:0:0:
196,151,187240,2,0,P|157:170|131:204,1,86.6666666666667,10|0,3:2|2:0,2:0:0:0:
32,384,187461,70,0,P|21:342|20:298,1,86.6666666666667,10|0,3:2|2:0,2:0:0:0:
20,298,187682,1,2,2:0:0:0:
179,281,187792,2,0,P|174:324|160:364,1,86.6666666666667,10|0,3:2|3:0,2:0:0:0:
160,364,188013,1,2,2:0:0:0:
86,228,188124,5,10,3:2:0:0:
152,173,188234,1,2,3:2:0:0:
237,187,188345,1,10,3:2:0:0:
279,262,188455,2,0,P|243:237|225:198,1,86.6666666666667,2|8,3:2|3:2,2:0:0:0:
219,81,188676,1,0,2:0:0:0:
24,129,188787,69,6,3:2:0:0:
115,44,188897,1,2,2:0:0:0:
137,169,189008,1,2,2:0:0:0:
30,12,189118,2,0,P|76:28|126:29,1,100,10|0,3:2|2:0,2:0:0:0:
254,0,189339,1,2,3:2:0:0:
234,157,189450,5,2,3:2:0:0:
210,226,189560,1,0,3:0:0:0:
333,163,189671,1,2,3:2:0:0:
309,94,189781,1,8,3:2:0:0:
297,250,189892,2,0,P|343:265|387:245,1,100,2|0,3:2|2:0,2:0:0:0:
475,73,190113,70,0,P|517:99|528:155,1,100,2|0,3:2|3:0,2:0:0:0:
503,233,190334,1,2,3:2:0:0:
351,167,190444,2,0,P|394:143|447:162,1,100,10|0,3:2|3:0,2:0:0:0:
499,242,190665,1,2,3:2:0:0:
418,363,190776,5,10,3:2:0:0:
320,384,190886,1,2,3:2:0:0:
299,286,190997,1,10,3:2:0:0:
396,265,191107,2,0,B|359:325|359:325|232:350,1,200,2|0,3:2|2:0,2:0:0:0:
0,351,191439,70,0,P|35:384|86:384,1,100,2|0,3:2|2:0,2:0:0:0:
218,339,191660,1,2,2:0:0:0:
55,207,191770,2,0,P|43:253|69:297,1,100,10|0,3:2|2:0,2:0:0:0:
205,328,191991,1,2,2:0:0:0:
137,163,192102,6,0,P|106:124|58:116,1,100,10|0,3:2|2:0,2:0:0:0:
243,57,192323,2,0,P|291:48|322:10,1,100,10|0,3:2|2:0,2:0:0:0:
281,201,192544,2,0,P|262:246|280:292,1,100,10|0,3:2|2:0,2:0:0:0:
490,128,192765,70,0,P|508:82|490:36,1,100,2|0,3:2|3:0,2:0:0:0:
331,0,192986,1,2,2:0:0:0:
402,101,193096,5,10,3:2:0:0:
416,74,193207,1,2,3:2:0:0:
414,119,193317,1,2,3:2:0:0:
323,117,193428,69,2,3:2:0:0:
340,164,193538,1,2,3:2:0:0:
297,102,193649,1,2,3:2:0:0:
251,251,193759,5,10,3:2:0:0:
194,155,193870,1,10,3:2:0:0:
337,248,193980,1,10,3:2:0:0:
142,239,194091,70,0,P|104:209|97:158,2,100,6|2|2,3:2|2:0|2:0,2:0:0:0:
41,325,194422,2,0,P|77:354|133:350,1,100,10|0,3:2|2:0,2:0:0:0:
255,231,194643,1,2,3:2:0:0:
349,360,194754,5,2,3:2:0:0:
280,384,194864,1,0,3:0:0:0:
174,286,194975,1,2,3:2:0:0:
243,310,195085,1,8,3:2:0:0:
419,245,195196,2,0,P|367:264|323:274,1,100,2|0,3:2|2:0,2:0:0:0:
148,182,195417,70,0,P|200:201|244:211,1,100,2|0,3:2|3:0,2:0:0:0:
335,180,195638,1,2,3:2:0:0:
161,69,195748,2,0,P|206:100|246:121,1,100,10|0,3:2|3:0,2:0:0:0:
334,167,195969,1,2,3:2:0:0:
512,23,196080,5,10,3:2:0:0:
413,1,196190,1,2,3:2:0:0:
392,100,196301,1,10,3:2:0:0:
489,121,196411,2,0,B|452:61|452:61|325:36,1,200,2|0,3:2|2:0,2:0:0:0:
143,118,196743,70,0,P|133:67|167:17,1,106.666666666667,2|0,3:2|2:0,2:0:0:0:
304,33,196964,1,2,2:0:0:0:
213,200,197074,2,0,P|173:233|113:228,1,106.666666666667,10|0,3:2|2:0,2:0:0:0:
22,128,197295,1,2,2:0:0:0:
37,313,197406,6,0,P|7:345|0:302,1,106.666666666667,10|0,3:2|2:0,2:0:0:0:
245,304,197627,2,0,P|244:355|202:384,1,106.666666666667,10|0,3:2|2:0,2:0:0:0:
328,96,197848,2,0,P|373:123|408:163,1,106.666666666667,10|0,3:2|2:0,2:0:0:0:
487,384,198069,70,0,P|508:331|512:275,1,113.333333333333,10|0,3:2|2:0,2:0:0:0:
409,178,198290,1,2,2:0:0:0:
327,384,198400,2,0,P|371:348|403:302,1,113.333333333333,10|0,3:2|3:0,2:0:0:0:
406,189,198621,1,2,2:0:0:0:
199,227,198732,5,10,3:2:0:0:
339,103,198842,1,10,3:2:0:0:
406,287,198953,1,10,3:2:0:0:
214,114,199063,2,0,B|170:96|128:130|128:130|88:101|88:101|39:152|-17:115,1,240,10|0,3:2|2:0,2:0:0:0:
