osu file format v14

[General]
AudioFilename: audio.mp3
AudioLeadIn: 0
PreviewTime: 215407
Countdown: 1
SampleSet: Soft
StackLeniency: 0.7
Mode: 0
LetterboxInBreaks: 0
WidescreenStoryboard: 0

[Editor]
Bookmarks: 8820,31814,39000,50497,61994,76365,99359
DistanceSpacing: 2.5
BeatDivisor: 4
GridSize: 32
TimelineZoom: 1

[Metadata]
Title:Futari no Kesshou -INNOCENCE-
TitleUnicode:二人の結晶-INNOCENCE-
Artist:Akatsuki Records
ArtistUnicode:暁Records
Creator:FireAce62
Version:
Source:少女秘封倶楽部/大空魔術 ~ Magical Astronomy
Tags:秘封倶楽部 動画 Silve ACTRock Stack 原之様 Touhou ZUN ヒロシゲ36号 ~ Neo Super-Express
BeatmapID:2074066
BeatmapSetID:991729

[Difficulty]
HPDrainRate:5.5
CircleSize:4
OverallDifficulty:6
ApproachRate:9
SliderMultiplier:1.4
SliderTickRate:1

[Events]
//Background and Video events
0,0,"562203_1920_1080.jpg",0,0
//Break Periods
//Storyboard Layer 0 (Background)
//Storyboard Layer 1 (Fail)
//Storyboard Layer 2 (Pass)
//Storyboard Layer 3 (Foreground)
//Storyboard Sound Samples

[TimingPoints]
1635,359.281437125748,4,2,0,40,1,0
5587,-90.0900900900901,4,2,0,40,0,0
8820,-66.6666666666667,4,2,0,40,0,0
39000,-90.0900900900901,4,2,0,40,0,0
50497,-66.6666666666667,4,2,0,40,0,0
76365,-57.1428571428571,4,2,0,40,0,1
99179,-66.6666666666667,4,2,0,40,0,0
145347,-66.6666666666667,4,2,0,40,0,1
168161,-66.6666666666667,4,2,0,40,0,0
247383,-66.6666666666667,4,2,0,40,0,1
270197,-66.6666666666667,4,2,0,40,0,0

[HitObjects]
224,62,1635,6,0,B|214:123|214:123|147:98|117:138,1,140
171,198,2173,1,0,0:0:0:0:
283,176,2353,2,0,B|293:115|293:115|360:140|390:100,1,140
66,160,2892,5,0,0:0:0:0:
77,189,2982,1,0,0:0:0:0:
58,214,3072,1,0,0:0:0:0:
75,239,3161,1,0,0:0:0:0:
326,41,3431,2,0,P|282:9|223:60,1,140
316,228,4149,5,0,0:0:0:0:
307,197,4238,1,0,0:0:0:0:
283,176,4328,1,0,0:0:0:0:
199,262,4509,5,0,0:0:0:0:
223,55,4688,1,0,0:0:0:0:
398,171,4868,2,0,P|417:232|408:264,1,70
340,118,5227,5,0,0:0:0:0:
414,97,5407,1,0,0:0:0:0:
199,262,5587,2,0,L|281:234,1,77.7000018969727
380,197,5946,5,0,0:0:0:0:
252,158,6126,1,0,0:0:0:0:
112,114,6305,1,0,0:0:0:0:
266,60,6485,1,0,0:0:0:0:
434,5,6664,1,0,0:0:0:0:
266,60,6844,1,0,0:0:0:0:
452,114,7024,1,0,0:0:0:0:
266,60,7203,1,0,0:0:0:0:
232,67,7293,1,0,0:0:0:0:
202,78,7383,2,0,P|183:89|154:155,1,77.7000018969727
234,145,7742,5,0,0:0:0:0:
348,215,7922,1,0,0:0:0:0:
512,320,8102,1,0,0:0:0:0:
485,304,8191,1,0,0:0:0:0:
459,286,8281,1,0,0:0:0:0:
432,270,8371,1,0,0:0:0:0:
405,253,8461,5,0,0:0:0:0:
292,184,8640,1,0,0:0:0:0:
512,10,8820,6,0,L|412:92,1,105.000004005432
242,268,9179,2,0,P|224:209|161:207,1,105.000004005432
351,141,9539,1,0,0:0:0:0:
186,258,9718,1,0,0:0:0:0:
251,108,9898,1,0,0:0:0:0:
86,225,10078,2,0,P|35:221|10:177,1,105.000004005432
127,71,10437,5,0,0:0:0:0:
150,42,10617,1,0,0:0:0:0:
306,62,10796,5,0,0:0:0:0:
277,85,10976,1,0,0:0:0:0:
413,149,11155,5,0,0:0:0:0:
448,137,11335,1,0,0:0:0:0:
250,110,11515,6,0,P|209:176|296:269,1,210.000008010865
96,226,12054,2,0,L|213:196,1,105.000004005432
341,38,12413,1,0,0:0:0:0:
285,185,12593,1,0,0:0:0:0:
156,54,12772,1,0,0:0:0:0:
155,211,12952,2,0,P|184:281|214:302,1,105.000004005432
352,205,13311,5,0,0:0:0:0:
317,195,13491,1,0,0:0:0:0:
326,38,13670,5,0,0:0:0:0:
357,56,13850,1,0,0:0:0:0:
512,34,14030,5,0,0:0:0:0:
496,0,14210,1,0,0:0:0:0:
295,15,14389,6,0,P|259:86|318:197,1,210.000008010865
154,124,14928,2,0,L|273:107,1,105.000004005432
16,77,15287,1,0,0:0:0:0:
75,223,15467,1,0,0:0:0:0:
138,79,15646,1,0,0:0:0:0:
200,246,15826,2,0,P|176:305|116:343,1,105.000004005432
51,204,16185,5,0,0:0:0:0:
80,226,16365,1,0,0:0:0:0:
202,126,16545,5,0,0:0:0:0:
186,94,16725,1,0,0:0:0:0:
328,160,16904,5,0,0:0:0:0:
328,195,17084,1,0,0:0:0:0:
172,62,17263,6,0,P|219:24|331:100,1,210.000008010865
226,210,17802,2,0,L|245:102,1,105.000004005432
302,248,18161,5,0,0:0:0:0:
330,92,18341,1,0,0:0:0:0:
394,235,18521,1,0,0:0:0:0:
424,59,18700,2,0,P|385:9|316:-5,1,105.000004005432
280,140,19060,5,0,0:0:0:0:
307,115,19239,1,0,0:0:0:0:
215,243,19419,5,0,0:0:0:0:
179,248,19598,1,0,0:0:0:0:
303,345,19778,5,0,0:0:0:0:
335,362,19958,5,0,0:0:0:0:
376,363,20047,1,0,0:0:0:0:
411,342,20137,1,0,0:0:0:0:
430,305,20227,1,0,0:0:0:0:
425,263,20317,6,0,P|419:188|460:134,1,105.000004005432
347,28,20676,2,0,P|289:76|280:143,1,105.000004005432
430,162,21036,1,0,0:0:0:0:
282,216,21215,1,0,0:0:0:0:
459,236,21395,1,0,0:0:0:0:
311,290,21575,2,0,P|237:286|207:243,1,105.000004005432
301,133,21934,5,0,0:0:0:0:
294,169,22114,1,0,0:0:0:0:
202,87,22293,5,0,0:0:0:0:
187,53,22473,1,0,0:0:0:0:
30,50,22652,5,0,0:0:0:0:
62,70,22832,1,0,0:0:0:0:
251,107,23012,6,0,P|146:146|147:232,1,210.000008010865
302,254,23551,2,0,L|215:183,1,105.000004005432
85,268,23910,1,0,0:0:0:0:
242,259,24090,1,0,0:0:0:0:
86,345,24269,1,0,0:0:0:0:
295,326,24449,2,0,P|329:270|316:207,1,105.000004005432
169,239,24808,5,0,0:0:0:0:
204,249,24988,1,0,0:0:0:0:
228,124,25167,5,0,0:0:0:0:
210,92,25347,1,0,0:0:0:0:
363,130,25527,5,0,0:0:0:0:
353,165,25707,1,0,0:0:0:0:
187,53,25886,6,0,P|115:95|138:222,1,210.000008010865
326,182,26425,2,0,L|181:144,1,105.000004005432
280,256,26784,1,0,0:0:0:0:
316,263,26964,1,0,0:0:0:0:
163,227,27143,1,0,0:0:0:0:
353,318,27323,2,0,P|380:266|366:222,1,105.000004005432
209,238,27682,5,0,0:0:0:0:
244,246,27862,1,0,0:0:0:0:
129,137,28042,5,0,0:0:0:0:
107,165,28222,1,0,0:0:0:0:
262,141,28401,5,0,0:0:0:0:
246,110,28581,1,0,0:0:0:0:
137,276,28760,6,0,P|117:201|-6:190,1,210.000008010865
0,336,29299,2,0,L|54:245,1,105.000004005432
200,304,29658,1,0,0:0:0:0:
283,170,29838,1,0,0:0:0:0:
292,348,30018,1,0,0:0:0:0:
381,194,30197,2,0,P|378:129|346:83,1,105.000004005432
207,193,30557,5,0,0:0:0:0:
242,183,30736,1,0,0:0:0:0:
159,317,30916,5,0,0:0:0:0:
194,307,31095,1,0,0:0:0:0:
49,243,31275,5,0,0:0:0:0:
84,233,31455,5,0,0:0:0:0:
118,221,31544,1,0,0:0:0:0:
153,209,31634,1,0,0:0:0:0:
188,197,31724,1,0,0:0:0:0:
223,186,31814,6,0,P|283:214|310:293,1,105.000004005432
271,112,32173,2,0,P|205:100|138:149,1,105.000004005432
326,34,32533,2,0,P|363:88|347:170,1,105.000004005432
216,273,32892,5,0,0:0:0:0:
271,112,33072,2,0,P|331:137|361:215,1,105.000004005432
225,260,33431,5,0,0:0:0:0:
247,231,33611,1,0,0:0:0:0:
92,255,33790,5,0,0:0:0:0:
59,272,33970,1,0,0:0:0:0:
175,159,34149,5,0,0:0:0:0:
212,185,34238,1,0,0:0:0:0:
224,230,34328,5,0,0:0:0:0:
330,227,34509,1,0,0:0:0:0:
268,142,34688,1,0,0:0:0:0:
373,138,34869,1,0,0:0:0:0:
312,54,35048,1,0,0:0:0:0:
417,50,35229,1,0,0:0:0:0:
268,142,35407,6,0,P|211:96|202:64,1,105.000004005432
373,138,35766,2,0,P|445:144|474:127,1,105.000004005432
268,142,36126,2,0,P|211:188|202:220,1,105.000004005432
358,281,36485,6,0,L|276:216,1,105.000004005432
118,222,36844,1,0,0:0:0:0:
257,148,37024,1,0,0:0:0:0:
100,132,37203,2,0,P|40:173|29:220,1,105.000004005432
124,41,37563,2,0,P|184:82|195:129,1,105.000004005432
187,267,37922,5,0,0:0:0:0:
282,141,38102,1,0,0:0:0:0:
282,141,38191,1,0,0:0:0:0:
282,141,38281,1,0,0:0:0:0:
119,220,38461,5,0,0:0:0:0:
104,253,38640,1,0,0:0:0:0:
108,289,38820,1,0,0:0:0:0:
145,192,39000,2,0,P|166:135|158:93,1,77.7000018969727
12,115,39359,6,0,L|89:136,1,77.7000018969727
96,58,39718,1,0,0:0:0:0:
156,157,39898,5,0,0:0:0:0:
156,157,40078,2,0,L|204:226,1,77.7000018969727
270,313,40437,5,0,0:0:0:0:
270,313,40617,5,0,0:0:0:0:
270,313,40796,2,0,L|225:249,1,77.7000018969727
301,231,41155,2,0,L|274:157,1,77.7000018969727
352,159,41515,2,0,L|345:81,1,77.7000018969727
237,36,41874,5,0,0:0:0:0:
237,36,42054,2,0,L|205:126,1,77.7000018969727
144,69,42413,2,0,L|89:147,1,77.7000018969727
24,222,42772,5,0,0:0:0:0:
24,222,42952,2,0,L|78:300,1,77.7000018969727
135,381,43311,5,0,0:0:0:0:
135,381,43491,5,0,0:0:0:0:
135,381,43670,2,0,L|189:302,1,77.7000018969727
130,255,44030,2,0,L|202:193,1,77.7000018969727
308,104,44389,2,0,L|235:165,1,77.7000018969727
130,255,44748,2,0,L|202:193,1,77.7000018969727
151,136,45108,2,0,L|237:94,1,77.7000018969727
170,43,45467,1,0,0:0:0:0:
281,75,45646,5,0,0:0:0:0:
281,75,45826,2,0,L|374:102,1,77.7000018969727
468,126,46185,5,0,0:0:0:0:
468,126,46365,5,0,0:0:0:0:
468,126,46545,2,0,L|375:153,1,77.7000018969727
416,221,46904,2,0,L|319:223,1,77.7000018969727
340,300,47263,2,0,L|245:276,1,77.7000018969727
150,206,47623,6,0,P|163:260|154:305,1,77.7000018969727
86,256,47982,2,0,L|6:269,1,77.7000018969727
38,196,48341,1,0,0:0:0:0:
112,286,48521,5,0,0:0:0:0:
133,171,48700,1,0,0:0:0:0:
201,265,48880,5,0,0:0:0:0:
222,150,49059,1,0,0:0:0:0:
222,150,49599,5,0,0:0:0:0:
236,142,49958,6,0,L|295:111,1,38.8500009484863
306,108,50137,1,0,0:0:0:0:
336,102,50226,1,0,0:0:0:0:
366,107,50316,1,0,0:0:0:0:
393,123,50406,1,0,0:0:0:0:
411,147,50497,6,0,P|459:188|501:186,1,105.000004005432
322,227,50856,2,0,P|274:268|232:266,1,105.000004005432
221,114,51215,5,0,0:0:0:0:
236,142,51395,1,0,0:0:0:0:
74,63,51575,6,0,B|44:11|44:11|-23:6,1,105.000004005432
123,157,51934,2,0,B|153:209|153:209|220:214,1,105.000004005432
430,281,52293,2,0,B|400:229|400:229|333:224,1,105.000004005432
220,307,52652,5,0,0:0:0:0:
251,312,52832,1,0,0:0:0:0:
118,146,53012,6,0,B|148:198|148:198|215:203,1,105.000004005432
454,79,53371,2,0,P|421:24|350:5,1,105.000004005432
274,154,53730,6,0,B|304:102|304:102|348:98,1,105.000004005432
462,209,54090,5,0,0:0:0:0:
430,212,54270,1,0,0:0:0:0:
281,359,54449,6,0,B|311:307|311:307|355:303,1,105.000004005432
199,319,54808,2,0,B|139:324|139:324|110:290,1,105.000004005432
94,77,55167,2,0,B|153:71|153:71|182:105,1,105.000004005432
335,150,55527,5,0,0:0:0:0:
315,124,55706,1,0,0:0:0:0:
191,301,55886,6,0,L|258:389,1,105.000004005432
239,122,56245,2,0,P|265:65|316:48,1,105.000004005432
342,213,56605,2,0,B|353:170|353:170|314:124,1,105.000004005432
156,121,56964,5,0,0:0:0:0:
136,95,57143,1,0,0:0:0:0:
364,132,57323,6,0,L|300:48,1,105.000004005432
455,138,57682,2,0,B|493:183|493:183|482:226,1,105.000004005432
251,308,58042,2,0,B|239:265|239:265|278:219,1,105.000004005432
129,266,58401,5,0,0:0:0:0:
109,290,58581,1,0,0:0:0:0:
313,183,58760,6,0,L|408:80,1,105.000004005432
250,334,59120,2,0,P|193:307|180:243,1,105.000004005432
288,157,59479,2,0,B|249:202|249:202|260:245,1,105.000004005432
398,169,59838,5,0,0:0:0:0:
419,146,60018,1,0,0:0:0:0:
437,328,60197,2,0,P|371:332|338:305,1,105.000004005432
130,148,60557,2,0,P|196:144|229:171,1,105.000004005432
151,305,60916,5,0,0:0:0:0:
158,274,61096,1,0,0:0:0:0:
111,180,61275,5,0,0:0:0:0:
131,155,61455,1,0,0:0:0:0:
127,49,61634,5,0,0:0:0:0:
156,35,61814,1,0,0:0:0:0:
296,260,61994,6,0,P|227:147|121:160,1,210.000008010865
112,347,62533,1,0,0:0:0:0:
296,260,62712,2,0,B|368:224|368:224|396:234|396:234|489:184,1,210.000008010865
385,2,63251,1,0,0:0:0:0:
201,89,63430,2,0,B|128:124|128:124|100:114|100:114|7:164,1,210.000008010865
161,340,63970,1,0,0:0:0:0:
197,56,64149,2,0,B|120:81|120:81|94:67|94:67|-5:103,1,210.000008010865
119,275,64688,5,0,0:0:0:0:
292,123,64868,2,0,B|350:67|350:67|380:69|380:69|455:-5,1,210.000008010865
507,207,65407,1,0,0:0:0:0:
292,123,65587,2,0,B|218:90|218:90|190:102|190:102|94:57,1,210.000008010865
119,275,66126,1,0,0:0:0:0:
292,123,66306,2,0,B|350:67|350:67|380:69|380:69|455:-5,1,210.000008010865
364,189,66844,5,0,0:0:0:0:
341,210,67024,1,0,0:0:0:0:
491,255,67203,5,0,0:0:0:0:
461,264,67383,1,0,0:0:0:0:
146,256,67742,6,0,P|203:288|230:331,1,105.000004005432
135,345,68102,1,0,0:0:0:0:
167,31,68461,5,0,0:0:0:0:
163,62,68640,1,0,0:0:0:0:
159,93,68820,1,0,0:0:0:0:
359,335,69179,5,0,0:0:0:0:
355,304,69359,1,0,0:0:0:0:
351,273,69538,1,0,0:0:0:0:
96,85,69898,5,0,0:0:0:0:
100,116,70077,1,0,0:0:0:0:
104,147,70257,1,0,0:0:0:0:
414,207,70617,6,0,P|351:177|311:188,1,105.000004005432
300,356,70976,2,0,P|323:290|359:269,1,105.000004005432
199,229,71335,5,0,0:0:0:0:
227,245,71514,1,0,0:0:0:0:
255,261,71694,1,0,0:0:0:0:
297,92,72054,5,0,0:0:0:0:
263,78,72143,1,0,0:0:0:0:
226,71,72233,1,0,0:0:0:0:
190,72,72323,1,0,0:0:0:0:
154,81,72413,1,0,0:0:0:0:
122,98,72503,1,0,0:0:0:0:
93,121,72592,1,0,0:0:0:0:
70,149,72682,1,0,0:0:0:0:
53,182,72772,2,0,L|78:245,1,52.5000020027161
250,242,72952,5,0,0:0:0:0:
225,215,73041,1,0,0:0:0:0:
195,193,73131,1,0,0:0:0:0:
161,179,73221,1,0,0:0:0:0:
125,172,73311,1,0,0:0:0:0:
89,173,73401,1,0,0:0:0:0:
53,182,73491,6,0,L|48:248,1,52.5000020027161
323,222,73850,2,0,L|331:110,1,105.000004005432
399,316,74209,5,0,0:0:0:0:
402,284,74389,1,0,0:0:0:0:
423,71,74569,5,0,0:0:0:0:
391,29,74658,1,0,0:0:0:0:
344,9,74748,1,0,0:0:0:0:
292,15,74838,1,0,0:0:0:0:
251,46,74928,6,0,L|262:103,1,52.5000020027161
220,252,75108,2,0,L|209:195,1,52.5000020027161
340,104,75467,6,0,L|329:160,1,52.5000020027161
293,283,75646,1,0,0:0:0:0:
270,311,75735,1,0,0:0:0:0:
237,327,75825,1,0,0:0:0:0:
201,326,75915,1,0,0:0:0:0:
169,308,76006,5,0,0:0:0:0:
161,267,76095,1,0,0:0:0:0:
153,226,76185,1,0,0:0:0:0:
144,185,76275,1,0,0:0:0:0:
136,143,76365,6,0,P|162:63|219:38,1,122.500001168251
308,243,76724,2,0,P|282:163|225:138,1,122.500001168251
144,343,77084,2,0,P|170:263|227:238,1,122.500001168251
505,231,77443,5,0,0:0:0:0:
471,215,77623,2,0,L|353:150,1,122.500001168251
144,343,77982,1,0,0:0:0:0:
178,327,78162,2,0,L|296:262,1,122.500001168251
33,96,78521,2,0,P|58:145|120:176,1,122.500001168251
380,330,78880,5,0,0:0:0:0:
226,0,79060,2,0,P|169:21|136:71,1,122.500001168251
382,253,79419,5,0,0:0:0:0:
384,216,79599,2,0,L|263:120,1,122.500001168251
9,268,79958,5,0,0:0:0:0:
33,295,80137,1,0,0:0:0:0:
273,104,80317,5,0,0:0:0:0:
263,70,80497,2,0,P|322:17|366:16,1,122.500001168251
473,301,80856,5,0,0:0:0:0:
453,269,81036,1,0,0:0:0:0:
147,269,81215,5,0,0:0:0:0:
142,231,81395,1,0,0:0:0:0:
423,369,81575,5,0,0:0:0:0:
434,333,81755,1,0,0:0:0:0:
69,357,81934,2,0,P|27:280|49:210,1,122.500001168251
337,223,82293,5,0,0:0:0:0:
301,233,82473,2,0,L|140:276,1,122.500001168251
377,43,82832,5,0,0:0:0:0:
413,37,83012,1,0,0:0:0:0:
147,186,83191,5,0,0:0:0:0:
111,180,83371,2,0,P|106:92|155:38,1,122.500001168251
406,182,83730,5,0,0:0:0:0:
370,172,83910,1,0,0:0:0:0:
92,303,84090,5,0,0:0:0:0:
63,278,84270,1,0,0:0:0:0:
368,274,84449,5,0,0:0:0:0:
340,250,84629,1,0,0:0:0:0:
9,93,84808,2,0,P|64:72|81:14,1,122.500001168251
308,221,85167,5,0,0:0:0:0:
279,197,85347,2,0,L|176:118,1,122.500001168251
475,212,85706,5,0,0:0:0:0:
504,234,85886,1,0,0:0:0:0:
444,191,86066,1,0,0:0:0:0:
323,108,86245,2,0,L|433:185,1,122.500001168251
129,85,86605,5,0,0:0:0:0:
98,64,86784,1,0,0:0:0:0:
368,274,86964,5,0,0:0:0:0:
331,268,87143,1,0,0:0:0:0:
100,65,87323,5,0,0:0:0:0:
419,178,87503,1,0,0:0:0:0:
452,203,87592,1,0,0:0:0:0:
474,240,87682,1,0,0:0:0:0:
480,282,87772,1,0,0:0:0:0:
469,324,87862,6,0,L|341:273,1,122.500001168251
68,168,88221,2,0,L|196:219,1,122.500001168251
414,10,88581,5,0,0:0:0:0:
448,22,88760,1,0,0:0:0:0:
215,225,88940,5,0,0:0:0:0:
181,213,89120,2,0,L|68:168,1,122.500001168251
374,165,89479,5,0,0:0:0:0:
408,177,89658,1,0,0:0:0:0:
108,245,89838,5,0,0:0:0:0:
74,257,90017,1,0,0:0:0:0:
374,317,90197,5,0,0:0:0:0:
408,329,90376,1,0,0:0:0:0:
119,97,90557,2,0,L|4:141,1,122.500001168251
296,44,90916,5,0,0:0:0:0:
144,312,91096,2,0,L|29:356,1,122.500001168251
319,254,91455,1,0,0:0:0:0:
25,170,91634,1,0,0:0:0:0:
214,11,91814,1,0,0:0:0:0:
508,95,91994,2,0,L|400:184,1,122.500001168251
174,365,92353,5,0,0:0:0:0:
204,343,92533,1,0,0:0:0:0:
313,43,92712,5,0,0:0:0:0:
283,65,92892,1,0,0:0:0:0:
248,382,93072,5,0,0:0:0:0:
265,350,93252,1,0,0:0:0:0:
237,32,93431,6,0,P|249:108|326:109,1,122.500001168251
1,240,93790,1,0,0:0:0:0:
32,220,93970,2,0,L|145:136,1,122.500001168251
305,384,94329,1,0,0:0:0:0:
25,264,94508,1,0,0:0:0:0:
230,129,94688,1,0,0:0:0:0:
512,248,94868,2,0,L|393:323,1,122.500001168251
121,205,95227,5,0,0:0:0:0:
152,185,95407,1,0,0:0:0:0:
455,142,95587,5,0,0:0:0:0:
424,162,95767,1,0,0:0:0:0:
118,154,95946,5,0,0:0:0:0:
149,134,96126,1,0,0:0:0:0:
509,198,96305,2,0,P|531:139|490:69,1,122.500001168251
204,108,96664,5,0,0:0:0:0:
238,95,96844,2,0,L|366:122,1,122.500001168251
93,276,97203,1,0,0:0:0:0:
5,48,97383,1,0,0:0:0:0:
298,107,97563,1,0,0:0:0:0:
495,377,97742,2,0,L|368:347,1,122.500001168251
206,91,98102,5,0,0:0:0:0:
238,95,98281,1,0,0:0:0:0:
40,330,98461,5,0,0:0:0:0:
67,347,98640,1,0,0:0:0:0:
238,95,98820,1,0,0:0:0:0:
104,301,99000,5,0,0:0:0:0:
67,347,99090,1,0,0:0:0:0:
8,349,99179,1,0,0:0:0:0:
