osu file format v14

[General]
AudioFilename: audio.mp3
AudioLeadIn: 0
PreviewTime: 196214
Countdown: 0
SampleSet: Soft
StackLeniency: 0.5
Mode: 0
LetterboxInBreaks: 0
WidescreenStoryboard: 1

[Editor]
DistanceSpacing: 1.9
BeatDivisor: 4
GridSize: 32
TimelineZoom: 0.9

[Metadata]
Title:Futari de Aruita Kaerimichi
TitleUnicode:二人で歩いた帰り道
Artist:Akatsuki Records
ArtistUnicode:暁Records
Creator:Zelq
Version:Lunatic
Source:東方風神録 ~ Mountain of Faith.
Tags:Touhou 東方Project Stack ACTRock 明日ハレの日、ケの昨日 / 厄神様の通り道 ~ Dark Road Sanae Kochiya Suwako Moriya th10 REAL WORLD -to the beginning 01- Reitaisai 10 SMOKELIND The Way Home We Walked Together japanese video game ballad
BeatmapID:2253900
BeatmapSetID:1077072

[Difficulty]
HPDrainRate:6.2
CircleSize:6
OverallDifficulty:6.4
ApproachRate:7.2
SliderMultiplier:1.7
SliderTickRate:1

[Events]
//Background and Video events
0,0,"11350699_p0.jpg",0,0
//Break Periods
//Storyboard Layer 0 (Background)
//Storyboard Layer 1 (Fail)
//Storyboard Layer 2 (Pass)
//Storyboard Layer 3 (Foreground)
//Storyboard Layer 4 (Overlay)
//Storyboard Sound Samples

[TimingPoints]
1364,800,4,3,7,17,1,0
1364,-125,4,3,7,17,0,0
7364,800,4,3,17,27,1,0
7364,-125,4,3,17,27,0,0
10864,-125,4,3,17,7,0,0
10964,-125,4,3,17,27,0,0
11664,-125,4,3,17,7,0,0
11764,-125,4,3,17,27,0,0
23664,-125,4,3,17,7,0,0
23764,-125,4,3,17,27,0,0
24464,-125,4,3,17,7,0,0
24564,-125,4,3,17,27,0,0
32164,-125,4,2,27,37,0,0
32964,-111.111111111111,4,2,27,57,0,0
42963,-111.111111111111,4,3,7,57,0,0
44564,-111.111111111111,4,3,27,57,0,0
44764,-111.111111111111,4,3,7,57,0,0
44964,-111.111111111111,4,2,27,57,0,0
45364,-111.111111111111,4,3,7,57,0,0
45764,-111.111111111111,4,2,27,57,0,0
57764,-111.111111111111,4,2,47,57,0,0
58164,-111.111111111111,4,2,27,57,0,0
60164,-111.111111111111,4,2,47,57,0,0
61764,-90.9090909090908,4,2,47,77,0,0
67664,-90.9090909090908,4,2,47,7,0,0
67764,-90.9090909090908,4,3,7,47,0,0
67964,-90.9090909090908,4,2,47,77,0,0
68464,-90.9090909090908,4,2,47,7,0,0
68564,-90.9090909090908,4,2,47,77,0,0
71664,-90.9090909090908,4,2,47,7,0,0
71764,-90.9090909090908,4,2,47,77,0,0
76464,-90.9090909090908,4,2,47,7,0,0
76564,-90.9090909090908,4,2,47,77,0,0
83664,-90.9090909090908,4,2,47,7,0,0
83764,-90.9090909090908,4,2,47,77,0,0
84164,-100,4,2,47,77,0,0
85764,-200,4,2,47,77,0,0
87364,-142.857142857143,4,2,7,47,0,0
94864,-142.857142857143,4,2,7,7,0,0
94964,-142.857142857143,4,2,7,47,0,0
99664,-142.857142857143,4,2,7,7,0,0
99764,-142.857142857143,4,2,7,47,0,0
103664,-142.857142857143,4,2,7,7,0,0
103764,-142.857142857143,4,2,7,47,0,0
112564,-142.857142857143,4,2,47,47,0,0
112964,-125,4,2,27,57,0,0
116464,-125,4,2,27,7,0,0
116564,-125,4,2,27,57,0,0
117264,-125,4,2,27,7,0,0
117364,-125,4,2,27,57,0,0
125364,-125,4,3,7,57,0,0
125764,-125,4,2,27,57,0,0
129264,-125,4,2,27,7,0,0
129364,-125,4,2,27,57,0,0
130064,-125,4,2,27,7,0,0
130164,-125,4,2,27,57,0,0
138564,-111.111111111111,4,2,47,77,0,0
150964,-111.111111111111,4,3,7,47,0,0
151364,-111.111111111111,4,2,47,77,0,0
159664,-111.111111111111,4,2,47,7,0,0
159764,-111.111111111111,4,2,47,77,0,0
164164,-200,4,2,47,77,0,0
165764,-142.857142857143,4,2,47,77,0,0
167364,-90.909090909091,4,2,47,77,0,0
167664,-90.909090909091,4,2,47,7,0,0
167764,-90.909090909091,4,2,47,77,0,0
169764,-90.909090909091,4,2,47,77,0,0
173364,-90.909090909091,4,3,7,47,0,0
173564,-90.909090909091,4,2,47,77,0,0
181264,-90.909090909091,4,2,47,7,0,0
181364,-90.909090909091,4,2,47,77,0,0
184464,-90.909090909091,4,2,47,7,0,0
184564,-90.909090909091,4,2,47,77,0,0
188464,-90.909090909091,4,2,47,7,0,0
188564,-90.909090909091,4,2,47,77,0,0
189764,-100,4,2,47,77,0,0
192964,-200,4,2,47,47,0,0
193364,-200,4,2,47,7,0,0
196164,-200,4,2,47,17,0,0
215364,-200,4,2,47,27,0,0
216964,-142.857142857143,4,2,47,27,0,0
218364,-142.857142857143,4,2,47,47,0,0
221764,-142.857142857143,4,2,47,57,0,0
223364,800,4,2,47,77,1,0
223364,-90.9090909090909,4,2,47,77,0,0
229364,-90.9090909090909,4,3,7,47,0,0
229764,-90.9090909090909,4,2,47,77,0,0
230064,-90.9090909090909,4,2,47,7,0,0
230164,-90.9090909090909,4,2,47,77,0,0
244464,-90.9090909090909,4,2,47,7,0,0
244564,-90.9090909090909,4,2,47,77,0,0
245764,-90.9090909090909,4,2,47,57,0,0
248964,-200,4,2,47,47,0,0
249364,-200,4,2,47,7,0,0
251364,821.917808219178,4,2,47,17,1,0
251774,833.333333333333,4,2,47,17,1,0
252190,845.070422535211,4,2,47,17,1,0
252190,-166.666666666667,4,2,47,17,0,0
260640,857.142857142857,4,2,47,17,1,0
260640,-200,4,2,47,17,0,0
261497,-250,4,2,47,17,0,0
262425,800,4,2,47,17,1,0
263525,810.810810810811,4,2,47,17,1,0
264335,821.917808219178,4,2,47,17,1,0
264745,845.070422535211,4,2,47,17,1,0
265167,1000,4,2,47,17,1,0
265667,967.741935483871,4,2,47,17,1,0
266150,1111.11111111111,4,2,47,17,1,0
266844,1153.84615384615,4,2,47,17,1,0

[Colours]
Combo1 : 248,250,175
Combo2 : 255,213,170
Combo3 : 252,173,173
Combo4 : 236,182,243

[HitObjects]
0,0,1364,5,0,1:0:0:0:
9,6,1764,2,0,L|16:43,1,34,4|4,0:0|0:0,0:0:0:0:
69,77,2164,1,4,0:0:0:0:
15,128,2364,1,0,1:0:0:0:
6,131,2964,2,0,L|-1:199,1,68,0|0,1:0|1:0,0:0:0:0:
44,270,3564,1,8,0:0:0:0:
35,275,4564,6,0,L|44:351,1,68,0|4,1:0|0:0,0:0:0:0:
94,377,5164,2,0,L|127:372,2,34,4|4|4,0:0|0:0|0:0,0:0:0:0:
98,364,6164,2,0,L|104:321,1,34,4|0,0:0|1:0,0:0:0:0:
168,277,6564,1,0,1:0:0:0:
180,272,6964,1,8,0:0:0:0:
190,268,7364,6,0,L|121:259,1,68,2|0,2:0|1:0,0:0:0:0:
105,205,8164,1,4,3:0:0:0:
134,149,8364,1,4,0:0:0:0:
95,101,8564,2,0,L|55:112,1,34,6|0,0:0|1:0,0:0:0:0:
131,49,8964,2,0,L|201:59,1,68,2|0,0:0|1:0,0:0:0:0:
241,111,9764,1,0,1:0:0:0:
285,60,9964,2,0,L|279:17,2,34,8|2|0,0:0|0:0|0:0,0:0:0:0:
322,112,10564,6,0,L|372:105,1,51,2|0,0:0|0:0,0:0:0:0:
382,103,10964,2,0,L|346:96,1,34,0|0,1:0|0:0,0:0:0:0:
308,178,11364,2,0,L|358:171,1,51,6|0,0:0|0:0,0:0:0:0:
357,179,11764,2,0,L|319:192,1,34,4|0,0:0|0:0,0:0:0:0:
241,111,12164,2,0,L|233:224,1,102,2|0,0:0|1:0,0:0:0:0:
285,275,12964,2,0,L|292:354,1,68,2|10,1:0|0:0,0:0:0:0:
236,373,13764,5,2,0:0:0:0:
204,328,13964,1,0,0:0:0:0:
153,306,14164,1,0,1:0:0:0:
99,314,14564,1,6,0:0:0:0:
51,340,14964,1,4,0:0:0:0:
20,384,15364,2,0,L|30:281,1,102,2|0,0:0|0:0,0:0:0:0:
94,243,16164,1,2,0:0:0:0:
14,216,16364,2,0,L|6:141,1,68,8|0,0:0|0:0,0:0:0:0:
59,96,16964,6,0,L|141:105,1,68,2|0,0:0|1:0,0:0:0:0:
175,139,17764,1,0,0:0:0:0:
214,94,18164,1,4,0:0:0:0:
273,188,18364,1,0,1:0:0:0:
325,157,18564,1,0,0:0:0:0:
273,188,18964,1,0,0:0:0:0:
371,297,19164,1,0,1:0:0:0:
310,285,19364,1,0,1:0:0:0:
280,381,19764,1,8,0:0:0:0:
376,366,20164,6,0,L|385:298,1,68,2|0,0:0|1:0,0:0:0:0:
445,262,20964,2,0,L|493:255,2,34,4|4|6,0:0|0:0|0:0,0:0:0:0:
365,212,21564,1,0,1:0:0:0:
424,175,21764,2,0,L|436:99,1,68,2|0,0:0|1:0,0:0:0:0:
492,43,22564,1,0,1:0:0:0:
433,11,22764,2,0,L|387:20,2,34,8|2|0,0:0|0:0|0:0,0:0:0:0:
384,74,23364,6,0,L|333:65,1,51,2|0,0:0|0:0,0:0:0:0:
324,59,23764,2,0,L|319:19,1,34,0|0,1:0|0:0,0:0:0:0:
228,12,24164,2,0,L|177:20,1,51,2|0,0:0|0:0,0:0:0:0:
168,27,24564,2,0,L|163:67,1,34,4|4,0:0|0:0,0:0:0:0:
86,108,24964,2,0,L|75:6,1,102,2|0,0:0|1:0,0:0:0:0:
22,62,25764,1,10,0:0:0:0:
152,120,26164,1,2,0:0:0:0:
26,169,26564,6,0,L|100:179,1,68,2|0,0:0|1:0,0:0:0:0:
123,269,27364,2,0,L|55:278,1,68,2|0,0:0|0:0,0:0:0:0:
99,360,28164,2,0,L|206:368,1,102,2|0,0:0|0:0,0:0:0:0:
259,384,28964,1,2,1:0:0:0:
222,302,29164,2,0,L|231:229,1,68,8|0,0:0|0:0,0:0:0:0:
277,174,29764,6,0,L|266:102,2,68,2|0|4,1:0|1:0|0:0,0:0:0:0:
287,230,30964,1,0,0:0:0:0:
371,271,31164,1,0,1:0:0:0:
365,331,31364,1,0,0:0:0:0:
379,264,31764,1,0,0:0:0:0:
433,237,31964,1,0,1:0:0:0:
277,234,32164,5,8,3:0:0:0:
382,176,32364,5,8,3:0:0:0:
485,118,32564,5,8,3:0:0:0:
495,113,32964,6,0,L|411:103,1,76.4999976654053,6|0,1:0|0:0,0:0:0:0:
342,23,33764,2,0,L|346:67,1,38.2499988327027
266,115,34164,1,2,1:0:0:0:
266,115,34364,1,0,0:0:0:0:
237,47,34564,2,0,L|157:35,1,76.4999976654053,2|4,0:0|3:0,0:0:0:0:
48,31,35364,2,0,L|59:77,1,38.2499988327027,8|0,0:0|0:0,0:0:0:0:
118,107,35764,1,6,3:0:0:0:
6,206,35964,1,2,1:0:0:0:
65,237,36164,6,0,L|70:152,1,76.4999976654053,6|0,1:0|0:0,0:0:0:0:
167,333,36964,2,0,L|123:343,1,38.2499988327027,2|0,0:0|0:0,0:0:0:0:
74,302,37364,1,2,1:0:0:0:
74,302,37564,1,0,0:0:0:0:
170,240,37764,2,0,L|257:255,2,76.4999976654053,0|6|10,0:0|3:0|0:0,0:0:0:0:
148,183,38964,1,6,3:0:0:0:
223,112,39164,1,4,3:0:0:0:
169,61,39364,6,0,L|249:42,1,76.4999976654053,2|0,1:0|0:0,0:0:0:0:
354,150,40164,2,0,L|274:131,1,76.4999976654053,6|0,3:0|1:0,0:0:0:0:
423,60,40964,2,0,L|433:174,1,114.749996498108,2|0,0:0|0:0,0:0:0:0:
387,240,41764,2,0,L|433:250,2,38.2499988327027,10|0|2,0:0|0:0|3:2,0:0:0:0:
247,216,42364,1,0,1:0:0:0:
294,275,42564,6,0,L|302:357,1,76.4999976654053,2|4,1:0|3:0,0:0:0:0:
173,244,43364,2,0,L|180:167,1,76.4999976654053,6|6,3:0|1:3,0:0:0:0:
236,141,43964,1,6,3:0:0:0:
141,97,44164,5,6,0:0:0:0:
78,117,44364,1,6,0:0:0:0:
30,184,44564,1,6,3:0:0:0:
38,282,44764,1,6,0:0:0:0:
130,345,44964,1,10,0:0:0:0:
252,289,45364,1,8,3:0:0:0:
246,149,45764,6,0,L|254:73,1,76.4999976654053,6|0,1:0|0:0,0:0:0:0:
401,37,46564,2,0,L|349:48,1,38.2499988327027
301,33,46964,1,2,1:0:0:0:
301,33,47164,1,0,0:0:0:0:
345,102,47364,2,0,L|357:193,1,76.4999976654053,2|4,0:0|3:0,0:0:0:0:
403,316,48164,2,0,L|444:325,2,38.2499988327027,8|0|2,0:0|0:0|0:0,0:0:0:0:
254,292,48764,1,0,1:0:0:0:
321,343,48964,6,0,L|305:219,1,114.749996498108,2|0,1:0|0:0,0:0:0:0:
376,195,49764,2,0,L|368:248,1,38.2499988327027,10|0,0:0|0:0,0:0:0:0:
249,209,50164,2,0,L|269:81,1,114.749996498108,2|0,1:0|0:0,0:0:0:0:
332,81,50964,2,0,L|342:126,1,38.2499988327027,2|0,1:0|0:0,0:0:0:0:
250,38,51364,2,0,L|163:55,1,76.4999976654053,10|2,0:0|0:0,0:0:0:0:
33,81,51964,1,0,0:0:0:0:
96,44,52164,6,0,L|88:131,1,76.4999976654053,2|0,1:0|0:0,0:0:0:0:
97,133,52764,1,0,0:0:0:0:
23,197,52964,2,0,L|16:151,1,38.2499988327027
118,217,53364,1,2,1:0:0:0:
47,282,53564,1,0,0:0:0:0:
95,380,53764,6,0,L|106:304,1,76.4999976654053,2|2,0:0|0:0,0:0:0:0:
161,281,54564,5,2,0:0:0:0:
263,331,54764,1,0,0:0:0:0:
209,356,54964,1,2,0:0:0:0:
153,275,55164,1,2,1:0:0:0:
238,235,55364,6,0,L|323:250,1,76.4999976654053,2|2,1:0|0:0,0:0:0:0:
506,288,56164,2,0,L|430:274,1,76.4999976654053,0|0,0:0|1:0,0:0:0:0:
330,185,56764,1,0,0:0:0:0:
428,139,56964,2,0,L|426:218,1,76.4999976654053,0|0,0:0|1:0,0:0:0:0:
412,222,57564,1,0,0:0:0:0:
317,181,57764,5,8,0:0:0:0:
188,236,57964,5,8,0:0:0:0:
58,290,58164,5,4,3:0:0:0:
256,384,58464,5,2,0:0:0:0:
256,384,58564,1,2,0:0:0:0:
512,384,60164,5,0,1:0:0:0:
504,378,60564,5,8,3:0:0:0:
512,268,60764,1,8,0:0:0:0:
440,185,60964,1,10,0:0:0:0:
350,177,61164,1,8,3:0:0:0:
288,232,61364,1,10,3:0:0:0:
269,289,61564,1,2,0:0:0:0:
273,311,61764,6,0,L|168:298,1,93.5000028533936,6|0,1:0|0:0,0:0:0:0:
142,248,62364,1,0,0:0:0:0:
0,384,62564,2,0,L|12:291,1,93.5000028533936,10|4,0:0|3:0,0:0:0:0:
30,144,63164,1,0,1:0:0:0:
86,188,63364,2,0,L|79:244,1,46.7500014266968,4|0,3:0|0:0,0:0:0:0:
16,209,63764,1,4,3:0:0:0:
166,127,64164,2,0,L|227:137,1,46.7500014266968,10|0,0:0|0:0,0:0:0:0:
270,98,64564,1,6,3:0:0:0:
270,98,64764,1,2,0:0:0:0:
165,26,64964,6,0,L|64:48,1,93.5000028533936,0|6,1:0|3:0,0:0:0:0:
27,8,65564,1,2,0:0:0:0:
119,118,65764,2,0,L|211:133,1,93.5000028533936,8|6,0:0|3:0,0:0:0:0:
9,176,66364,1,2,1:0:0:0:
59,214,66564,2,0,L|107:201,2,46.7500014266968,4|0|4,3:0|0:0|3:0,0:0:0:0:
43,368,67364,2,0,L|49:298,1,70.1250021400452,10|0,0:0|0:0,0:0:0:0:
62,289,67764,2,0,L|110:303,1,46.7500014266968,10|0,3:0|0:0,0:0:0:0:
215,373,68164,6,0,L|206:293,1,70.1250021400452,2|0,1:0|0:0,0:0:0:0:
221,289,68564,2,0,L|269:260,1,46.7500014266968,6|0,3:0|0:0,0:0:0:0:
361,217,68964,2,0,L|352:326,1,93.5000028533936,8|2,0:0|0:0,0:0:0:0:
489,352,69564,1,0,1:0:0:0:
420,384,69764,2,0,L|429:285,1,93.5000028533936,6|4,3:0|3:0,0:0:0:0:
482,246,70364,1,2,0:0:0:0:
400,151,70564,2,0,L|301:166,1,93.5000028533936,8|6,0:0|3:0,0:0:0:0:
368,54,71364,6,0,L|446:64,1,70.1250021400452,6|0,1:0|0:0,0:0:0:0:
458,68,71764,2,0,L|451:12,1,46.7500014266968,4|0,3:0|0:0,0:0:0:0:
256,0,72164,2,0,L|243:92,1,93.5000028533936,8|4,0:0|3:0,0:0:0:0:
145,166,72764,1,0,1:0:0:0:
70,159,72964,1,4,3:0:0:0:
28,101,73164,1,4,3:0:0:0:
161,38,73364,1,4,3:0:0:0:
170,31,73764,5,10,0:0:0:0:
152,178,73964,5,8,3:0:0:0:
134,325,74164,5,10,3:0:0:0:
132,335,74564,6,0,L|30:355,1,93.5000028533936,6|4,1:0|3:0,0:0:0:0:
30,344,75164,1,0,0:0:0:0:
191,321,75364,2,0,L|251:336,2,46.7500014266968,8|0|4,0:0|0:0|3:0,0:0:0:0:
57,281,75964,1,0,1:0:0:0:
157,242,76164,6,0,L|165:167,1,70.1250021400452,4|0,3:0|0:0,0:0:0:0:
149,160,76564,2,0,L|92:172,1,46.7500014266968,6|0,3:0|0:0,0:0:0:0:
172,92,76964,2,0,L|113:93,1,46.7500014266968,10|0,0:0|0:0,0:0:0:0:
206,29,77364,2,0,L|148:20,1,46.7500014266968,6|0,3:0|0:0,0:0:0:0:
294,111,77764,6,0,L|283:203,1,93.5000028533936,6|0,1:0|0:0,0:0:0:0:
477,366,78564,2,0,L|466:273,1,93.5000028533936,6|0,1:0|1:0,0:0:0:0:
256,360,79364,2,0,L|116:342,1,140.25000428009,2|0,1:0|0:0,0:0:0:0:
64,261,80164,2,0,L|155:244,1,93.5000028533936,10|2,0:0|1:0,0:0:0:0:
253,224,80764,1,0,1:0:0:0:
192,145,80964,6,0,L|98:136,1,93.5000028533936,6|4,1:0|3:0,0:0:0:0:
96,124,81564,1,0,0:0:0:0:
193,53,81764,2,0,L|203:145,1,93.5000028533936,8|4,0:0|3:0,0:0:0:0:
349,197,82364,1,0,1:0:0:0:
267,231,82564,2,0,L|279:131,1,93.5000028533936,0|6,1:0|3:0,0:0:0:0:
348,56,83164,1,0,0:0:0:0:
454,133,83364,2,0,L|446:53,1,70.1250021400452,10|0,0:0|0:0,0:0:0:0:
451,53,83764,2,0,L|501:62,1,46.7500014266968,6|0,3:0|0:0,0:0:0:0:
436,195,84164,6,0,L|343:207,1,85,6|0,1:0|0:0,0:0:0:0:
186,230,84764,1,8,3:0:0:0:
186,230,84964,1,4,3:0:0:0:
262,324,85164,2,0,L|270:271,1,42.5,8|8,3:0|3:0,0:0:0:0:
281,215,85564,1,0,0:0:0:0:
174,102,85764,6,0,L|185:229,1,127.5,4|0,1:0|0:0,0:0:0:0:
512,193,87364,5,4,1:0:0:0:
452,164,87764,1,4,3:0:0:0:
396,203,88164,1,12,3:0:0:0:
333,177,88364,1,4,3:0:0:0:
276,211,88564,2,0,L|237:200,1,29.7499990921021,0|4,1:0|3:0,0:0:0:0:
124,174,88964,2,0,L|182:161,1,59.4999981842042,2|0,0:0|0:0,0:0:0:0:
0,235,89764,1,8,0:0:0:0:
36,186,89964,2,0,L|33:156,1,29.7499990921021,4|0,3:0|0:0,0:0:0:0:
130,234,90364,1,0,1:0:0:0:
61,346,90564,6,0,L|68:280,1,59.4999981842042,10|4,1:3|3:0,0:0:0:0:
29,126,91364,2,0,L|36:192,1,59.4999981842042,12|0,3:0|1:0,0:0:0:0:
89,219,91964,1,0,0:0:0:0:
168,162,92164,1,0,0:0:0:0:
243,313,92564,1,0,0:0:0:0:
187,265,92764,1,0,0:0:0:0:
274,224,92964,2,0,L|333:215,1,59.4999981842042,8|4,0:0|3:0,0:0:0:0:
399,205,93564,1,0,0:0:0:0:
299,122,93764,6,0,L|236:114,1,59.4999981842042,10|4,1:3|3:0,0:0:0:0:
177,103,94364,1,0,0:0:0:0:
252,38,94564,2,0,L|305:29,1,44.6249986381531,12|0,3:0|0:0,0:0:0:0:
317,31,94964,2,0,L|353:38,1,29.7499990921021,4|4,1:3|3:0,0:0:0:0:
428,123,95364,6,0,L|422:182,1,59.4999981842042,2|0,0:0|0:0,0:0:0:0:
408,384,96164,1,8,0:0:0:0:
466,350,96364,2,0,L|456:287,1,59.4999981842042,4|0,3:0|1:0,0:0:0:0:
365,266,96964,6,0,L|352:360,1,89.2499972763062,10|0,1:3|0:0,0:0:0:0:
273,374,97764,2,0,L|267:315,1,59.4999981842042,12|0,3:0|1:0,0:0:0:0:
305,204,98364,1,0,0:0:0:0:
246,251,98564,2,0,L|181:242,1,59.4999981842042,6|0,3:0|0:0,0:0:0:0:
113,230,99164,1,0,0:0:0:0:
55,358,99364,2,0,L|46:314,1,44.6249986381531,8|0,0:0|0:0,0:0:0:0:
53,306,99764,2,0,L|88:312,1,29.7499990921021,4|0,3:0|0:0,0:0:0:0:
117,220,100164,6,0,L|26:236,1,89.2499972763062,6|0,1:0|0:0,0:0:0:0:
10,135,100964,2,0,L|0:64,1,59.4999981842042,12|0,3:0|1:0,0:0:0:0:
66,103,101564,1,4,3:0:0:0:
133,33,101764,2,0,L|70:40,1,59.4999981842042,2|0,0:0|0:0,0:0:0:0:
20,9,102364,1,0,0:0:0:0:
125,142,102564,1,8,0:0:0:0:
173,87,102764,2,0,L|211:81,2,29.7499990921021,4|0|0,3:0|0:0|1:0,0:0:0:0:
10,135,103364,6,0,L|14:179,1,44.6249986381531,10|0,1:3|0:0,0:0:0:0:
29,190,103764,2,0,L|25:232,1,29.7499990921021,4|0,3:0|0:0,0:0:0:0:
122,284,104164,2,0,L|112:225,1,59.4999981842042,12|0,3:0|1:0,0:0:0:0:
58,273,104764,1,0,0:0:0:0:
96,349,104964,2,0,L|155:354,1,59.4999981842042,2|0,0:0|1:0,0:0:0:0:
206,384,105564,1,0,3:0:0:0:
279,306,105764,2,0,L|230:320,1,44.6249986381531,8|0,0:0|0:0,0:0:0:0:
219,311,106164,2,0,L|211:270,1,29.7499990921021
172,182,106564,6,0,L|267:194,1,89.2499972763062,10|0,1:3|0:0,0:0:0:0:
346,249,107364,2,0,L|333:190,1,59.4999981842042,12|4,3:0|1:3,0:0:0:0:
321,129,107964,1,4,3:0:0:0:
386,79,108164,2,0,L|417:86,2,29.7499990921021,2|0|0,0:0|0:0|0:0,0:0:0:0:
175,21,108964,1,8,0:0:0:0:
101,19,109164,2,0,L|110:52,1,29.7499990921021,4|0,3:0|0:0,0:0:0:0:
32,87,109564,1,0,1:0:0:0:
67,180,109764,6,0,L|155:151,1,89.2499972763062,10|0,1:3|0:0,0:0:0:0:
208,264,110564,2,0,L|138:251,1,59.4999981842042,12|0,3:0|1:0,0:0:0:0:
79,296,111164,1,0,0:0:0:0:
128,359,111364,2,0,L|161:354,2,29.7499990921021,6|0|0,3:0|0:0|1:0,0:0:0:0:
120,360,112164,5,8,0:0:0:0:
289,332,112364,5,8,0:0:0:0:
458,299,112564,5,4,3:0:0:0:
467,297,112964,6,0,L|478:216,1,68,6|0,1:0|0:0,0:0:0:0:
435,179,113764,1,0,0:0:0:0:
485,130,113964,1,0,0:0:0:0:
434,86,114164,2,0,L|393:96,1,34,2|0,1:0|0:0,0:0:0:0:
467,24,114564,6,0,L|393:14,1,68,2|4,0:0|3:0,0:0:0:0:
345,4,115164,1,0,0:0:0:0:
312,79,115364,1,8,0:0:0:0:
261,26,115564,1,0,0:0:0:0:
191,37,115764,1,6,3:0:0:0:
132,112,115964,1,0,1:0:0:0:
47,108,116164,6,0,L|41:57,1,51,2|0,1:0|0:0,0:0:0:0:
41,41,116564,2,0,L|81:47,1,34
196,95,116964,2,0,L|201:44,1,51,2|0,0:0|0:0,0:0:0:0:
202,28,117364,2,0,L|162:34,1,34,0|0,1:0|0:0,0:0:0:0:
123,101,117764,2,0,L|115:168,1,68,2|4,0:0|3:0,0:0:0:0:
102,233,118364,1,0,0:0:0:0:
15,277,118564,2,0,L|7:209,1,68,10|6,0:0|3:0,0:0:0:0:
206,232,119364,5,2,1:0:0:0:
168,276,119564,1,0,0:0:0:0:
181,332,119764,1,0,0:0:0:0:
236,358,120164,1,2,0:0:0:0:
296,344,120564,2,0,L|302:308,1,34,0|0,1:0|0:0,0:0:0:0:
383,269,120964,2,0,L|373:339,1,68,2|4,0:0|3:0,0:0:0:0:
294,150,121764,2,0,L|299:217,1,68,10|4,0:0|3:0,0:0:0:0:
442,168,122364,1,0,1:0:0:0:
493,107,122564,6,0,L|425:95,1,68,2|0,1:0|0:0,0:0:0:0:
264,36,123364,1,0,0:0:0:0:
318,19,123564,1,0,0:0:0:0:
356,128,123764,1,0,1:0:0:0:
247,108,123964,1,0,0:0:0:0:
195,146,124164,2,0,L|187:220,1,68,0|4,0:0|3:0,0:0:0:0:
205,235,124764,1,0,0:0:0:0:
159,312,124964,2,0,L|91:317,1,68,8|8,0:0|3:0,0:0:0:0:
263,271,125764,6,0,L|337:283,1,68,6|0,1:0|0:0,0:0:0:0:
169,311,126564,2,0,L|165:344,2,34,0|0|2,0:0|0:0|1:0,0:0:0:0:
102,247,127164,1,0,0:0:0:0:
102,247,127364,2,0,L|98:213,1,34,2|0,0:0|0:0,0:0:0:0:
61,165,127764,1,4,3:0:0:0:
99,116,128164,1,8,0:0:0:0:
48,66,128364,2,0,L|10:77,1,34,0|6,0:0|3:0,0:0:0:0:
89,15,128764,1,0,1:0:0:0:
179,33,128964,6,0,L|243:41,1,51,2|0,1:0|0:0,0:0:0:0:
235,48,129364,2,0,L|193:55,1,34
109,110,129764,2,0,L|173:118,1,51,2|0,0:0|0:0,0:0:0:0:
165,125,130164,2,0,L|123:132,1,34,0|0,1:0|0:0,0:0:0:0:
228,208,130564,2,0,L|241:142,1,68,2|4,0:0|3:0,0:0:0:0:
296,122,131164,1,0,0:0:0:0:
395,221,131364,2,0,L|383:154,1,68,10|6,0:0|3:0,0:0:0:0:
306,286,132164,6,0,L|238:276,1,68,2|0,0:0|0:0,0:0:0:0:
192,315,132964,1,2,0:0:0:0:
142,277,133164,1,0,0:0:0:0:
98,357,133364,1,0,1:0:0:0:
98,357,133564,1,0,0:0:0:0:
36,314,133764,2,0,L|45:247,1,68,2|4,0:0|3:0,0:0:0:0:
105,28,134564,1,10,0:0:0:0:
31,96,134764,2,0,L|23:28,1,68,8|0,0:0|1:0,0:0:0:0:
159,93,135364,6,0,L|151:169,2,68,2|0|0,1:0|0:0|0:0,0:0:0:0:
199,51,136364,1,0,0:0:0:0:
256,32,136564,1,2,1:0:0:0:
317,49,136764,1,0,0:0:0:0:
357,97,136964,1,2,0:0:0:0:
369,155,137364,1,0,1:0:0:0:
359,214,137564,1,0,0:0:0:0:
318,259,137764,5,8,3:0:0:0:
185,232,137964,5,8,3:0:0:0:
51,208,138164,5,4,3:0:0:0:
38,204,138564,6,0,L|47:294,1,76.4999976654053,6|0,1:0|0:0,0:0:0:0:
33,340,139164,1,0,1:0:0:0:
142,368,139364,2,0,L|148:321,1,38.2499988327027,8|0,0:0|1:0,0:0:0:0:
184,268,139764,2,0,L|175:220,2,38.2499988327027,2|0|2,0:0|0:0|0:0,0:0:0:0:
126,181,140364,1,8,0:0:0:0:
203,164,140564,1,0,1:0:0:0:
276,148,140964,2,0,L|282:105,1,38.2499988327027,8|0,0:0|0:0,0:0:0:0:
338,72,141364,1,2,0:0:0:0:
338,72,141564,1,0,0:0:0:0:
216,18,141764,6,0,L|227:102,1,76.4999976654053,2|0,1:0|0:0,0:0:0:0:
203,164,142364,1,0,1:0:0:0:
130,99,142564,2,0,L|92:91,1,38.2499988327027,10|0,0:0|1:0,0:0:0:0:
92,168,142964,2,0,L|54:175,2,38.2499988327027,2|0|0,0:0|0:0|0:0,0:0:0:0:
214,167,143564,1,8,0:0:0:0:
164,224,143764,1,2,1:0:0:0:
232,314,144164,2,0,L|238:222,1,76.4999976654053,10|2,0:0|0:0,0:0:0:0:
158,297,144764,1,0,0:0:0:0:
90,342,144964,6,0,L|14:328,1,76.4999976654053,6|0,1:0|0:0,0:0:0:0:
68,275,145564,1,0,1:0:0:0:
157,377,145764,2,0,L|203:368,2,38.2499988327027,10|0|0,0:0|1:0|0:0,0:0:0:0:
149,381,146564,1,2,0:0:0:0:
227,290,146764,1,8,0:0:0:0:
164,224,146964,1,0,1:0:0:0:
227,152,147364,1,10,0:0:0:0:
174,76,147564,1,0,0:0:0:0:
204,8,147764,1,2,0:0:0:0:
31,181,148164,6,0,L|119:170,1,76.4999976654053,10|0,0:0|1:0,0:0:0:0:
291,225,148964,2,0,L|215:215,1,76.4999976654053,12|10,0:0|0:0,0:0:0:0:
158,140,149564,1,10,0:0:0:0:
269,65,149764,1,10,0:0:0:0:
283,141,149964,1,10,3:0:0:0:
406,100,150164,1,10,3:0:0:0:
364,169,150364,1,10,3:0:0:0:
489,212,150564,1,10,3:0:0:0:
419,231,150764,1,10,3:0:0:0:
489,212,150964,1,8,3:0:0:0:
426,368,151364,6,0,L|336:355,1,76.4999976654053,6|0,1:0|0:0,0:0:0:0:
290,346,151964,1,0,1:0:0:0:
202,381,152164,2,0,L|195:334,1,38.2499988327027,8|0,0:0|1:0,0:0:0:0:
248,284,152564,2,0,L|253:246,2,38.2499988327027,2|0|2,0:0|0:0|0:0,0:0:0:0:
167,190,153164,1,8,0:0:0:0:
210,132,153364,1,0,1:0:0:0:
171,75,153764,2,0,L|175:22,2,38.2499988327027,8|0|2,0:0|0:0|0:0,0:0:0:0:
79,20,154364,1,4,3:0:0:0:
79,20,154464,1,4,3:0:0:0:
79,20,154564,6,0,L|86:106,1,76.4999976654053,2|0,1:0|0:0,0:0:0:0:
126,143,155164,1,0,1:0:0:0:
204,107,155364,2,0,L|289:122,1,76.4999976654053,10|2,0:0|0:0,0:0:0:0:
372,163,155964,1,0,0:0:0:0:
376,101,156164,1,0,0:0:0:0:
419,58,156364,1,8,0:0:0:0:
479,68,156564,1,2,1:0:0:0:
512,120,156964,1,10,0:0:0:0:
467,366,157364,1,2,0:0:0:0:
424,314,157564,1,0,0:0:0:0:
498,222,157764,6,0,L|487:297,1,76.4999976654053,6|0,1:0|0:0,0:0:0:0:
424,314,158364,1,0,0:0:0:0:
353,260,158564,2,0,L|315:268,1,38.2499988327027,8|0,0:0|0:0,0:0:0:0:
283,339,158964,2,0,L|245:330,1,38.2499988327027,2|0,1:0|0:0,0:0:0:0:
198,254,159364,2,0,L|203:182,1,57.374998249054,2|0,1:0|0:0,0:0:0:0:
192,190,159764,2,0,L|176:232,1,38.2499988327027,2|0,0:0|0:0,0:0:0:0:
86,340,160164,1,10,0:0:0:0:
155,313,160364,1,0,0:0:0:0:
44,284,160564,2,0,L|-5:300,1,38.2499988327027,14|0,0:0|0:0,0:0:0:0:
109,246,160964,5,6,1:0:0:0:
30,186,161164,1,8,0:0:0:0:
121,152,161364,1,10,0:0:0:0:
30,186,161564,1,0,1:0:0:0:
143,75,161764,1,12,0:0:0:0:
29,31,161964,1,0,0:0:0:0:
143,75,162164,1,0,1:0:0:0:
58,104,162364,2,0,L|19:107,2,38.2499988327027,8|0|8,0:0|0:0|0:0,0:0:0:0:
246,78,162964,1,12,3:0:0:0:
261,76,163364,5,12,3:0:0:0:
245,211,163564,5,8,3:0:0:0:
234,341,163764,5,8,3:0:0:0:
232,348,164164,6,0,L|322:338,1,85,4|0,1:0|0:0,0:0:0:0:
376,355,165364,1,0,0:0:0:0:
439,380,165764,2,0,L|453:320,1,59.4999981842042,12|8,0:0|3:0,0:0:0:0:
512,194,166564,1,10,0:0:0:0:
436,101,166764,1,8,0:0:0:0:
334,139,166964,1,10,0:0:0:0:
316,218,167164,1,8,0:0:0:0:
331,243,167364,6,0,L|340:327,1,70.1250021400452,6|0,1:0|0:0,0:0:0:0:
341,326,167764,2,0,L|290:316,1,46.7500014266968
136,376,168164,2,0,L|152:281,1,93.5000028533936,10|4,0:0|3:0,0:0:0:0:
215,240,168764,1,0,1:0:0:0:
99,204,168964,2,0,L|43:220,1,46.7500014266968,4|0,3:0|0:0,0:0:0:0:
71,125,169364,2,0,L|21:116,1,46.7500014266968,4|0,3:0|0:0,0:0:0:0:
140,66,169764,2,0,L|239:50,1,93.5000028533936,10|6,0:0|3:0,0:0:0:0:
297,37,170364,1,2,0:0:0:0:
440,132,170564,6,0,L|432:38,1,93.5000028533936,0|6,1:0|3:0,0:0:0:0:
500,83,171164,1,2,0:0:0:0:
338,172,171364,2,0,L|345:78,1,93.5000028533936,8|6,0:0|3:0,0:0:0:0:
278,123,171964,1,2,1:0:0:0:
328,238,172164,2,0,L|381:226,2,46.7500014266968,4|0|4,3:0|0:0|3:0,0:0:0:0:
185,366,172964,2,0,L|203:271,1,93.5000028533936,10|10,0:0|3:0,0:0:0:0:
151,215,173564,1,0,0:0:0:0:
93,266,173764,6,0,L|96:322,1,46.7500014266968,6|0,1:0|0:0,0:0:0:0:
6,244,174164,2,0,L|-1:347,1,93.5000028533936,6|8,3:0|0:0,0:0:0:0:
103,261,174964,1,2,0:0:0:0:
11,183,175164,1,0,1:0:0:0:
92,132,175364,2,0,L|200:153,1,93.5000028533936,6|4,3:0|3:0,0:0:0:0:
215,200,175964,1,2,0:0:0:0:
149,78,176164,1,8,0:0:0:0:
92,132,176364,1,0,0:0:0:0:
28,89,176564,1,6,3:0:0:0:
199,3,176964,6,0,L|302:16,1,93.5000028533936,2|4,1:0|3:0,0:0:0:0:
262,68,177564,1,0,0:0:0:0:
384,20,177764,2,0,L|398:83,2,46.7500014266968,8|0|4,0:0|0:0|3:0,0:0:0:0:
477,72,178364,1,0,1:0:0:0:
397,132,178564,2,0,L|339:123,1,46.7500014266968,4|4,3:0|3:0,0:0:0:0:
467,76,178964,1,4,3:0:0:0:
477,72,179364,5,10,0:0:0:0:
490,202,179564,5,8,3:0:0:0:
503,332,179764,5,10,3:0:0:0:
505,343,180164,6,0,L|403:320,1,93.5000028533936,6|4,1:0|3:0,0:0:0:0:
317,373,180964,2,0,L|299:286,1,70.1250021400452,8|0,0:0|0:0,0:0:0:0:
306,296,181364,2,0,L|365:286,1,46.7500014266968,4|0,3:0|1:0,0:0:0:0:
397,226,181764,1,4,3:0:0:0:
340,182,182164,1,6,3:0:0:0:
368,118,182564,1,10,0:0:0:0:
281,56,182764,2,0,L|327:64,1,46.7500014266968,0|6,0:0|3:0,0:0:0:0:
353,10,183164,1,0,0:0:0:0:
292,122,183364,6,0,L|191:136,1,93.5000028533936,6|0,1:0|0:0,0:0:0:0:
170,78,183964,1,0,0:0:0:0:
69,198,184164,2,0,L|141:209,1,70.1250021400452,6|0,1:0|0:0,0:0:0:0:
143,221,184564,2,0,L|86:231,1,46.7500014266968,0|0,1:0|0:0,0:0:0:0:
3,301,184964,2,0,L|104:319,1,93.5000028533936,2|0,1:0|0:0,0:0:0:0:
255,384,185764,2,0,L|244:291,1,93.5000028533936,10|2,0:0|1:0,0:0:0:0:
236,228,186364,1,0,1:0:0:0:
319,306,186564,6,0,L|379:314,1,46.7500014266968,6|0,1:0|0:0,0:0:0:0:
430,352,186964,1,4,3:0:0:0:
478,290,187364,1,8,0:0:0:0:
425,224,187764,1,4,3:0:0:0:
467,161,187964,1,0,1:0:0:0:
414,110,188164,2,0,L|337:126,1,70.1250021400452,0|0,1:0|0:0,0:0:0:0:
343,113,188564,2,0,L|363:66,1,46.7500014266968,6|0,3:0|0:0,0:0:0:0:
299,24,188964,1,10,0:0:0:0:
220,86,189164,2,0,L|233:196,1,93.5000028533936,0|2,0:0|0:0,0:0:0:0:
166,224,189764,6,0,L|112:215,1,42.5,6|2,1:0|0:0,0:0:0:0:
89,299,190164,2,0,L|143:290,1,42.5,2|2,0:0|0:0,0:0:0:0:
187,336,190564,1,10,0:0:0:0:
253,348,190764,1,2,0:0:0:0:
319,333,190964,1,2,0:0:0:0:
362,280,191164,1,2,0:0:0:0:
365,212,191564,1,2,0:0:0:0:
230,178,191764,1,2,1:0:0:0:
221,115,192164,1,10,0:0:0:0:
356,81,192364,1,2,1:0:0:0:
362,22,192964,6,0,L|324:359,1,340,6|2,1:0|0:0,0:0:0:0:
323,372,197764,1,2,0:0:0:0:
305,310,199364,1,2,0:0:0:0:
245,274,200964,1,2,0:0:0:0:
180,301,201764,1,2,0:0:0:0:
143,359,202564,5,2,0:0:0:0:
74,379,204164,1,2,0:0:0:0:
7,342,205764,1,2,0:0:0:0:
9,272,207364,1,2,0:0:0:0:
70,216,208164,5,2,0:0:0:0:
41,120,208564,5,2,0:0:0:0:
68,25,208964,5,2,0:0:0:0:
134,2,210564,1,2,0:0:0:0:
207,12,212164,1,2,0:0:0:0:
259,65,212964,1,2,0:0:0:0:
278,131,213764,1,2,0:0:0:0:
278,131,213864,1,2,0:0:0:0:
256,192,215364,6,0,L|256:199,2,7.08333333333333,2|2|2,0:0|0:0|0:0,0:0:0:0:
256,192,216964,6,0,L|314:182,1,59.4999981842042,2|2,0:0|0:0,0:0:0:0:
369,210,217764,1,2,0:0:0:0:
407,147,217964,1,2,0:0:0:0:
366,46,218164,1,2,0:0:0:0:
258,37,218364,1,8,3:0:0:0:
258,37,218464,1,8,3:0:0:0:
258,37,218564,2,0,L|229:43,1,29.7499990921021,12|0,0:0|0:0,0:0:0:0:
168,11,218964,1,10,3:0:0:0:
108,54,219164,1,8,3:0:0:0:
46,22,219764,1,10,3:0:0:0:
76,163,220064,1,2,0:0:0:0:
76,163,220164,6,0,L|65:100,1,59.4999981842042,14|0,0:0|0:0,0:0:0:0:
154,142,220764,1,0,0:0:0:0:
78,252,220964,2,0,L|142:237,1,59.4999981842042,12|0,0:0|1:0,0:0:0:0:
122,335,221564,1,0,1:0:0:0:
1,271,221764,1,4,1:0:0:0:
300,199,222164,1,8,0:0:0:0:
47,51,222564,5,10,3:0:0:0:
187,38,222764,5,8,3:0:0:0:
331,23,222964,5,2,1:0:0:0:
340,22,223364,6,0,L|441:39,1,93.5000028533936,6|0,1:0|0:0,0:0:0:0:
482,0,223964,1,0,0:0:0:0:
447,151,224164,2,0,L|355:168,1,93.5000028533936,10|4,0:0|3:0,0:0:0:0:
345,101,224764,1,0,1:0:0:0:
212,164,224964,2,0,L|218:117,1,46.7500014266968,4|0,3:0|0:0,0:0:0:0:
303,200,225364,1,4,3:0:0:0:
233,232,225764,1,10,0:0:0:0:
369,277,225964,1,0,0:0:0:0:
262,314,226164,1,6,3:0:0:0:
330,348,226364,1,2,0:0:0:0:
280,384,226564,6,0,L|171:369,1,93.5000028533936,0|6,1:0|3:0,0:0:0:0:
164,313,227164,1,2,0:0:0:0:
4,296,227364,2,0,L|113:281,1,93.5000028533936,8|6,0:0|3:0,0:0:0:0:
120,225,227964,1,2,1:0:0:0:
2,180,228164,1,4,3:0:0:0:
61,125,228364,1,0,0:0:0:0:
13,53,228564,1,4,3:0:0:0:
92,6,228964,2,0,L|199:22,1,93.5000028533936,10|10,0:0|3:0,0:0:0:0:
235,183,229764,6,0,L|230:100,1,70.1250021400452,6|0,1:0|0:0,0:0:0:0:
231,101,230164,2,0,L|282:109,1,46.7500014266968,6|0,3:0|0:0,0:0:0:0:
354,153,230564,2,0,L|405:144,2,46.7500014266968,8|0|2,0:0|0:0|0:0,0:0:0:0:
227,186,231164,1,0,1:0:0:0:
285,257,231364,2,0,L|378:265,1,93.5000028533936,6|4,3:0|3:0,0:0:0:0:
420,221,231964,1,2,0:0:0:0:
467,344,232164,2,0,L|478:286,1,46.7500014266968,8|0,0:0|0:0,0:0:0:0:
370,277,232564,2,0,L|378:329,1,46.7500014266968,6|0,3:0|0:0,0:0:0:0:
268,376,232964,6,0,L|174:367,1,93.5000028533936,2|4,1:0|3:0,0:0:0:0:
28,317,233764,2,0,L|77:309,1,46.7500014266968,14|0,0:0|0:0,0:0:0:0:
199,285,234164,1,8,0:0:0:0:
64,228,234364,1,8,0:0:0:0:
212,165,234564,1,0,1:0:0:0:
220,102,234764,1,8,3:0:0:0:
108,136,234964,1,8,3:0:0:0:
99,80,235164,1,8,3:0:0:0:
228,40,235364,5,8,0:0:0:0:
212,165,235564,5,8,3:0:0:0:
199,285,235764,5,8,3:0:0:0:
196,296,236164,6,0,L|305:281,1,93.5000028533936,6|4,1:0|3:0,0:0:0:0:
459,384,236964,2,0,B|367:367,1,93.5000028533936,8|4,0:0|3:0,0:0:0:0:
272,351,237564,1,0,1:0:0:0:
349,301,237764,2,0,L|359:255,1,46.7500014266968,4|0,3:0|0:0,0:0:0:0:
378,194,238164,1,6,3:0:0:0:
453,150,238564,1,10,0:0:0:0:
390,100,238764,1,0,0:0:0:0:
426,40,238964,1,6,3:0:0:0:
235,4,239364,6,0,L|245:96,1,93.5000028533936,6|0,1:0|0:0,0:0:0:0:
42,173,240164,2,0,L|52:80,1,93.5000028533936,6|0,1:0|1:0,0:0:0:0:
243,0,240964,2,0,L|248:60,1,46.7500014266968,2|0,1:0|0:0,0:0:0:0:
284,109,241364,1,0,0:0:0:0:
212,155,241564,1,0,0:0:0:0:
309,208,241764,1,10,0:0:0:0:
224,261,242164,1,2,1:0:0:0:
296,300,242364,1,0,1:0:0:0:
250,356,242564,6,0,L|149:371,1,93.5000028533936,6|4,1:0|3:0,0:0:0:0:
116,323,243164,1,0,0:0:0:0:
19,371,243364,2,0,L|27:277,1,93.5000028533936,8|4,0:0|3:0,0:0:0:0:
121,164,243964,1,0,1:0:0:0:
26,131,244164,2,0,L|33:201,1,70.1250021400452,0|0,1:0|0:0,0:0:0:0:
35,213,244564,2,0,L|96:230,1,46.7500014266968,6|0,3:0|0:0,0:0:0:0:
172,291,244964,2,0,L|233:272,1,46.7500014266968,10|0,0:0|0:0,0:0:0:0:
272,212,245364,1,6,3:0:0:0:
350,286,245764,5,6,1:0:0:0:
413,232,246164,1,2,0:0:0:0:
475,266,246364,1,2,0:0:0:0:
396,174,246564,1,10,0:0:0:0:
396,174,246764,1,2,0:0:0:0:
479,124,246964,1,2,0:0:0:0:
418,64,247164,1,2,0:0:0:0:
460,15,247564,1,2,0:0:0:0:
479,124,247764,2,0,L|486:175,1,46.7500014266968,2|2,1:0|0:0,0:0:0:0:
350,92,248164,5,10,0:0:0:0:
230,152,248364,5,2,1:0:0:0:
66,67,248964,5,6,1:0:0:0:
66,67,249064,2,0,L|79:269,1,201.875,2|0,0:0|0:0,0:0:0:0:
71,332,251364,1,2,0:0:0:0:
106,378,251774,1,2,0:0:0:0:
164,362,252190,6,0,L|228:352,1,50.9999984436036,2|2,0:0|0:0,0:0:0:0:
281,361,253035,1,2,0:0:0:0:
335,326,253457,1,0,0:0:0:0:
335,326,253668,1,0,0:0:0:0:
335,326,253880,1,2,0:0:0:0:
334,257,254302,1,2,0:0:0:0:
282,214,254725,1,2,0:0:0:0:
219,201,255147,1,0,0:0:0:0:
219,201,255359,1,0,0:0:0:0:
219,201,255570,6,0,L|229:133,1,50.9999984436036,2|2,0:0|0:0,0:0:0:0:
290,105,256415,2,0,L|342:110,1,50.9999984436036,2|0,0:0|0:0,0:0:0:0:
384,24,257260,2,0,L|316:36,2,50.9999984436036,2|2|2,0:0|0:0|0:0,0:0:0:0:
486,16,258528,1,0,0:0:0:0:
486,16,258739,1,0,0:0:0:0:
486,16,258950,6,0,L|479:85,1,50.9999984436036,2|2,0:0|0:0,0:0:0:0:
429,123,259795,2,0,L|436:179,1,50.9999984436036,2|2,0:0|0:0,0:0:0:0:
490,243,260640,2,0,L|483:302,1,42.5,2|2,0:0|0:0,0:0:0:0:
441,338,261497,2,0,L|447:385,1,34,2|0,0:0|0:0,0:0:0:0:
386,307,262425,5,2,0:0:0:0:
364,301,262825,1,2,0:0:0:0:
341,302,263225,1,2,0:0:0:0:
326,310,263525,1,2,0:0:0:0:
310,321,263930,1,2,0:0:0:0:
290,333,264335,1,2,0:0:0:0:
272,340,264745,1,2,0:0:0:0:
254,340,265167,1,2,0:0:0:0:
243,337,265667,1,2,0:0:0:0:
234,332,266150,1,2,0:0:0:0:
225,326,266705,5,2,0:0:0:0:
223,321,266844,6,0,L|225:304,2,10.625,2|2|2,0:0|0:0|0:0,0:0:0:0:
