osu file format v14

[General]
AudioFilename: audio.mp3
AudioLeadIn: 0
PreviewTime: 2757
Countdown: 0
SampleSet: None
StackLeniency: 0.5
Mode: 0
LetterboxInBreaks: 0
WidescreenStoryboard: 1

[Editor]
Bookmarks: 39004,41778,52877,63975,75073,80622,106981,115304,126403,137501,179119,190218,206865,212414,234611,256461,259582
DistanceSpacing: 1
BeatDivisor: 4
GridSize: 4
TimelineZoom: 1.1

[Metadata]
Title:DOWN DOWN DOLL
TitleUnicode:DOWN DOWN DOLL
Artist:Akatsuki Records
ArtistUnicode:暁Records
Creator:Shanipika
Version:Shani's INSANE (Pre Lame Nerf)
Source:東方妖々夢 〜 Perfect Cherry Blossom.
Tags:東方Project Touhou ZUN ACTRock 原之様 Stack Silve ブクレシュティの人形師 人形裁判 ~ 人の形弄びし少女
BeatmapID:2002590
BeatmapSetID:956582

[Difficulty]
HPDrainRate:6
CircleSize:4
OverallDifficulty:8.7
ApproachRate:9
SliderMultiplier:1.45
SliderTickRate:1

[Events]
//Background and Video events
0,0,"Alice bg.jpg",0,0
//Break Periods
2,168738,175932
//Storyboard Layer 0 (Background)
//Storyboard Layer 1 (Fail)
//Storyboard Layer 2 (Pass)
//Storyboard Layer 3 (Foreground)
//Storyboard Sound Samples

[TimingPoints]
2931,346.820809248555,4,2,0,30,1,0
2931,-166.666666666667,4,2,0,30,0,0
4144,-100,4,2,0,30,0,0
4318,-166.666666666667,4,2,0,30,0,0
10300,-166.666666666667,4,2,0,30,0,0
10387,-166.666666666667,4,2,0,30,0,0
13335,-100,4,2,0,30,0,0
14029,-166.666666666667,4,2,0,30,0,0
15243,-100,4,2,0,30,0,0
15416,-166.666666666667,4,2,0,30,0,0
18537,-100,4,2,0,30,0,0
22873,-133.333333333333,4,2,0,30,0,0
23566,-285.714285714284,4,2,0,30,0,0
24260,-181.818181818181,4,2,0,30,0,0
26514,-181.818181818181,4,1,1,50,0,0
27381,-100,4,1,1,50,0,0
27902,-100,4,2,1,60,0,0
28422,-66.6666666666667,4,2,1,60,0,0
29289,-76.9230769230769,4,2,1,60,0,0
39000,-200,4,2,1,70,0,0
39520,-333.333333333333,4,2,1,70,0,0
39867,-200,4,2,1,70,0,0
40907,-333.333333333333,4,2,1,70,0,0
41774,-100,4,2,1,50,0,0
51485,-100,4,2,1,70,0,0
52873,-83.3333333333333,4,2,1,60,0,0
63971,-125,4,2,1,40,0,0
74722,-76.9230769230769,4,2,1,50,0,0
75069,-76.9230769230769,4,2,1,60,0,0
76283,-66.6666666666667,4,2,1,60,0,0
80618,-62.5,4,2,1,80,0,1
101428,-76.9230769230769,4,2,1,80,0,1
105069,-76.9230769230769,4,2,1,70,0,1
106110,-76.9230769230769,4,2,1,60,0,1
109751,-76.9230769230769,4,2,1,60,0,0
111139,-200,4,2,1,70,0,0
111659,-333.333333333333,4,2,1,70,0,0
112006,-200,4,2,1,70,0,0
113046,-333.333333333333,4,2,1,70,0,0
113393,-200,4,2,1,70,0,0
113913,-100,4,2,1,70,0,0
115300,-83.3333333333333,4,2,1,60,0,0
126399,-125,4,2,1,40,0,0
137150,-76.9230769230769,4,2,1,60,0,0
139404,-66.6666666666667,4,2,1,60,0,0
142352,-100,4,2,1,60,0,0
143046,-62.5,4,2,1,80,0,1
163855,-76.9230769230769,4,2,1,80,0,1
168017,-76.9230769230769,4,2,1,50,0,1
168537,-76.9230769230769,4,2,1,50,0,0
177728,-333.333333333333,4,2,1,50,0,0
178422,-333.333333333333,4,2,1,60,0,0
178769,-333.333333333333,4,2,1,80,0,0
179115,-100,4,2,1,60,0,0
186052,-83.3333333333333,4,2,1,60,0,0
190214,-166.666666666667,4,2,1,70,0,0
190561,-100,4,2,1,70,0,0
190907,-71.4285714285714,4,2,1,70,0,0
192988,-166.666666666667,4,2,1,70,0,0
193335,-100,4,2,1,70,0,0
193682,-71.4285714285714,4,2,1,70,0,0
195763,-125,4,2,1,70,0,0
196110,-83.3333333333333,4,2,1,70,0,0
196457,-62.5,4,2,1,70,0,0
198537,-166.666666666667,4,2,1,70,0,0
198884,-100,4,2,1,70,0,0
199231,-71.4285714285714,4,2,1,70,0,0
204087,-71.4285714285714,4,2,1,50,0,0
204954,-142.857142857143,4,2,1,50,0,0
206514,-142.857142857143,4,2,1,60,0,0
206861,-76.923076923077,4,2,1,70,0,0
211023,-100,4,2,1,70,0,0
212410,-62.5,4,2,1,85,0,1
233220,-76.9230769230769,4,2,1,85,0,0
234607,-125,4,2,1,85,0,1
234954,-62.5,4,2,1,85,0,1
255416,-76.9230769230769,4,2,1,85,0,1
259578,-76.9230769230769,4,2,1,70,0,1
265127,-76.9230769230769,4,2,1,70,0,0
267902,-76.9230769230769,4,2,1,70,0,1
277613,-76.9230769230769,4,2,1,70,0,0
279000,-76.9230769230769,4,2,1,70,0,1
281774,-76.9230769230769,4,2,1,70,0,0

[Colours]
Combo1 : 213,209,104
Combo2 : 255,0,0
Combo3 : 23,23,255
Combo4 : 128,128,255

[HitObjects]
139,49,2757,6,0,L|132:88,1,36.25,2|2,0:0|0:0,0:0:0:0:
80,98,2931,2,0,P|115:116|171:249,1,173.999994689942,6|0,0:0|0:0,0:0:0:0:
172,231,4144,6,0,L|192:179,1,36.25,0|0,0:0|0:0,0:0:0:0:
205,164,4318,2,0,P|246:137|349:205,1,173.999994689942,2|2,0:0|0:0,0:0:0:0:
465,41,5705,2,0,B|427:86|441:137|537:239|422:332|346:302,1,347.999989379883,2|0,0:0|0:0,0:0:0:0:
347,302,7786,5,2,0:0:0:0:
267,285,8133,1,0,0:0:0:0:
199,342,8480,2,0,P|133:358|36:303,1,173.999994689942,2|2,0:0|0:0,0:0:0:0:
42,311,9520,1,0,0:0:0:0:
133,342,9867,2,0,P|136:301|86:239,1,108.749996681213,2|0,0:0|0:0,0:0:0:0:
64,228,10387,1,2,0:0:0:0:
0,189,10907,6,0,P|49:197|77:213,1,65.2499980087281,0|0,0:0|0:0,0:0:0:0:
64,228,11254,2,0,L|81:126,1,86.9999973449708,2|0,0:0|0:0,0:0:0:0:
18,96,11774,2,0,L|-3:-3,1,86.9999973449708,2|0,0:0|0:0,0:0:0:0:
100,83,12295,1,2,0:0:0:0:
142,4,12641,1,2,0:0:0:0:
222,167,13335,6,0,P|260:163|292:139,1,72.5,2|0,0:0|0:0,0:0:0:0:
362,153,13595,2,0,P|386:123|391:83,1,72.5,0|0,0:0|0:0,0:0:0:0:
448,40,13855,2,0,P|446:21|434:3,1,36.25,0|0,0:0|0:0,0:0:0:0:
483,58,14029,2,0,B|492:104|434:138|434:195|497:228,1,173.999994689942,2|0,0:0|0:0,0:0:0:0:
479,216,15243,6,0,L|449:260,1,36.25,2|2,0:0|0:0,0:0:0:0:
441,273,15416,2,0,B|387:319|316:252|264:297,1,173.999994689942,2|2,0:0|0:0,0:0:0:0:
155,28,16803,2,0,B|193:73|179:124|83:226|198:319|274:289,1,347.999989379883,2|0,0:0|0:0,0:0:0:0:
253,193,18364,5,0,0:0:0:0:
137,251,18537,2,0,P|99:240|65:204,1,72.5,2|0,0:0|0:0,0:0:0:0:
27,200,18798,2,0,L|109:167,1,72.5,0|0,0:0|0:0,0:0:0:0:
119,132,19058,1,0,0:0:0:0:
21,112,19404,2,0,P|52:60|211:85,1,217.5,2|0,0:0|0:0,0:0:0:0:
252,12,20098,6,0,P|226:63|259:160,1,145,2|0,0:0|0:0,0:0:0:0:
257,280,20618,2,0,B|253:221|315:235|325:171,1,108.75,0|0,0:0|0:0,0:0:0:0:
330,154,20965,2,0,P|351:109|454:96,1,145,2|0,0:0|0:0,0:0:0:0:
354,0,21485,2,0,P|369:65|459:81,1,145,2|0,0:0|0:0,0:0:0:0:
481,140,22006,2,0,P|442:108|436:83,1,72.5,2|0,0:0|0:0,0:0:0:0:
475,23,22352,6,0,P|441:72|426:219,1,181.25,2|0,0:0|0:0,0:0:0:0:
431,214,22873,2,0,B|375:267|309:185|242:222,1,190.312507259846,2|0,0:0|0:0,0:0:0:0:
229,249,23566,2,0,P|262:237|318:247,1,88.8124972896577,0|0,0:0|0:0,0:0:0:0:
317,283,24260,2,0,B|259:244|208:308|128:277,1,179.437505475998,0|0,0:0|0:0,0:0:0:0:
109,264,25127,5,2,0:0:0:0:
55,174,25300,1,0,0:0:0:0:
86,79,25474,1,0,0:0:0:0:
19,10,25647,1,2,0:0:0:0:
19,10,25994,5,0,0:0:0:0:
177,66,26167,1,2,0:0:0:0:
177,66,26514,5,8,0:2:0:0:
246,26,26688,1,0,0:0:0:0:
324,41,26861,1,8,0:2:0:0:
382,95,27035,1,0,0:0:0:0:
401,172,27208,1,0,0:0:0:0:
351,234,27381,2,0,P|352:266|362:321,1,72.5,0|0,0:0|0:0,0:0:0:0:
456,382,27728,1,0,0:0:0:0:
272,279,27902,6,0,P|219:266|119:290,1,145,6|8,0:0|0:0,0:0:0:0:
71,80,28422,2,0,B|124:97|91:210|-25:265|44:343|101:373,1,326.25001244545,2|8,2:0|0:0,0:0:0:0:
139,291,29115,5,8,0:3:0:0:
139,291,29202,1,4,3:0:0:0:
139,291,29289,2,0,P|191:286|243:341,1,94.2499956855776,4|0,0:3|0:0,0:0:0:0:
281,384,29636,1,8,0:0:0:0:
356,323,29809,1,4,3:0:0:0:
356,323,29983,1,2,0:0:0:0:
425,384,30156,1,4,0:3:0:0:
497,306,30329,2,0,P|501:256|490:212,1,94.2499956855776,8|4,0:0|0:3,0:0:0:0:
362,154,30676,6,0,P|405:112|451:93,1,94.2499956855776,6|0,0:0|0:0,0:0:0:0:
256,45,31023,2,0,P|199:57|143:98,1,94.2499956855776,8|2,0:0|2:0,0:0:0:0:
136,243,31370,1,4,0:3:0:0:
182,314,31543,1,0,0:3:0:0:
145,162,31717,1,8,0:0:0:0:
86,103,31890,1,8,0:3:0:0:
0,100,32063,6,0,P|21:158|54:198,1,94.2499956855776,4|0,0:3|0:0,0:0:0:0:
8,270,32410,1,8,0:0:0:0:
90,325,32584,1,4,3:0:0:0:
90,325,32757,1,2,0:0:0:0:
182,314,32931,1,4,0:3:0:0:
267,374,33104,2,0,P|319:373|382:343,1,94.2499956855776,8|4,0:0|0:3,0:0:0:0:
409,199,33451,6,0,P|456:244|473:287,1,94.2499956855776,6|0,0:0|0:0,0:0:0:0:
495,105,33798,2,0,P|456:53|393:26,1,94.2499956855776,8|2,0:0|2:0,0:0:0:0:
308,105,34144,1,4,0:3:0:0:
227,129,34318,1,0,0:3:0:0:
78,63,34491,1,8,0:0:0:0:
164,75,34665,1,8,0:3:0:0:
164,75,34751,1,4,3:0:0:0:
164,75,34838,6,0,P|149:127|120:186,1,94.2499956855776,4|0,0:3|0:0,0:0:0:0:
75,255,35185,1,8,0:0:0:0:
9,330,35358,1,4,3:0:0:0:
9,330,35532,1,2,0:0:0:0:
96,381,35705,1,4,0:3:0:0:
167,301,35878,2,0,P|231:299|294:334,1,94.2499956855776,8|4,0:0|0:3,0:0:0:0:
357,370,36225,6,0,P|426:358|471:321,1,94.2499956855776,6|0,0:0|0:0,0:0:0:0:
256,219,36572,2,0,P|283:159|337:118,1,94.2499956855776,8|2,0:0|2:0,0:0:0:0:
451,100,36919,1,4,0:3:0:0:
490,33,37092,1,0,0:3:0:0:
389,165,37266,1,8,0:0:0:0:
399,242,37439,5,8,0:3:0:0:
399,242,37526,1,4,3:0:0:0:
399,242,37613,1,4,0:0:0:0:
302,139,37786,1,4,0:3:0:0:
255,284,37959,1,12,0:0:0:0:
295,162,38133,1,4,0:3:0:0:
211,145,38306,1,2,0:0:0:0:
160,76,38480,1,8,0:3:0:0:
95,18,38653,5,0,1:0:0:0:
79,55,38740,1,0,1:0:0:0:
59,95,38826,1,8,1:2:0:0:
40,134,38913,1,8,1:2:0:0:
20,170,39000,6,0,L|31:213,1,36.25,6|0,1:3|0:0,0:0:0:0:
211,145,39260,2,0,L|203:196,1,36.25,8|0,1:2|0:0,0:0:0:0:
35,215,39520,2,0,L|28:254,1,32.624999004364,14|0,1:2|0:0,0:0:0:0:
116,234,39867,6,0,L|126:263,1,18.125,2|0,1:0|0:0,0:0:0:0:
39,261,40040,2,0,L|37:286,1,18.125,2|0,1:0|0:0,0:0:0:0:
118,287,40214,2,0,L|126:318,1,18.125,2|0,1:0|0:0,0:0:0:0:
50,384,40387,6,0,L|61:341,1,36.25,14|0,1:3|0:0,0:0:0:0:
217,314,40647,1,0,1:0:0:0:
217,314,40734,2,0,L|223:281,1,18.125,0|0,0:0|0:0,0:0:0:0:
349,382,40907,2,0,L|342:343,1,32.624999004364,14|0,1:2|0:0,0:0:0:0:
472,353,41254,1,2,1:0:0:0:
477,327,41341,1,0,0:0:0:0:
451,293,41428,1,2,1:0:0:0:
442,270,41514,1,0,0:0:0:0:
465,241,41601,1,4,3:0:0:0:
470,215,41688,1,4,3:0:0:0:
442,180,41774,6,0,P|437:136|451:102,1,72.5,2|0,0:0|3:0,0:0:0:0:
374,77,42035,2,0,P|379:58|379:30,1,36.25,2|8,0:0|0:0,0:0:0:0:
303,168,42295,2,0,P|308:124|294:90,1,72.5,2|0,0:0|3:0,0:0:0:0:
239,42,42641,1,0,3:0:0:0:
175,173,42815,2,0,P|168:138|189:91,1,72.5,8|0,2:0|0:0,0:0:0:0:
65,34,43162,6,0,P|81:82|121:102,1,72.5,2|0,0:0|3:0,0:0:0:0:
68,171,43422,2,0,P|58:201|41:223,1,36.25,2|8,0:0|0:0,0:0:0:0:
155,318,43682,2,0,P|139:270|99:250,1,72.5,2|0,0:0|3:0,0:0:0:0:
37,282,44029,1,0,3:0:0:0:
128,239,44202,2,0,P|170:239|213:259,1,72.5,8|0,2:0|0:0,0:0:0:0:
294,368,44549,6,0,P|281:320|293:273,1,72.5,2|0,0:0|3:0,0:0:0:0:
271,217,44809,2,0,P|292:202|328:191,1,36.25,2|8,0:0|0:0,0:0:0:0:
370,105,45069,2,0,P|333:103|299:115,1,72.5,2|0,0:0|3:0,0:0:0:0:
236,69,45416,1,0,3:0:0:0:
303,22,45589,1,8,2:0:0:0:
383,26,45763,1,0,0:0:0:0:
173,21,45936,6,0,P|145:47|125:106,1,72.5,2|0,0:0|3:0,0:0:0:0:
73,161,46196,2,0,P|62:127|48:107,1,36.25,2|8,0:0|0:0,0:0:0:0:
32,242,46457,2,0,P|69:271|83:323,1,72.5,2|0,0:0|3:0,0:0:0:0:
293,321,46803,5,0,3:0:0:0:
158,292,46977,2,0,P|218:277|238:285,1,72.5,8|0,1:2|0:0,0:0:0:0:
371,351,47324,6,0,P|434:346|451:336,1,72.5,2|0,0:0|3:0,0:0:0:0:
438,235,47584,2,0,P|468:254|488:259,1,36.25,2|8,0:0|0:0,0:0:0:0:
491,145,47844,2,0,P|428:150|411:160,1,72.5,2|0,0:0|3:0,0:0:0:0:
350,195,48191,1,0,3:0:0:0:
214,134,48364,2,0,P|277:139|294:149,1,72.5,8|0,2:0|0:0,0:0:0:0:
309,6,48711,6,0,P|252:50|239:78,1,72.5,2|0,0:0|3:0,0:0:0:0:
214,134,48971,2,0,P|184:100|166:90,1,36.25,2|8,0:0|0:0,0:0:0:0:
89,22,49231,2,0,P|115:62|116:94,1,72.5,2|0,0:0|3:0,0:0:0:0:
92,159,49578,1,0,3:0:0:0:
127,237,49751,2,0,P|120:272|98:300,1,72.5,8|0,2:0|0:0,0:0:0:0:
218,219,50098,6,0,P|264:232|293:256,1,72.5,2|0,0:0|3:0,0:0:0:0:
366,370,50358,2,0,P|366:331|379:305,1,36.25,2|8,0:0|0:0,0:0:0:0:
422,176,50618,2,0,P|431:130|406:79,1,72.5,2|0,0:0|3:0,0:0:0:0:
388,19,50965,1,0,3:0:0:0:
345,129,51139,2,0,P|281:152|257:145,1,72.5,8|0,2:0|0:0,0:0:0:0:
177,46,51485,6,0,P|231:73|245:100,1,72.5,8|0,1:2|0:0,0:0:0:0:
111,85,51746,1,4,0:3:0:0:
195,185,51919,1,0,1:0:0:0:
195,185,52006,2,0,L|115:162,1,72.5,4|0,0:0|0:0,0:0:0:0:
32,165,52352,5,8,0:0:0:0:
39,200,52439,1,8,0:0:0:0:
63,227,52526,1,8,0:0:0:0:
95,243,52613,1,8,0:0:0:0:
124,262,52699,1,8,0:0:0:0:
136,296,52786,1,8,0:0:0:0:
131,339,52873,6,0,P|179:293|228:293,1,86.9999973449708,2|0,0:0|3:0,0:0:0:0:
299,308,53133,1,2,0:0:0:0:
328,331,53220,1,8,0:0:0:0:
428,203,53393,2,0,P|368:211|330:245,1,86.9999973449708,2|0,0:0|3:0,0:0:0:0:
253,167,53740,1,0,3:0:0:0:
411,287,53913,2,0,P|471:279|509:245,1,86.9999973449708,8|0,2:0|0:0,0:0:0:0:
409,34,54260,6,0,P|390:100|395:133,1,86.9999973449708,2|0,0:0|3:0,0:0:0:0:
328,165,54520,1,2,0:0:0:0:
313,126,54607,1,8,0:0:0:0:
268,13,54780,2,0,P|263:55|241:92,1,86.9999973449708,2|0,0:0|3:0,0:0:0:0:
167,146,55127,1,0,3:0:0:0:
21,56,55300,2,0,P|57:78|84:113,1,86.9999973449708,8|0,2:0|0:0,0:0:0:0:
59,280,55647,6,0,P|66:216|105:188,1,86.9999973449708,2|0,0:0|3:0,0:0:0:0:
155,225,55907,1,2,0:0:0:0:
169,187,55994,1,8,0:0:0:0:
213,319,56167,2,0,P|236:282|233:240,1,86.9999973449708,2|0,0:0|3:0,0:0:0:0:
169,187,56514,1,0,3:0:0:0:
318,224,56688,1,8,2:0:0:0:
451,154,56861,1,0,0:0:0:0:
441,348,57035,6,0,P|423:285|440:232,1,86.9999973449708,2|0,0:0|3:0,0:0:0:0:
375,169,57295,1,2,0:0:0:0:
375,169,57381,1,8,0:0:0:0:
453,10,57555,2,0,P|413:54|409:107,1,86.9999973449708,2|0,0:0|3:0,0:0:0:0:
451,154,57902,1,0,3:0:0:0:
244,111,58075,2,0,P|310:93|346:101,1,86.9999973449708,8|0,1:2|0:0,0:0:0:0:
202,373,58422,6,0,P|165:326|150:272,1,86.9999973449708,2|0,0:0|3:0,0:0:0:0:
148,197,58683,1,2,0:0:0:0:
160,159,58769,1,8,0:0:0:0:
64,64,58942,2,0,P|67:122|102:164,1,86.9999973449708,2|0,0:0|3:0,0:0:0:0:
55,233,59289,1,0,3:0:0:0:
231,200,59462,2,0,P|279:204|335:241,1,86.9999973449708,8|0,2:0|0:0,0:0:0:0:
487,376,59809,6,0,P|456:327|451:278,1,86.9999973449708,2|0,0:0|3:0,0:0:0:0:
393,242,60069,1,2,0:0:0:0:
381,271,60156,1,8,0:0:0:0:
326,371,60329,2,0,P|317:319|290:273,1,86.9999973449708,2|0,0:0|3:0,0:0:0:0:
231,221,60676,1,0,3:0:0:0:
139,371,60850,2,0,P|148:319|175:273,1,86.9999973449708,8|0,2:0|0:0,0:0:0:0:
286,140,61196,6,0,P|311:83|307:18,1,86.9999973449708,2|0,0:0|3:0,0:0:0:0:
206,7,61457,1,2,0:0:0:0:
219,42,61543,1,8,0:0:0:0:
147,139,61717,2,0,P|122:82|126:17,1,86.9999973449708,2|0,0:0|3:0,0:0:0:0:
28,12,62063,1,0,3:0:0:0:
55,160,62237,2,0,P|43:221|14:263,1,86.9999973449708,8|0,2:0|0:0,0:0:0:0:
82,378,62584,6,0,P|81:323|113:272,1,86.9999973449708,8|0,1:2|0:0,0:0:0:0:
143,224,62844,1,4,0:3:0:0:
143,224,62931,1,0,1:0:0:0:
211,277,63104,2,0,P|270:291|330:270,1,86.9999973449708,4|0,0:0|0:0,0:0:0:0:
374,249,63451,1,8,0:0:0:0:
363,374,63624,1,8,0:0:0:0:
304,211,63798,1,8,0:0:0:0:
308,172,63884,1,8,0:0:0:0:
321,137,63971,6,0,P|348:108|490:100,1,174,4|0,0:0|0:0,0:0:0:0:
474,92,64665,1,2,0:0:0:0:
403,48,65011,1,2,0:0:0:0:
313,30,65358,2,0,P|271:32|181:137,1,174,2|0,0:0|0:0,0:0:0:0:
169,206,66052,2,0,P|170:162|94:43,1,174,2|0,0:0|0:0,0:0:0:0:
35,20,66746,2,0,P|67:104|54:210,1,174,6|0,3:0|0:0,0:0:0:0:
54,269,67439,2,0,P|95:269|54:344,1,174,2|0,0:0|0:0,0:0:0:0:
159,220,68133,2,0,B|220:261|175:327|236:346|287:324,1,174,4|0,0:3|0:0,0:0:0:0:
336,265,68826,2,0,P|377:254|463:349,1,174,8|0,1:2|0:0,0:0:0:0:
463,335,69520,6,0,P|439:254|487:97,1,232,4|0,0:0|0:0,0:0:0:0:
474,114,70561,1,2,0:0:0:0:
415,61,70907,2,0,P|368:75|344:98,1,58,4|0,0:3|0:0,0:0:0:0:
301,23,71254,2,0,P|277:66|276:99,1,58,0|0,0:0|0:0,0:0:0:0:
188,51,71601,1,0,1:0:0:0:
199,133,71774,1,0,1:0:0:0:
260,191,71948,1,0,1:0:0:0:
304,273,72121,1,0,1:0:0:0:
288,297,72208,1,0,1:0:0:0:
264,320,72295,2,0,B|222:322|184:261|184:261|136:274|110:319|124:372,1,232,6|0,0:3|0:0,0:0:0:0:
121,358,73335,5,2,0:0:0:0:
86,279,73682,1,2,0:0:0:0:
124,184,74029,1,2,0:0:0:0:
103,65,74376,1,2,0:0:0:0:
3,188,74722,2,0,L|97:174,1,94.2499956855776,8|0,0:0|0:0,0:0:0:0:
217,33,75069,5,4,0:0:0:0:
300,79,75243,1,0,0:0:0:0:
332,172,75416,1,8,1:2:0:0:
308,268,75589,2,0,P|320:315|349:356,1,94.2499956855776,4|0,0:0|0:0,0:0:0:0:
490,357,75936,1,4,0:3:0:0:
504,318,76023,1,4,0:3:0:0:
505,277,76110,1,0,1:0:0:0:
447,176,76283,2,0,B|446:132|471:92|542:79|471:-12|405:47,1,217.500008296967,4|0,0:0|0:0,0:0:0:0:
342,109,76803,5,8,0:0:0:0:
171,70,76977,2,0,P|244:87|262:142,1,108.750004148483,2|4,0:0|0:3,0:0:0:0:
250,238,77324,1,4,0:3:0:0:
34,199,77497,1,8,0:0:0:0:
17,234,77584,1,8,0:0:0:0:
20,277,77670,2,0,P|51:328|209:327,1,217.500008296967,4|0,0:0|0:0,0:0:0:0:
228,318,78104,5,4,0:3:0:0:
266,315,78191,1,4,0:3:0:0:
302,324,78277,1,4,0:3:0:0:
330,348,78364,2,0,P|393:364|451:338,1,108.750004148483,0|0,1:0|0:0,0:0:0:0:
504,273,78711,1,8,0:3:0:0:
379,272,78884,1,8,0:3:0:0:
429,156,79058,1,8,1:2:0:0:
416,112,79144,1,8,1:2:0:0:
383,73,79231,1,8,1:2:0:0:
211,138,79404,1,8,1:2:0:0:
39,205,79578,1,8,1:2:0:0:
39,205,80445,5,2,0:0:0:0:
71,247,80532,1,0,0:0:0:0:
94,201,80618,2,0,P|146:152|234:148,1,116,6|0,3:0|0:0,0:0:0:0:
348,188,80965,1,8,0:0:0:0:
179,224,81139,1,0,0:0:0:0:
41,124,81312,1,4,0:3:0:0:
139,70,81485,1,4,0:3:0:0:
71,247,81659,1,8,1:2:0:0:
275,227,81832,5,0,3:0:0:0:
307,269,81919,1,0,3:0:0:0:
249,278,82005,2,0,P|199:330|196:418,1,116,4|0,0:3|0:0,0:0:0:0:
393,296,82352,1,8,0:0:0:0:
250,149,82526,1,4,0:3:0:0:
433,42,82699,6,0,P|340:91|322:142,1,116,2|4,0:0|0:3,0:0:0:0:
275,227,83046,1,8,1:2:0:0:
112,191,83220,1,4,0:3:0:0:
0,69,83393,6,0,P|50:42|108:43,1,116,4|0,0:3|0:0,0:0:0:0:
211,157,83740,1,8,0:0:0:0:
35,243,83913,1,2,0:0:0:0:
195,339,84087,1,8,0:3:0:0:
78,343,84260,1,4,0:3:0:0:
78,343,84347,1,4,0:3:0:0:
78,343,84433,1,8,1:2:0:0:
137,250,84607,1,4,0:3:0:0:
282,323,84780,6,0,P|346:330|453:275,1,174,6|0,1:2|0:0,0:0:0:0:
492,212,85127,1,8,1:2:0:0:
475,373,85300,2,0,P|378:317|330:232,1,174,12|0,0:0|0:0,0:0:0:0:
313,184,85647,1,0,0:0:0:0:
424,63,85821,2,0,P|334:32|232:55,1,174,8|0,0:0|0:0,0:0:0:0:
166,7,86167,6,0,P|233:37|252:156,1,174,2|0,0:0|0:0,0:0:0:0:
239,206,86514,1,8,1:2:0:0:
163,104,86688,1,2,0:0:0:0:
77,212,86861,2,0,P|37:154|41:77,1,116,4|4,0:3|0:3,0:0:0:0:
158,277,87208,2,0,P|133:349|90:386,1,116,8|4,1:2|0:3,0:0:0:0:
239,206,87555,2,0,P|309:209|366:251,1,116,4|0,0:0|0:0,0:0:0:0:
406,335,87902,1,8,2:0:0:0:
506,206,88075,2,0,P|427:165|353:181,1,116,2|0,0:0|0:0,0:0:0:0:
239,206,88422,1,0,0:0:0:0:
194,25,88595,6,0,P|252:85|254:144,1,116,8|0,1:2|0:0,0:0:0:0:
441,27,88942,2,0,P|364:30|311:68,1,116,4|0,0:3|0:0,0:0:0:0:
257,114,89289,1,8,1:2:0:0:
66,57,89462,2,0,P|150:96|186:151,1,116,2|4,0:0|0:3,0:0:0:0:
107,272,89809,1,4,0:3:0:0:
74,266,89896,1,4,0:3:0:0:
45,242,89983,2,0,P|20:181|19:118,1,116,8|4,0:0|0:3,0:0:0:0:
151,346,90329,2,0,P|242:363|294:344,1,116,4|0,0:0|0:0,0:0:0:0:
387,271,90676,2,0,P|444:265|499:283,1,116,8|4,1:2|0:3,0:0:0:0:
432,373,91023,6,0,P|419:313|375:262,1,116,2|8,0:0|2:3,0:0:0:0:
393,181,91283,2,0,P|339:149|259:137,1,116,2|0,0:0|0:0,0:0:0:0:
242,54,91543,2,0,P|206:56|172:70,1,58,8|8,0:0|0:0,0:0:0:0:
91,51,91717,6,0,P|178:97|191:197,1,174,6|0,3:0|0:0,0:0:0:0:
187,248,92063,2,0,P|194:321|252:385,1,116,8|0,0:0|0:0,0:0:0:0:
365,339,92410,1,4,0:3:0:0:
270,219,92584,1,4,0:3:0:0:
116,187,92757,1,8,1:2:0:0:
168,325,92931,5,0,3:0:0:0:
191,366,93017,1,0,3:0:0:0:
139,362,93104,2,0,P|87:348|32:261,1,116,4|0,0:3|0:0,0:0:0:0:
0,75,93451,1,8,0:0:0:0:
116,187,93624,1,4,0:3:0:0:
277,108,93798,6,0,P|198:103|152:144,1,116,2|4,0:0|0:3,0:0:0:0:
95,267,94144,1,8,1:2:0:0:
230,184,94318,1,4,0:3:0:0:
342,301,94491,6,0,P|421:306|467:265,1,116,4|0,0:3|0:0,0:0:0:0:
469,122,94838,2,0,P|396:188|378:247,1,116,8|2,1:2|0:0,0:0:0:0:
404,346,95185,1,8,0:3:0:0:
288,216,95358,1,4,0:3:0:0:
357,58,95532,1,8,1:2:0:0:
253,105,95705,1,4,0:3:0:0:
162,35,95878,1,6,1:2:0:0:
56,99,96052,6,0,P|43:84|23:35,1,58,2|0,0:0|0:0,0:0:0:0:
92,110,96225,2,0,P|77:180|36:243,1,116,8|4,1:2|3:2,0:0:0:0:
7,309,96572,2,0,P|95:319|156:270,1,116,2|0,0:0|0:0,0:0:0:0:
192,356,96832,2,0,P|261:300|269:223,1,116,4|0,0:3|0:0,0:0:0:0:
367,155,97092,2,0,P|420:170|323:243,1,232,4|4,0:0|0:3,0:0:0:0:
209,220,97613,1,8,1:2:0:0:
432,358,97786,2,0,P|488:318|521:232,1,116,2|4,0:0|0:3,0:0:0:0:
511,119,98133,1,4,0:3:0:0:
276,157,98306,2,0,P|207:129|167:74,1,116,8|4,1:2|0:3,0:0:0:0:
132,21,98566,1,4,0:3:0:0:
156,62,98653,6,0,P|160:141|125:232,1,174,4|0,0:0|0:0,0:0:0:0:
69,292,99000,1,8,2:0:0:0:
225,345,99173,2,0,P|294:339|395:266,1,174,2|0,0:0|0:0,0:0:0:0:
401,251,99520,1,4,0:3:0:0:
512,384,99694,2,0,P|444:389|385:366,1,116,8|4,0:0|0:3,0:0:0:0:
316,317,99954,1,4,0:3:0:0:
298,288,100040,6,0,P|275:226|294:109,1,174,4|4,0:3|0:3,0:0:0:0:
331,34,100387,1,8,1:2:0:0:
140,23,100561,2,0,P|144:132|214:224,1,174,4|0,0:0|0:0,0:0:0:0:
199,206,100907,5,4,0:3:0:0:
26,174,101081,1,8,1:2:0:0:
104,249,101254,1,0,0:0:0:0:
34,335,101428,2,0,P|105:373|280:350,1,235.624989213944,4|0,0:0|0:0,0:0:0:0:
280,341,101948,5,4,0:3:0:0:
431,363,102121,1,8,1:2:0:0:
362,294,102295,1,4,0:3:0:0:
464,202,102468,2,0,P|472:135|452:86,1,94.2499956855776,8|4,1:2|0:3,0:0:0:0:
226,174,102815,5,4,0:0:0:0:
298,53,102988,1,2,0:0:0:0:
436,22,103162,1,8,0:0:0:0:
205,82,103335,2,0,P|133:62|95:21,1,94.2499956855776,4|0,0:0|0:0,0:0:0:0:
17,0,103682,5,4,0:3:0:0:
28,31,103769,1,4,0:3:0:0:
29,63,103855,1,4,0:3:0:0:
17,94,103942,1,4,0:3:0:0:
7,125,104029,1,4,0:3:0:0:
7,157,104115,1,4,0:3:0:0:
28,182,104202,2,0,P|92:207|142:198,1,94.2499956855776,4|2,0:0|0:0,0:0:0:0:
201,176,104549,1,8,1:2:0:0:
141,284,104722,2,0,P|130:335|131:383,1,94.2499956855776,4|0,3:2|0:0,0:0:0:0:
300,232,105069,2,0,P|328:298|325:356,1,94.2499956855776,8|0,1:2|0:0,0:0:0:0:
80,173,105416,2,0,P|52:239|55:297,1,94.2499956855776,8|0,3:0|3:0,0:0:0:0:
366,158,106110,5,6,0:0:0:0:
256,192,106196,12,4,109751,0:3:0:0:
20,156,111139,6,0,L|31:199,1,36.25,6|0,1:3|0:0,0:0:0:0:
211,131,111399,2,0,L|203:182,1,36.25,8|0,1:2|0:0,0:0:0:0:
35,201,111659,2,0,L|28:240,1,32.624999004364,14|0,1:2|0:0,0:0:0:0:
116,220,112006,6,0,L|126:249,1,18.125,2|0,1:0|0:0,0:0:0:0:
39,247,112179,2,0,L|37:272,1,18.125,2|0,1:0|0:0,0:0:0:0:
118,273,112353,2,0,L|126:304,1,18.125,2|0,1:0|0:0,0:0:0:0:
50,370,112526,6,0,L|61:327,1,36.25,6|0,1:3|0:0,0:0:0:0:
217,300,112786,1,8,1:2:0:0:
217,300,112873,2,0,L|223:267,1,18.125,0|0,0:0|0:0,0:0:0:0:
349,368,113046,2,0,L|342:329,1,32.624999004364,14|0,1:2|0:0,0:0:0:0:
472,339,113393,1,2,1:0:0:0:
477,313,113480,1,0,0:0:0:0:
451,279,113567,1,2,1:0:0:0:
442,256,113653,1,0,0:0:0:0:
465,227,113740,1,2,1:0:0:0:
470,201,113827,1,0,0:0:0:0:
478,168,113913,6,0,L|490:133,1,36.25,14|0,0:0|0:0,0:0:0:0:
376,200,114173,2,0,L|372:163,1,36.25,8|0,1:2|0:0,0:0:0:0:
313,289,114433,2,0,L|293:257,1,36.25,8|0,1:2|0:0,0:0:0:0:
379,339,115300,6,0,P|331:293|282:293,1,86.9999973449708,2|0,0:0|3:0,0:0:0:0:
211,308,115560,1,2,0:0:0:0:
182,331,115647,1,8,0:0:0:0:
82,203,115820,2,0,P|142:211|180:245,1,86.9999973449708,2|0,0:0|3:0,0:0:0:0:
257,167,116167,1,0,3:0:0:0:
99,287,116340,2,0,P|39:279|1:245,1,86.9999973449708,8|0,2:0|0:0,0:0:0:0:
42,45,116687,6,0,P|61:111|56:144,1,86.9999973449708,2|0,0:0|3:0,0:0:0:0:
123,176,116947,1,2,0:0:0:0:
138,137,117034,1,8,0:0:0:0:
183,24,117207,2,0,P|188:66|210:103,1,86.9999973449708,2|0,0:0|3:0,0:0:0:0:
284,157,117554,1,0,3:0:0:0:
421,57,117728,2,0,P|379:61|339:82,1,86.9999973449708,8|0,2:0|0:0,0:0:0:0:
478,284,118074,6,0,P|471:220|432:192,1,86.9999973449708,2|0,0:0|3:0,0:0:0:0:
382,229,118334,1,2,0:0:0:0:
368,191,118421,1,8,0:0:0:0:
324,323,118595,2,0,P|301:286|304:244,1,86.9999973449708,2|0,0:0|3:0,0:0:0:0:
368,191,118941,1,0,3:0:0:0:
219,228,119115,1,8,2:0:0:0:
86,158,119288,1,0,0:0:0:0:
69,348,119462,6,0,P|87:285|70:232,1,86.9999973449708,2|0,0:0|3:0,0:0:0:0:
176,152,119722,1,2,0:0:0:0:
176,152,119808,1,8,0:0:0:0:
80,7,119982,2,0,P|120:51|124:104,1,86.9999973449708,2|0,0:0|3:0,0:0:0:0:
86,158,120329,1,0,3:0:0:0:
301,87,120502,2,0,P|235:69|199:77,1,86.9999973449708,8|0,1:2|0:0,0:0:0:0:
41,341,120849,6,0,P|100:339|151:315,1,86.9999973449708,2|0,0:0|3:0,0:0:0:0:
210,269,121110,1,2,0:0:0:0:
231,235,121196,1,8,0:0:0:0:
366,248,121369,2,0,P|319:282|264:283,1,86.9999973449708,2|0,0:0|3:0,0:0:0:0:
242,363,121716,1,0,3:0:0:0:
154,207,121889,2,0,P|120:172|55:153,1,86.9999973449708,8|0,2:0|0:0,0:0:0:0:
0,384,122236,6,0,P|31:335|36:286,1,86.9999973449708,2|0,0:0|3:0,0:0:0:0:
94,250,122496,1,2,0:0:0:0:
106,279,122583,1,8,0:0:0:0:
161,379,122757,2,0,P|170:327|197:281,1,86.9999973449708,2|0,0:0|3:0,0:0:0:0:
256,229,123103,1,0,3:0:0:0:
348,379,123277,2,0,P|339:327|312:281,1,86.9999973449708,8|0,2:0|0:0,0:0:0:0:
201,148,123624,6,0,P|176:91|180:26,1,86.9999973449708,2|0,0:0|3:0,0:0:0:0:
281,15,123884,1,2,0:0:0:0:
268,50,123970,1,8,0:0:0:0:
340,147,124144,2,0,P|365:90|361:25,1,86.9999973449708,2|0,0:0|3:0,0:0:0:0:
459,20,124490,1,0,3:0:0:0:
432,168,124664,2,0,P|444:229|473:271,1,86.9999973449708,8|0,2:0|0:0,0:0:0:0:
397,379,125011,6,0,P|398:324|366:273,1,86.9999973449708,8|0,1:2|0:0,0:0:0:0:
336,225,125271,1,4,0:3:0:0:
336,225,125358,1,0,1:0:0:0:
268,278,125531,2,0,P|209:292|149:271,1,86.9999973449708,4|0,0:0|0:0,0:0:0:0:
105,250,125878,1,8,0:0:0:0:
116,375,126051,1,8,0:0:0:0:
209,209,126225,1,8,0:0:0:0:
205,170,126311,1,8,0:0:0:0:
192,135,126399,6,0,P|165:106|73:89,1,116,4|0,0:0|0:0,0:0:0:0:
3,102,127092,1,2,0:0:0:0:
86,50,127438,1,2,0:0:0:0:
178,34,127786,2,0,P|220:36|294:97,1,116,2|0,0:0|0:0,0:0:0:0:
341,206,128479,2,0,P|340:162|381:78,1,116,2|0,0:0|0:0,0:0:0:0:
475,20,129173,2,0,P|443:104|446:151,1,116,6|0,3:0|0:0,0:0:0:0:
480,216,129867,2,0,P|439:216|431:290,1,116,2|0,0:0|0:0,0:0:0:0:
378,161,130387,1,0,0:0:0:0:
378,161,130474,1,0,0:0:0:0:
378,161,130560,2,0,P|334:230|343:283,1,116,4|0,0:3|0:0,0:0:0:0:
255,213,131254,1,8,1:2:0:0:
172,224,131514,1,0,0:0:0:0:
128,283,131774,1,8,1:2:0:0:
128,283,131948,6,0,P|115:199|5:77,1,232,4|0,0:0|0:0,0:0:0:0:
24,87,132988,1,2,0:0:0:0:
96,44,133335,2,0,P|143:58|167:81,1,58,12|0,0:3|0:0,0:0:0:0:
210,6,133681,2,0,P|234:49|235:82,1,58,8|8,0:3|0:3,0:0:0:0:
316,42,133942,1,8,1:3:0:0:
337,55,134028,1,0,1:0:0:0:
318,135,134201,1,0,1:0:0:0:
250,191,134375,1,0,1:0:0:0:
206,273,134548,1,0,1:0:0:0:
222,297,134635,1,0,1:0:0:0:
246,320,134722,2,0,B|288:322|326:261|326:261|374:274|400:319|386:372,1,232,6|0,0:3|0:0,0:0:0:0:
389,358,135762,5,2,0:0:0:0:
424,279,136109,1,2,0:0:0:0:
386,184,136456,1,2,0:0:0:0:
407,65,136803,1,2,0:0:0:0:
509,188,137150,2,0,L|415:174,1,94.2499956855776,8|0,0:0|0:0,0:0:0:0:
295,33,137497,5,4,0:0:0:0:
212,79,137671,1,0,0:0:0:0:
180,172,137844,1,8,1:2:0:0:
204,268,138017,2,0,P|192:315|163:356,1,94.2499956855776,4|0,0:0|0:0,0:0:0:0:
22,357,138364,1,4,0:3:0:0:
8,318,138451,1,4,0:3:0:0:
7,277,138538,1,0,1:0:0:0:
65,176,138711,2,0,B|66:132|41:92|-30:79|41:-12|120:44,1,235.624989213944,4|0,0:0|0:0,0:0:0:0:
170,109,139231,5,8,0:0:0:0:
341,70,139405,2,0,P|268:87|250:142,1,108.750004148483,2|4,0:0|0:3,0:0:0:0:
262,238,139752,1,4,0:3:0:0:
478,199,139925,1,8,0:0:0:0:
495,234,140012,1,8,0:0:0:0:
492,277,140098,2,0,P|461:328|303:327,1,217.500008296967,4|0,0:0|0:0,0:0:0:0:
284,318,140532,5,4,0:3:0:0:
246,315,140619,1,4,0:3:0:0:
210,324,140705,1,4,0:3:0:0:
182,348,140792,2,0,P|119:364|61:338,1,108.750004148483,0|0,1:0|0:0,0:0:0:0:
8,273,141139,1,8,0:3:0:0:
133,272,141312,1,8,0:3:0:0:
83,156,141486,1,8,1:2:0:0:
96,112,141572,1,8,1:2:0:0:
129,73,141659,1,8,1:2:0:0:
301,138,141832,1,8,1:2:0:0:
473,205,142006,1,8,1:2:0:0:
430,48,142266,5,0,0:0:0:0:
409,72,142352,2,0,L|381:105,2,36.25,2|8|0,0:0|0:0|0:0,0:0:0:0:
441,87,142613,1,8,0:0:0:0:
466,130,142699,1,8,0:0:0:0:
474,163,142786,1,8,0:0:0:0:
473,205,142873,5,8,0:0:0:0:
441,247,142960,1,8,0:0:0:0:
418,201,143046,2,0,P|366:152|278:148,1,116,6|0,3:0|0:0,0:0:0:0:
164,188,143393,1,8,0:0:0:0:
333,224,143567,1,0,0:0:0:0:
471,124,143740,1,4,0:3:0:0:
373,70,143913,1,4,0:3:0:0:
441,247,144087,1,8,1:2:0:0:
237,227,144260,5,0,3:0:0:0:
205,269,144347,1,0,3:0:0:0:
263,278,144433,2,0,P|313:330|316:418,1,116,4|0,0:3|0:0,0:0:0:0:
119,296,144780,1,8,0:0:0:0:
262,149,144954,1,4,0:3:0:0:
79,42,145127,6,0,P|172:91|190:142,1,116,2|4,0:0|0:3,0:0:0:0:
237,227,145474,1,8,1:2:0:0:
400,191,145648,1,4,0:3:0:0:
512,69,145821,6,0,P|462:42|404:43,1,116,4|0,0:3|0:0,0:0:0:0:
301,157,146168,1,8,0:0:0:0:
477,243,146341,1,2,0:0:0:0:
317,339,146515,1,8,0:3:0:0:
434,343,146688,1,4,0:3:0:0:
434,343,146775,1,4,0:3:0:0:
434,343,146861,1,8,1:2:0:0:
375,250,147035,1,4,0:3:0:0:
230,323,147208,6,0,P|166:330|59:275,1,174,6|0,1:2|0:0,0:0:0:0:
20,212,147555,1,8,1:2:0:0:
37,373,147728,2,0,P|134:317|182:232,1,174,12|0,0:0|0:0,0:0:0:0:
199,184,148075,1,0,0:0:0:0:
88,63,148249,2,0,P|178:32|280:55,1,174,8|0,0:0|0:0,0:0:0:0:
346,7,148595,6,0,P|279:37|260:156,1,174,2|0,0:0|0:0,0:0:0:0:
273,206,148942,1,8,1:2:0:0:
349,104,149116,1,2,0:0:0:0:
435,212,149289,2,0,P|475:154|471:77,1,116,4|4,0:3|0:3,0:0:0:0:
354,277,149636,2,0,P|379:349|422:386,1,116,8|4,1:2|0:3,0:0:0:0:
273,206,149983,2,0,P|203:209|146:251,1,116,4|0,0:0|0:0,0:0:0:0:
106,335,150330,1,8,2:0:0:0:
6,206,150503,2,0,P|85:165|159:181,1,116,2|0,0:0|0:0,0:0:0:0:
273,206,150850,1,0,0:0:0:0:
318,25,151023,6,0,P|260:85|258:144,1,116,8|0,1:2|0:0,0:0:0:0:
71,27,151370,2,0,P|148:30|201:68,1,116,4|0,0:3|0:0,0:0:0:0:
255,114,151717,1,8,1:2:0:0:
446,57,151890,2,0,P|362:96|326:151,1,116,2|4,0:0|0:3,0:0:0:0:
405,272,152237,1,4,0:3:0:0:
438,266,152324,1,4,0:3:0:0:
467,242,152411,2,0,P|492:181|493:118,1,116,8|4,0:0|0:3,0:0:0:0:
361,346,152757,2,0,P|270:363|218:344,1,116,4|0,0:0|0:0,0:0:0:0:
125,271,153104,2,0,P|68:265|13:283,1,116,8|4,1:2|0:3,0:0:0:0:
80,373,153451,6,0,P|93:313|137:262,1,116,2|8,0:0|2:3,0:0:0:0:
119,181,153711,2,0,P|173:149|253:137,1,116,2|0,0:0|0:0,0:0:0:0:
270,54,153971,2,0,P|306:56|340:70,1,58,8|8,0:0|0:0,0:0:0:0:
421,51,154145,6,0,P|334:97|321:197,1,174,6|0,3:0|0:0,0:0:0:0:
325,248,154491,2,0,P|318:321|260:385,1,116,8|0,0:0|0:0,0:0:0:0:
147,339,154838,1,4,0:3:0:0:
242,219,155012,1,4,0:3:0:0:
396,187,155185,1,8,1:2:0:0:
344,325,155359,5,0,3:0:0:0:
321,366,155445,1,0,3:0:0:0:
373,362,155532,2,0,P|425:348|480:261,1,116,4|0,0:3|0:0,0:0:0:0:
512,75,155879,1,8,0:0:0:0:
396,187,156052,1,4,0:3:0:0:
235,108,156226,6,0,P|314:103|360:144,1,116,2|4,0:0|0:3,0:0:0:0:
417,267,156572,1,8,1:2:0:0:
282,184,156746,1,4,0:3:0:0:
170,301,156919,6,0,P|91:306|45:265,1,116,4|0,0:3|0:0,0:0:0:0:
43,122,157266,2,0,P|116:188|134:247,1,116,8|2,1:2|0:0,0:0:0:0:
108,346,157613,1,8,0:3:0:0:
224,216,157786,1,4,0:3:0:0:
155,58,157960,1,8,1:2:0:0:
259,105,158133,1,4,0:3:0:0:
350,35,158306,1,6,1:2:0:0:
456,99,158480,6,0,P|469:84|489:35,1,58,2|0,0:0|0:0,0:0:0:0:
420,110,158653,2,0,P|435:180|476:243,1,116,8|4,1:2|3:2,0:0:0:0:
505,309,159000,2,0,P|417:319|356:270,1,116,2|0,0:0|0:0,0:0:0:0:
320,356,159260,2,0,P|251:300|243:223,1,116,4|0,0:3|0:0,0:0:0:0:
145,155,159520,2,0,P|92:170|189:243,1,232,4|4,0:0|0:3,0:0:0:0:
303,220,160041,1,8,1:2:0:0:
80,358,160214,2,0,P|24:318|-9:232,1,116,2|4,0:0|0:3,0:0:0:0:
1,119,160561,1,4,0:3:0:0:
236,157,160734,2,0,P|305:129|345:74,1,116,8|4,1:2|0:3,0:0:0:0:
380,21,160994,1,4,0:3:0:0:
356,62,161081,6,0,P|352:141|387:232,1,174,4|0,0:0|0:0,0:0:0:0:
443,292,161428,1,8,2:0:0:0:
287,345,161601,2,0,P|218:339|117:266,1,174,2|0,0:0|0:0,0:0:0:0:
111,251,161948,1,4,0:3:0:0:
0,384,162122,2,0,P|68:389|127:366,1,116,8|4,0:0|0:3,0:0:0:0:
196,317,162382,1,4,0:3:0:0:
214,288,162468,6,0,P|237:226|218:109,1,174,4|4,0:3|0:3,0:0:0:0:
181,34,162815,1,8,1:2:0:0:
372,23,162989,2,0,P|368:132|298:224,1,174,4|0,0:0|0:0,0:0:0:0:
313,206,163335,5,4,0:3:0:0:
486,174,163509,1,8,1:2:0:0:
408,249,163682,1,0,0:0:0:0:
478,335,163856,2,0,P|407:373|232:350,1,235.624989213944,4|0,0:0|0:0,0:0:0:0:
232,341,164376,5,4,0:3:0:0:
81,363,164549,1,8,1:2:0:0:
150,294,164723,1,4,0:3:0:0:
48,202,164896,2,0,P|40:135|60:86,1,94.2499956855776,8|4,1:2|0:3,0:0:0:0:
286,174,165243,5,4,0:0:0:0:
214,53,165416,1,2,0:0:0:0:
76,22,165590,1,8,0:0:0:0:
307,82,165763,2,0,P|379:62|417:21,1,94.2499956855776,4|0,0:0|0:0,0:0:0:0:
495,0,166110,5,4,0:3:0:0:
484,31,166197,1,4,0:3:0:0:
483,63,166283,1,4,0:3:0:0:
495,94,166370,1,4,0:3:0:0:
505,125,166457,1,4,0:3:0:0:
505,157,166543,1,4,0:3:0:0:
484,182,166630,2,0,P|420:207|370:198,1,94.2499956855776,4|2,0:0|0:0,0:0:0:0:
311,176,166977,1,8,1:2:0:0:
371,284,167150,2,0,P|382:335|381:383,1,94.2499956855776,4|0,3:2|0:0,0:0:0:0:
212,232,167497,1,8,1:2:0:0:
212,232,167584,1,8,0:0:0:0:
212,232,167670,1,8,0:0:0:0:
432,173,167844,1,8,3:0:0:0:
432,173,167931,1,0,3:0:0:0:
432,173,168017,1,6,3:0:0:0:
371,284,168538,5,0,0:0:0:0:
371,284,177728,6,0,L|356:212,1,65.2499980087281,6|0,0:3|0:0,0:0:0:0:
354,191,178335,1,0,0:0:0:0:
409,214,178422,1,12,0:0:0:0:
464,113,178682,1,0,0:0:0:0:
409,136,178769,1,14,1:0:0:0:
55,260,179115,5,4,0:3:0:0:
122,315,179289,1,2,0:0:0:0:
206,336,179462,1,8,0:0:0:0:
292,327,179636,1,2,0:0:0:0:
359,271,179809,1,4,0:3:0:0:
497,352,179983,5,0,0:0:0:0:
455,275,180156,1,8,0:0:0:0:
435,190,180329,1,2,0:0:0:0:
453,104,180503,6,0,P|453:54|434:21,1,72.5,8|0,0:0|0:0,0:0:0:0:
303,228,180850,2,0,P|326:255|358:270,1,72.5,2|0,1:0|0:0,0:0:0:0:
278,50,181196,2,0,P|242:56|213:77,1,72.5,4|0,0:3|0:0,0:0:0:0:
142,155,181543,1,8,0:0:0:0:
21,222,181717,6,0,P|82:220|112:242,1,72.5,2|4,0:0|0:3,0:0:0:0:
237,355,182063,5,2,0:0:0:0:
322,335,182237,1,8,0:0:0:0:
386,277,182410,1,2,0:0:0:0:
495,266,182584,5,4,0:3:0:0:
432,205,182757,1,0,0:0:0:0:
402,122,182931,1,8,0:0:0:0:
192,117,183104,5,2,0:0:0:0:
277,103,183277,1,4,0:3:0:0:
346,50,183451,1,2,0:0:0:0:
432,34,183624,1,8,0:0:0:0:
499,89,183798,1,2,0:0:0:0:
499,175,183971,1,4,0:3:0:0:
433,230,184144,1,0,0:0:0:0:
348,214,184318,2,0,P|301:206|264:220,1,72.5,8|2,0:0|0:0,0:0:0:0:
38,332,184665,5,4,0:3:0:0:
138,343,184838,1,2,0:0:0:0:
231,303,185011,1,8,0:0:0:0:
277,212,185185,1,2,0:0:0:0:
260,112,185358,1,4,0:3:0:0:
97,53,185532,5,0,0:0:0:0:
218,35,185705,1,8,0:0:0:0:
336,67,185878,1,2,0:0:0:0:
396,173,186052,6,0,P|439:209|507:217,1,86.9999973449708,8|0,0:0|0:0,0:0:0:0:
167,154,186399,2,0,P|114:173|73:228,1,86.9999973449708,2|0,1:0|0:0,0:0:0:0:
425,89,186746,2,0,P|434:33|407:-29,1,86.9999973449708,4|0,0:3|0:0,0:0:0:0:
486,142,187092,1,8,0:0:0:0:
203,71,187266,6,0,P|128:71|86:100,1,86.9999973449708,2|4,0:0|0:3,0:0:0:0:
17,289,187613,5,2,0:0:0:0:
128,337,187786,1,8,0:0:0:0:
249,332,187959,1,2,0:0:0:0:
431,359,188133,5,4,0:3:0:0:
336,282,188306,1,0,0:0:0:0:
300,164,188480,1,8,0:0:0:0:
328,45,188653,1,2,0:0:0:0:
141,48,188826,5,4,0:3:0:0:
201,133,189000,1,2,0:0:0:0:
300,164,189173,1,8,0:0:0:0:
403,148,189347,1,2,0:0:0:0:
218,223,189520,2,0,L|83:283,1,130.499996017456,4|0,0:3|0:0,0:0:0:0:
69,289,189867,5,8,0:0:0:0:
98,297,189954,1,0,0:0:0:0:
127,303,190040,1,8,0:0:0:0:
156,309,190127,1,8,0:0:0:0:
205,322,190214,6,0,L|219:378,1,43.4999986724854,6|0,0:0|0:0,0:0:0:0:
285,170,190561,2,0,L|263:255,1,72.5,6|0,0:0|0:0,0:0:0:0:
184,12,190907,2,0,P|203:79|158:219,1,202.999993804932,6|4,0:0|0:3,0:0:0:0:
8,69,191428,5,4,0:3:0:0:
54,51,191514,1,4,0:3:0:0:
99,35,191601,1,6,0:3:0:0:
74,173,191774,1,2,0:0:0:0:
184,12,191948,1,8,1:2:0:0:
169,204,192121,1,4,0:3:0:0:
266,57,192295,1,8,1:2:0:0:
272,231,192468,1,4,0:3:0:0:
351,116,192641,1,8,0:0:0:0:
376,254,192815,1,4,0:3:0:0:
74,253,192988,6,0,L|16:265,1,43.4999986724854,6|0,0:0|0:0,0:0:0:0:
376,254,193335,2,0,L|452:269,1,72.5,6|0,0:0|0:0,0:0:0:0:
101,123,193682,2,0,P|54:199|104:277,1,152.249995353699,6|0,0:0|0:0,0:0:0:0:
128,323,194029,5,4,0:3:0:0:
96,328,194115,1,4,0:3:0:0:
65,333,194202,1,4,0:3:0:0:
33,339,194289,1,4,0:3:0:0:
4,343,194376,1,6,0:3:0:0:
220,349,194549,1,2,0:0:0:0:
121,229,194722,1,8,1:2:0:0:
115,186,194809,1,2,0:0:0:0:
161,201,194896,1,4,0:3:0:0:
36,148,195069,1,8,1:2:0:0:
229,157,195243,1,4,0:3:0:0:
104,91,195416,1,8,0:0:0:0:
128,323,195589,1,4,0:3:0:0:
289,15,195763,6,0,L|362:39,1,58,6|0,0:0|0:0,0:0:0:0:
115,186,196110,2,0,L|27:214,1,86.9999973449708,6|0,0:0|0:0,0:0:0:0:
315,350,196457,2,0,P|383:330|418:142,1,232,6|4,0:0|0:3,0:0:0:0:
393,6,196977,5,4,0:3:0:0:
416,38,197063,1,4,0:3:0:0:
423,78,197150,1,6,0:3:0:0:
409,116,197237,1,0,3:0:0:0:
379,143,197324,1,2,0:0:0:0:
366,181,197410,1,0,0:0:0:0:
372,221,197497,1,8,1:2:0:0:
340,71,197670,1,4,0:3:0:0:
303,286,197844,1,8,1:2:0:0:
440,191,198017,1,4,0:3:0:0:
260,116,198191,1,8,0:0:0:0:
83,172,198364,1,4,0:3:0:0:
164,15,198537,6,0,L|183:62,1,43.4999986724854,6|0,0:0|0:0,0:0:0:0:
83,172,198884,2,0,L|54:241,1,72.5,6|0,0:0|0:0,0:0:0:0:
303,286,199231,2,0,P|261:334|105:344,1,202.999993804932,6|4,0:0|0:3,0:0:0:0:
188,167,199751,5,4,0:3:0:0:
233,201,199838,1,4,0:3:0:0:
179,222,199925,1,6,0:3:0:0:
150,243,200011,1,0,0:0:0:0:
133,274,200098,1,2,0:0:0:0:
126,309,200185,1,0,0:0:0:0:
124,344,200272,1,8,1:2:0:0:
249,314,200445,1,4,0:3:0:0:
311,201,200618,1,8,1:2:0:0:
279,76,200792,1,4,0:3:0:0:
424,134,200965,1,8,0:0:0:0:
203,111,201139,1,4,0:3:0:0:
80,76,201312,5,6,0:0:0:0:
135,117,201485,1,2,0:0:0:0:
145,148,201572,1,0,0:0:0:0:
112,140,201659,1,8,0:3:0:0:
203,111,201832,1,8,0:3:0:0:
104,295,202006,5,4,0:0:0:0:
166,247,202179,1,2,0:0:0:0:
178,212,202266,1,4,0:3:0:0:
140,220,202353,1,4,0:3:0:0:
244,255,202526,1,2,0:0:0:0:
136,58,202699,5,4,0:0:0:0:
203,111,202872,1,0,1:2:0:0:
216,148,202959,1,0,1:2:0:0:
176,138,203046,1,2,0:0:0:0:
287,101,203219,1,8,0:0:0:0:
171,313,203393,5,4,0:0:0:0:
244,255,203566,1,8,0:0:0:0:
258,215,203653,1,8,0:0:0:0:
214,224,203740,1,2,0:0:0:0:
337,267,203913,1,2,0:0:0:0:
220,47,204087,5,6,0:3:0:0:
344,167,204318,5,0,0:0:0:0:
299,347,204549,5,0,0:0:0:0:
287,104,204780,5,0,0:0:0:0:
337,267,204954,2,0,P|361:306|423:336,1,101.499996902466,0|0,0:0|0:0,0:0:0:0:
437,240,205474,6,0,B|432:190|432:190|355:141|355:141|333:165|328:191|353:224|353:224|330:284,1,279.124991481781,6|0,0:3|0:0,0:0:0:0:
299,347,206514,1,8,0:0:0:0:
299,347,206861,5,4,0:0:0:0:
274,223,207035,1,0,0:0:0:0:
185,137,207208,1,8,1:2:0:0:
60,124,207381,2,0,P|16:112|-17:74,1,94.2499956855776,4|0,0:0|0:0,0:0:0:0:
205,0,207728,1,4,0:3:0:0:
216,30,207815,1,4,0:3:0:0:
217,64,207902,1,0,1:0:0:0:
153,216,208075,2,0,B|138:275|140:292|209:322|196:376|116:360,1,188.499991371155,4|0,0:0|0:0,0:0:0:0:
50,343,208595,5,8,0:0:0:0:
311,306,208769,2,0,P|265:257|219:251,1,94.2499956855776,2|4,0:0|0:3,0:0:0:0:
73,257,209115,1,4,0:3:0:0:
16,62,209289,1,8,0:0:0:0:
49,32,209376,1,8,0:0:0:0:
91,22,209462,2,0,P|156:29|258:112,1,188.499991371155,4|0,0:0|0:0,0:0:0:0:
266,132,209896,5,4,0:3:0:0:
291,166,209983,1,4,0:3:0:0:
331,187,210069,1,4,0:3:0:0:
384,187,210156,2,0,P|438:208|470:266,1,94.2499956855776,0|0,1:0|0:0,0:0:0:0:
478,363,210503,1,8,0:3:0:0:
392,269,210676,1,8,0:3:0:0:
472,141,210850,1,8,1:2:0:0:
471,99,210936,1,8,1:2:0:0:
446,60,211023,2,0,B|404:25|349:45|349:45|391:108|343:180,1,217.5,8|0,1:2|0:0,0:0:0:0:
288,247,211717,5,0,0:0:0:0:
349,325,211890,1,0,0:0:0:0:
269,146,212063,1,0,0:0:0:0:
221,166,212150,1,0,0:0:0:0:
194,209,212237,5,8,0:0:0:0:
189,260,212324,1,8,0:0:0:0:
147,230,212410,2,0,P|75:207|6:236,1,116,6|0,3:0|0:0,0:0:0:0:
66,384,212757,1,8,0:0:0:0:
147,230,212931,1,0,0:0:0:0:
92,76,213104,1,4,0:3:0:0:
9,127,213277,1,4,0:3:0:0:
215,92,213451,1,8,1:2:0:0:
365,184,213624,5,0,3:0:0:0:
405,233,213711,1,0,3:0:0:0:
422,171,213798,2,0,P|439:132|520:77,1,116,4|0,0:3|0:0,0:0:0:0:
471,291,214144,1,8,0:0:0:0:
369,105,214318,1,4,0:3:0:0:
250,282,214491,6,0,P|199:300|98:300,1,116,2|4,0:0|0:3,0:0:0:0:
50,175,214838,1,8,1:2:0:0:
231,187,215011,1,4,0:3:0:0:
357,294,215185,6,0,P|418:302|494:280,1,116,4|0,0:3|0:0,0:0:0:0:
494,85,215532,1,8,0:0:0:0:
322,198,215705,1,2,0:0:0:0:
470,290,215878,1,8,0:3:0:0:
357,294,216052,1,4,0:3:0:0:
357,294,216139,1,4,0:3:0:0:
357,294,216225,1,8,1:2:0:0:
427,198,216399,1,4,0:3:0:0:
244,313,216572,6,0,P|137:310|36:257,1,174,6|0,1:2|0:0,0:0:0:0:
2,221,216919,1,8,1:2:0:0:
16,371,217092,2,0,P|93:323|156:210,1,174,12|0,0:0|0:0,0:0:0:0:
156,169,217439,1,0,0:0:0:0:
102,28,217613,2,0,P|210:33|284:81,1,174,8|0,0:0|0:0,0:0:0:0:
347,6,217959,6,0,P|295:37|256:163,1,174,2|0,0:0|0:0,0:0:0:0:
266,229,218306,1,8,1:2:0:0:
356,100,218480,1,2,0:0:0:0:
455,239,218653,2,0,P|395:270|337:263,1,116,4|4,0:3|0:3,0:0:0:0:
202,395,219000,2,0,P|263:342|281:287,1,116,8|4,1:2|0:3,0:0:0:0:
211,130,219347,2,0,P|254:182|264:252,1,116,4|0,0:0|0:0,0:0:0:0:
125,105,219694,1,8,2:0:0:0:
66,277,219867,2,0,P|118:233|138:169,1,116,2|0,0:0|0:0,0:0:0:0:
40,52,220214,1,0,0:0:0:0:
205,28,220387,6,0,P|294:43|350:83,1,116,8|0,1:2|0:0,0:0:0:0:
505,18,220734,2,0,P|417:66|384:125,1,116,4|0,0:3|0:0,0:0:0:0:
376,183,221081,1,8,1:2:0:0:
417,337,221254,2,0,P|421:262|456:212,1,116,2|4,0:0|0:3,0:0:0:0:
505,104,221601,1,4,0:3:0:0:
497,68,221688,1,4,0:3:0:0:
480,38,221774,2,0,P|413:15|337:64,1,116,8|4,0:0|0:3,0:0:0:0:
415,260,222121,2,0,P|330:249|292:198,1,116,4|0,0:0|0:0,0:0:0:0:
219,156,222468,2,0,P|162:148|111:174,1,116,8|4,1:2|0:3,0:0:0:0:
82,333,222815,6,0,P|150:296|194:237,1,116,2|8,0:0|2:3,0:0:0:0:
261,296,223075,2,0,P|302:230|311:157,1,116,2|0,0:0|0:0,0:0:0:0:
392,164,223335,2,0,P|393:125|378:91,1,58,8|8,0:0|0:0,0:0:0:0:
444,48,223509,6,0,P|395:86|267:72,1,174,6|0,3:0|0:0,0:0:0:0:
189,36,223855,2,0,P|120:32|55:74,1,116,8|0,0:0|0:0,0:0:0:0:
40,191,224202,1,4,0:3:0:0:
182,140,224376,1,4,0:3:0:0:
265,0,224549,1,8,1:2:0:0:
301,153,224722,5,0,3:0:0:0:
309,203,224809,1,0,3:0:0:0:
349,172,224896,2,0,P|415:138|491:157,1,116,4|0,0:3|0:0,0:0:0:0:
512,302,225243,1,8,0:0:0:0:
420,228,225416,1,4,0:3:0:0:
288,336,225589,6,0,P|213:338|152:289,1,116,2|4,0:0|0:3,0:0:0:0:
162,137,225936,1,8,1:2:0:0:
249,252,226110,1,4,0:3:0:0:
407,145,226283,2,0,P|378:78|301:49,1,116,4|0,0:3|0:0,0:0:0:0:
162,137,226630,2,0,P|244:162|303:146,1,116,8|2,1:2|0:0,0:0:0:0:
434,291,226977,5,8,0:3:0:0:
272,241,227150,1,4,0:3:0:0:
122,323,227324,1,8,1:2:0:0:
154,212,227497,1,4,0:3:0:0:
71,134,227670,1,6,1:2:0:0:
228,49,227844,6,0,P|241:34|261:-15,1,58,2|0,0:0|0:0,0:0:0:0:
192,60,228017,2,0,P|207:130|248:193,1,116,8|4,1:2|3:2,0:0:0:0:
318,203,228364,2,0,P|269:252|196:259,1,116,2|0,0:0|0:0,0:0:0:0:
175,336,228624,2,0,P|105:329|53:278,1,116,4|0,0:3|0:0,0:0:0:0:
306,362,228884,2,0,P|406:347|341:232,1,232,4|4,0:0|0:3,0:0:0:0:
231,172,229404,1,8,1:2:0:0:
450,190,229578,2,0,P|500:272|497:341,1,116,2|4,0:0|0:3,0:0:0:0:
494,376,229925,1,4,0:3:0:0:
290,270,230098,2,0,P|221:284|162:341,1,116,8|4,1:2|0:3,0:0:0:0:
118,367,230358,1,4,0:3:0:0:
77,369,230445,6,0,P|19:336|15:218,1,174,4|0,0:0|0:0,0:0:0:0:
38,153,230792,1,8,2:0:0:0:
184,284,230965,2,0,P|266:288|371:214,1,174,2|0,0:0|0:0,0:0:0:0:
371,222,231312,1,4,0:3:0:0:
284,44,231485,2,0,P|314:121|308:200,1,116,8|4,0:0|0:3,0:0:0:0:
298,254,231746,1,4,0:3:0:0:
283,290,231832,6,0,P|231:351|123:379,1,174,4|4,0:3|0:3,0:0:0:0:
56,376,232179,1,8,1:2:0:0:
213,232,232352,2,0,P|212:164|158:42,1,174,4|0,0:0|0:0,0:0:0:0:
142,36,232699,1,4,0:3:0:0:
37,177,232873,1,8,1:2:0:0:
51,83,233046,1,0,0:0:0:0:
202,127,233220,6,0,P|303:120|361:90,1,141.374993528366,4|0,0:0|0:0,0:0:0:0:
367,85,233566,1,0,0:0:0:0:
289,234,233740,2,0,P|343:219|387:187,1,94.2499956855776,4|8,0:3|1:2,0:0:0:0:
439,277,234087,1,8,0:0:0:0:
397,307,234173,1,0,0:0:0:0:
347,323,234260,1,8,1:2:0:0:
295,332,234347,1,0,0:0:0:0:
243,327,234433,5,4,0:3:0:0:
198,299,234520,1,0,0:0:0:0:
247,275,234607,2,0,L|295:227,1,58,2|10,0:0|0:3,0:0:0:0:
298,200,234867,1,8,0:3:0:0:
302,161,234954,2,0,P|357:115|453:142,1,174,12|0,0:0|0:0,0:0:0:0:
472,165,235300,1,4,0:3:0:0:
385,208,235474,1,4,0:3:0:0:
201,187,235647,1,8,1:2:0:0:
36,295,235821,5,0,3:0:0:0:
33,354,235907,1,0,3:0:0:0:
86,327,235994,2,0,P|136:314|224:345,1,116,4|0,0:3|0:0,0:0:0:0:
290,384,236341,1,8,0:0:0:0:
138,239,236514,1,4,0:3:0:0:
330,162,236688,6,0,P|374:82|356:22,1,116,2|4,0:0|0:3,0:0:0:0:
180,16,237035,1,8,1:2:0:0:
220,173,237208,1,4,0:3:0:0:
350,271,237381,6,0,P|352:210|313:144,1,116,4|0,0:3|0:0,0:0:0:0:
133,103,237728,1,8,0:0:0:0:
30,237,237902,1,2,0:0:0:0:
165,262,238075,1,8,0:3:0:0:
108,190,238248,1,4,0:3:0:0:
108,190,238335,1,4,0:3:0:0:
108,190,238422,1,8,1:2:0:0:
85,300,238595,1,4,0:3:0:0:
220,173,238769,6,0,P|320:164|421:210,1,174,6|0,1:2|0:0,0:0:0:0:
462,258,239115,1,8,1:2:0:0:
455,81,239289,2,0,P|361:134|316:214,1,174,12|0,0:0|0:0,0:0:0:0:
301,291,239636,1,8,0:0:0:0:
301,291,239722,1,8,0:0:0:0:
301,291,239809,1,8,0:0:0:0:
478,346,239983,5,0,0:0:0:0:
478,346,240069,1,0,0:0:0:0:
478,346,240156,2,0,P|390:387|292:354,1,174,6|0,0:0|0:0,0:0:0:0:
231,332,240503,1,8,1:2:0:0:
57,370,240676,1,2,0:0:0:0:
93,205,240850,2,0,P|154:152|230:157,1,116,4|4,0:3|0:3,0:0:0:0:
300,0,241196,2,0,P|248:69|251:119,1,116,8|4,1:2|0:3,0:0:0:0:
355,251,241543,2,0,P|278:210|260:163,1,116,4|0,0:0|0:0,0:0:0:0:
166,69,241890,1,8,2:0:0:0:
414,154,242063,2,0,P|471:222|472:246,1,116,2|0,0:0|0:0,0:0:0:0:
455,352,242410,1,0,0:0:0:0:
373,251,242584,6,0,P|295:238|237:271,1,116,8|0,1:2|0:0,0:0:0:0:
89,203,242931,2,0,P|160:247|186:304,1,116,4|0,0:3|0:0,0:0:0:0:
199,367,243277,1,8,1:2:0:0:
217,178,243451,2,0,P|200:102|154:48,1,116,2|4,0:0|0:3,0:0:0:0:
416,30,243798,1,4,0:3:0:0:
408,66,243884,1,4,0:3:0:0:
391,97,243971,2,0,P|339:148|289:157,1,116,8|4,0:0|0:3,0:0:0:0:
93,16,244318,2,0,P|66:91|80:179,1,116,4|0,0:0|0:0,0:0:0:0:
117,250,244665,2,0,P|89:300|45:338,1,116,8|4,1:2|0:3,0:0:0:0:
143,165,245011,6,0,P|241:184|277:223,1,116,2|8,0:0|2:3,0:0:0:0:
274,183,245272,2,0,P|322:271|315:323,1,116,2|0,0:0|0:0,0:0:0:0:
354,305,245532,2,0,P|335:352|313:366,1,58,8|8,0:0|0:0,0:0:0:0:
405,383,245705,6,0,P|427:322|392:203,1,174,6|0,3:0|0:0,0:0:0:0:
338,136,246052,2,0,P|338:63|386:22,1,116,8|0,0:0|0:0,0:0:0:0:
470,167,246399,1,4,0:3:0:0:
321,208,246572,1,4,0:3:0:0:
176,153,246746,1,8,1:2:0:0:
233,280,246919,5,0,3:0:0:0:
257,326,247006,1,0,3:0:0:0:
205,325,247092,2,0,P|135:339|67:395,1,116,4|0,0:3|0:0,0:0:0:0:
9,214,247439,1,8,0:0:0:0:
161,249,247613,1,4,0:3:0:0:
120,97,247786,6,0,P|140:43|197:7,1,116,2|4,0:0|0:3,0:0:0:0:
329,30,248133,1,8,1:2:0:0:
258,153,248306,1,4,0:3:0:0:
248,191,248393,1,0,0:0:0:0:
252,228,248480,2,0,P|289:294|338:332,1,116,4|0,0:3|0:0,0:0:0:0:
487,238,248826,2,0,P|410:222|342:239,1,116,8|2,1:2|0:0,0:0:0:0:
198,347,249173,5,8,0:3:0:0:
310,169,249346,1,4,0:3:0:0:
310,169,249433,1,4,0:3:0:0:
310,169,249519,1,8,1:2:0:0:
196,203,249694,1,4,0:3:0:0:
116,129,249867,1,6,1:2:0:0:
48,283,250040,6,0,P|4:331|-29:342,1,58,2|0,0:0|0:0,0:0:0:0:
24,242,250214,2,0,P|19:157|39:112,1,116,8|4,1:2|3:2,0:0:0:0:
198,347,250561,2,0,P|254:336|296:297,1,116,2|0,0:0|0:0,0:0:0:0:
382,303,250821,2,0,P|410:253|407:195,1,116,4|0,0:3|0:0,0:0:0:0:
341,59,251081,2,0,P|428:24|418:144,1,232,4|4,0:0|0:3,0:0:0:0:
336,191,251601,1,8,1:2:0:0:
281,0,251774,2,0,P|255:95|267:154,1,116,2|4,0:0|0:3,0:0:0:0:
155,265,252121,1,4,0:3:0:0:
256,111,252295,2,0,P|324:77|403:95,1,116,8|4,1:2|0:3,0:0:0:0:
417,348,252641,6,0,P|301:327|247:241,1,174,4|0,0:0|0:0,0:0:0:0:
231,202,252988,1,8,2:0:0:0:
68,360,253162,2,0,P|99:273|81:153,1,174,2|0,0:0|0:0,0:0:0:0:
74,154,253509,1,4,0:3:0:0:
211,37,253682,2,0,P|295:19|365:46,1,116,8|4,0:0|0:3,0:0:0:0:
408,66,253942,1,4,0:3:0:0:
440,87,254029,6,0,P|487:168|475:273,1,174,4|4,0:3|0:3,0:0:0:0:
441,333,254376,1,8,1:2:0:0:
348,147,254549,2,0,P|267:117|162:144,1,174,4|0,0:0|0:0,0:0:0:0:
156,145,254896,1,4,0:3:0:0:
264,253,255069,1,8,1:2:0:0:
166,234,255243,1,0,0:0:0:0:
44,351,255416,2,0,P|112:325|192:333,1,141.374993528366,4|0,0:0|0:0,0:0:0:0:
271,363,255763,5,8,0:2:0:0:
318,366,255850,1,8,0:0:0:0:
362,352,255936,1,8,0:0:0:0:
498,225,256110,1,8,1:2:0:0:
451,222,256197,1,0,0:0:0:0:
407,236,256283,1,4,0:3:0:0:
269,99,256457,1,8,1:2:0:0:
316,96,256544,1,0,0:0:0:0:
360,110,256630,1,4,0:3:0:0:
489,37,256803,5,4,0:0:0:0:
321,4,256977,1,2,0:0:0:0:
169,75,257150,1,8,0:0:0:0:
360,110,257324,2,0,P|420:140|459:180,1,94.2499956855776,4|0,0:0|0:0,0:0:0:0:
469,240,257670,5,4,0:3:0:0:
438,251,257757,1,4,0:3:0:0:
406,252,257843,1,4,0:3:0:0:
375,240,257930,1,4,0:3:0:0:
344,230,258017,1,4,0:3:0:0:
312,230,258103,1,4,0:3:0:0:
287,251,258190,2,0,P|262:315|271:365,1,94.2499956855776,4|2,0:0|0:0,0:0:0:0:
85,253,258537,5,8,1:2:0:0:
111,213,258624,1,0,0:0:0:0:
152,190,258711,2,0,P|220:174|265:193,1,94.2499956855776,4|0,3:2|0:0,0:0:0:0:
428,99,259058,5,8,1:2:0:0:
397,88,259145,1,4,0:3:0:0:
365,87,259231,1,0,0:0:0:0:
334,99,259318,1,8,0:0:0:0:
303,109,259405,1,8,3:0:0:0:
271,109,259491,1,4,3:0:0:0:
246,88,259578,5,6,0:3:0:0:
206,9,259751,1,0,0:0:0:0:
169,123,259925,1,8,0:0:0:0:
44,8,260098,1,4,0:3:0:0:
76,125,260272,1,2,0:0:0:0:
162,228,260445,1,4,0:3:0:0:
284,285,260618,1,8,1:2:0:0:
123,339,260792,1,4,0:3:0:0:
86,329,260878,1,0,0:0:0:0:
55,307,260965,2,0,P|65:238|84:189,1,94.2499956855776,4|0,0:3|0:0,0:0:0:0:
150,75,261312,5,8,0:0:0:0:
243,201,261485,1,4,0:3:0:0:
373,103,261659,2,0,P|393:190|378:227,1,94.2499956855776,2|4,0:0|0:3,0:0:0:0:
256,0,262006,2,0,P|236:87|251:124,1,94.2499956855776,8|4,1:2|0:3,0:0:0:0:
317,254,262352,5,4,0:3:0:0:
268,380,262526,1,0,0:0:0:0:
132,248,262699,1,8,0:0:0:0:
181,374,262873,1,4,0:3:0:0:
216,244,263046,1,2,0:0:0:0:
301,142,263220,1,4,0:3:0:0:
426,100,263393,1,8,1:2:0:0:
317,24,263566,1,4,0:3:0:0:
381,170,263740,2,0,P|383:232|366:294,1,94.2499956855776,4|0,0:3|0:0,0:0:0:0:
504,373,264087,5,8,0:0:0:0:
376,263,264260,1,4,0:3:0:0:
216,241,264433,2,0,P|192:309|194:354,1,94.2499956855776,2|4,0:0|0:3,0:0:0:0:
297,101,264780,2,0,P|321:169|319:214,1,94.2499956855776,8|4,1:2|0:3,0:0:0:0:
138,96,265127,6,0,P|201:36|289:20,1,141.374993528366,4|0,0:3|0:0,0:0:0:0:
341,26,265474,1,8,0:0:0:0:
43,354,265821,1,2,0:0:0:0:
168,273,265994,1,4,0:3:0:0:
44,150,266167,1,8,1:2:0:0:
185,193,266341,1,4,0:3:0:0:
221,204,266428,1,0,0:0:0:0:
259,205,266514,6,0,P|323:187|391:129,1,141.374993528366,4|0,0:3|0:0,0:0:0:0:
428,62,266861,1,8,0:0:0:0:
357,187,267035,2,0,P|347:243|354:326,1,141.374993528366,4|0,0:3|0:0,0:0:0:0:
372,353,267381,1,4,0:3:0:0:
268,298,267555,2,0,P|215:288|142:301,1,94.2499956855776,8|4,1:2|0:3,0:0:0:0:
73,359,267902,5,4,0:3:0:0:
112,222,268075,1,0,0:0:0:0:
235,366,268248,1,8,0:0:0:0:
209,231,268422,1,4,0:3:0:0:
56,346,268595,5,2,0:0:0:0:
95,209,268768,1,4,0:3:0:0:
218,353,268941,1,8,1:2:0:0:
192,218,269115,1,4,0:3:0:0:
101,113,269289,5,4,0:3:0:0:
254,150,269462,1,0,0:0:0:0:
189,12,269636,1,8,0:0:0:0:
323,105,269809,1,4,0:3:0:0:
329,0,269983,1,2,0:0:0:0:
404,121,270156,1,4,0:3:0:0:
440,26,270329,1,8,1:2:0:0:
471,168,270503,1,4,0:3:0:0:
472,212,270589,1,0,0:0:0:0:
452,255,270676,6,0,P|395:297|346:295,1,94.2499956855776,4|0,0:3|0:0,0:0:0:0:
102,301,271023,2,0,P|159:343|208:341,1,94.2499956855776,8|4,0:0|0:3,0:0:0:0:
360,384,271370,1,2,0:0:0:0:
301,237,271543,1,4,0:3:0:0:
172,152,271717,1,8,1:2:0:0:
330,152,271890,1,4,0:3:0:0:
366,141,271977,1,0,0:0:0:0:
394,116,272063,2,0,P|418:65|422:9,1,94.2499956855776,4|0,0:3|0:0,0:0:0:0:
271,0,272410,2,0,P|298:64|328:83,1,94.2499956855776,8|4,0:0|0:3,0:0:0:0:
470,220,272757,6,0,P|451:292|409:324,1,94.2499956855776,2|4,0:0|0:3,0:0:0:0:
207,272,273104,2,0,P|217:332|242:361,1,94.2499956855776,8|4,1:2|0:3,0:0:0:0:
470,220,273451,5,4,0:3:0:0:
403,95,273624,1,0,0:0:0:0:
307,255,273798,1,8,0:0:0:0:
314,113,273971,1,4,0:3:0:0:
445,202,274144,1,2,0:0:0:0:
241,172,274318,1,4,0:3:0:0:
341,25,274491,1,8,1:2:0:0:
332,275,274665,1,4,0:3:0:0:
241,139,274838,6,0,P|189:105|75:82,1,141.374993528366,6|0,1:2|0:0,0:0:0:0:
29,77,275185,1,8,1:2:0:0:
105,192,275358,2,0,P|116:242|114:255,1,47.1249978427888,4|0,3:2|0:0,0:0:0:0:
112,317,275532,1,2,0:0:0:0:
193,183,275705,5,0,0:0:0:0:
218,170,275792,1,4,0:3:0:0:
244,162,275878,1,8,0:0:0:0:
272,161,275965,1,0,0:0:0:0:
297,163,276052,2,0,P|366:181|461:163,1,141.374993528366,4|0,0:0|0:0,0:0:0:0:
458,166,276399,1,4,0:3:0:0:
464,4,276572,5,8,1:2:0:0:
434,82,276746,1,2,0:0:0:0:
316,43,276919,1,4,0:3:0:0:
194,51,277092,1,4,0:3:0:0:
89,112,277266,1,8,1:2:0:0:
137,0,277439,5,4,0:3:0:0:
174,21,277526,1,4,0:3:0:0:
194,51,277613,2,0,P|214:96|218:209,1,141.374993528366,4|0,0:0|0:0,0:0:0:0:
197,277,277959,1,8,2:0:0:0:
248,164,278133,2,0,P|303:112|358:102,1,94.2499956855776,2|4,0:0|3:0,0:0:0:0:
420,101,278480,1,4,0:3:0:0:
321,5,278653,1,8,0:0:0:0:
331,201,278826,5,4,0:3:0:0:
328,229,278913,1,4,0:3:0:0:
325,257,279000,1,8,1:2:0:0:
236,219,279173,1,4,0:3:0:0:
214,376,279347,5,8,1:2:0:0:
256,301,279520,1,4,0:3:0:0:
413,216,279694,5,8,1:2:0:0:
331,201,279867,1,4,3:0:0:0:
173,280,280040,5,8,1:2:0:0:
111,221,280214,1,4,0:3:0:0:
53,158,280387,1,8,1:2:0:0:
0,94,280561,1,4,0:3:0:0:
106,0,280734,5,8,1:2:0:0:
77,79,280907,1,4,0:3:0:0:
29,238,281081,5,8,1:2:0:0:
111,221,281254,1,4,3:0:0:0:
273,185,281428,5,8,1:2:0:0:
223,124,281601,1,4,0:3:0:0:
223,124,281688,1,4,0:3:0:0:
223,124,281774,2,0,P|285:110|352:165,1,141.374993528366,4|0,0:0|0:0,0:0:0:0:
379,219,282121,1,8,0:0:0:0:
436,16,282295,2,0,P|376:60|345:134,1,141.374993528366,4|0,0:0|0:0,0:0:0:0:
345,151,282641,5,4,0:3:0:0:
345,184,282728,1,4,0:3:0:0:
339,216,282815,1,4,0:3:0:0:
322,244,282902,1,4,0:3:0:0:
310,274,282988,1,4,0:3:0:0:
306,306,283075,1,4,0:3:0:0:
310,338,283162,5,4,0:0:0:0:
222,304,283335,1,2,0:0:0:0:
166,227,283509,1,0,1:0:0:0:
160,133,283682,1,6,0:0:0:0:
160,133,283855,1,0,0:0:0:0:
76,56,284029,5,2,0:0:0:0:
59,83,284115,1,2,0:0:0:0:
72,117,284202,1,8,0:3:0:0:
51,152,284289,1,8,0:3:0:0:
71,183,284376,1,8,0:3:0:0:
49,216,284462,1,0,1:0:0:0:
66,248,284549,1,6,0:0:0:0:
256,192,284636,12,0,290098,0:0:0:0:
