osu file format v14

[General]
AudioFilename: audio.mp3
AudioLeadIn: 0
PreviewTime: 64377
Countdown: 0
SampleSet: Soft
StackLeniency: 0.4
Mode: 0
LetterboxInBreaks: 0
WidescreenStoryboard: 1

[Editor]
Bookmarks: 101644,178487,190716
DistanceSpacing: 0.6
BeatDivisor: 4
GridSize: 32
TimelineZoom: 1.9

[Metadata]
Title:BLOODSHED
TitleUnicode:BLOODSHED
Artist:Akatsuki Records
ArtistUnicode:暁Records
Creator:Zelq
Version:Rolniczy's Another
Source:東方永夜抄 ~ Imperishable Night.
Tags:東方Project Touhou Stack 千年幻想郷 ~ History of the Moon Eirin Yagokoro Theme Comic Market 95 C95 Japanese Vocal Metal Rock ZUN LIMITED SINGLES season2 Night Mare -keitaro aidanbh123 Rolniczy Atalanta contagious Teach, Teach, Teach Me! Night_Mare Rolni
BeatmapID:2134428
BeatmapSetID:937624

[Difficulty]
HPDrainRate:6
CircleSize:4
OverallDifficulty:8
ApproachRate:9.2
SliderMultiplier:1.99999990463257
SliderTickRate:1

[Events]
//Background and Video events
0,0,"owowo.jpg",0,0
//Break Periods
2,114730,128069
//Storyboard Layer 0 (Background)
//Storyboard Layer 1 (Fail)
//Storyboard Layer 2 (Pass)
//Storyboard Layer 3 (Foreground)
//Storyboard Layer 4 (Overlay)
//Storyboard Sound Samples

[TimingPoints]
1247,382.165605095541,4,2,1,45,1,0
1247,-133.333333333333,4,2,1,45,0,0
7361,-117.647058823529,4,2,1,45,0,0
11947,-222.222222222221,4,2,1,45,0,0
13476,-83.3333333333333,4,2,1,60,0,0
25705,-100,4,2,1,40,0,0
37934,-90.9090909090909,4,2,1,50,0,0
48635,-90.9090909090909,4,2,1,60,0,0
50164,-111.111111111111,4,2,1,50,0,0
50928,-125,4,2,1,50,0,0
59336,-125,4,2,1,55,0,0
62393,-125,4,2,1,60,0,0
63731,-333.333333333333,4,2,1,60,0,0
65450,-66.6666666666667,4,2,1,60,0,0
68508,-58.8235294117647,4,2,1,60,0,0
69463,-66.6666666666667,4,2,1,60,0,0
70227,-50,4,2,1,60,0,0
70610,-52.6315789473684,4,2,1,60,0,0
71565,-58.8235294117647,4,2,1,60,0,0
75004,-52.6315789473684,4,2,1,60,0,0
77680,-66.6666666666667,4,2,1,60,0,0
80737,-58.8235294117647,4,2,1,60,0,0
81692,-66.6666666666667,4,2,1,60,0,0
82839,-71.4285714285714,4,2,1,60,0,0
83794,-66.6666666666667,4,2,1,60,0,0
87043,-52.6315789473684,4,2,1,60,0,0
89145,-66.6666666666667,4,2,1,60,0,0
89909,361.44578313253,4,2,1,50,1,0
89909,-111.111111111111,4,2,1,50,0,0
101475,-100,4,2,1,50,0,0
111619,379.746835443038,4,2,1,45,1,0
113149,394.736842105263,4,2,1,45,1,0
113149,-58.8235294117647,4,2,1,45,0,0
114530,-142.857142857143,4,2,1,50,0,0
116322,397.350993377483,4,2,1,50,1,0
116322,-166.666666666667,4,2,1,50,0,0
135394,-133.333333333333,4,2,1,50,0,0
138573,382.165605095541,4,2,1,55,1,0
141630,-66.6666666666667,4,2,1,60,0,0
144688,-58.8235294117647,4,2,1,60,0,0
145643,-66.6666666666667,4,2,1,60,0,0
146407,-50,4,2,1,60,0,0
146790,-52.6315789473684,4,2,1,60,0,0
147745,-58.8235294117647,4,2,1,60,0,0
151184,-52.6315789473684,4,2,1,60,0,0
153859,-62.5,4,2,1,50,0,0
157299,-71.4285714285714,4,2,1,50,0,0
159974,-62.5,4,2,1,50,0,0
163413,-66.6666666666667,4,2,1,50,0,0
178318,-90.9090909090909,4,2,1,45,0,0
189018,-66.6666666666667,4,2,1,60,0,0

[Colours]
Combo1 : 95,114,205
Combo2 : 233,75,142
Combo3 : 187,240,89
Combo4 : 255,211,79

[HitObjects]
0,192,1247,6,0,P|64:175|157:197,1,149.999998569489,2|2,0:2|0:2,0:0:0:0:
144,190,2011,1,2,0:2:0:0:
210,230,2202,1,2,0:2:0:0:
291,242,2393,1,2,0:2:0:0:
381,205,2584,1,0,0:2:0:0:
407,107,2775,2,0,P|344:99|284:239,1,224.999997854233,2|0,0:2|0:2,0:0:0:0:
50,217,3539,2,0,P|113:209|173:349,1,224.999997854233,2|0,0:2|0:2,0:0:0:0:
11,377,4304,6,0,P|6:325|10:300,1,74.9999992847443,2|0,0:2|0:0,0:0:0:0:
235,179,4686,1,2,0:2:0:0:
163,137,4877,2,0,B|150:178|150:178|167:231,1,74.9999992847443,2|0,0:2|0:0,0:0:0:0:
306,316,5259,1,2,0:2:0:0:
232,357,5450,1,2,0:2:0:0:
319,334,5641,2,0,B|331:297|331:297|326:252,1,74.9999992847443,2|0,0:2|0:0,0:0:0:0:
271,112,6024,5,2,0:2:0:0:
271,112,6215,5,2,0:2:0:0:
387,86,6406,1,2,0:2:0:0:
294,199,6597,5,2,0:2:0:0:
192,184,6788,1,2,0:2:0:0:
263,292,6979,6,0,L|325:291,3,37.4999996423721,2|0|0|0,0:2|0:0|0:2|0:0,0:0:0:0:
349,292,7361,6,0,P|336:333|334:383,1,84.9999975681305,0|0,1:2|0:0,0:0:0:0:
402,168,7743,2,0,P|399:125|386:85,1,84.9999975681305,2|0,1:2|0:2,0:0:0:0:
361,51,8030,1,0,0:0:0:0:
361,51,8125,1,2,1:2:0:0:
257,119,8317,1,0,0:2:0:0:
166,10,8508,1,2,1:2:0:0:
237,35,8699,1,2,0:2:0:0:
136,99,8890,6,0,L|41:87,1,84.9999975681305,2|0,1:2|0:0,0:0:0:0:
252,198,9272,2,0,L|167:187,1,84.9999975681305,0|2,1:2|0:2,0:0:0:0:
365,284,9654,1,2,1:2:0:0:
365,284,10036,1,2,1:2:0:0:
272,242,10227,5,0,0:2:0:0:
374,380,10418,1,2,1:2:0:0:
458,237,10610,5,2,0:2:0:0:
458,237,10705,1,2,0:2:0:0:
458,237,10801,2,0,P|458:197|459:146,1,84.9999975681305,2|2,1:2|0:2,0:0:0:0:
295,87,11183,5,2,1:2:0:0:
323,166,11374,1,0,0:2:0:0:
170,210,11565,5,2,1:2:0:0:
200,77,11756,1,0,0:2:0:0:
104,0,11947,6,0,P|97:54|86:280,1,269.999978885652,2|8,1:2|0:2,0:0:0:0:
86,269,13476,6,0,P|170:260|228:261,1,119.999990615845,4|8,1:2|1:2,0:0:0:0:
458,125,13858,2,0,P|398:123|338:115,1,119.999990615845,2|8,1:2|1:2,0:0:0:0:
252,116,14145,1,0,1:2:0:0:
246,100,14240,2,0,L|252:32,1,59.9999953079226,2|0,1:2|1:2,0:0:0:0:
236,194,14431,2,0,L|231:254,1,59.9999953079226,10|0,1:2|1:2,0:0:0:0:
114,84,14622,2,0,L|119:143,1,59.9999953079226,2|0,1:2|1:2,0:0:0:0:
131,264,14813,2,0,L|136:323,1,59.9999953079226,10|0,1:2|1:2,0:0:0:0:
5,149,15004,6,0,B|158:133|101:204|260:192,1,239.99998123169,2|0,1:2|1:2,0:0:0:0:
341,232,15482,1,0,1:2:0:0:
380,200,15578,2,0,L|374:118,1,59.9999953079226,10|0,1:2|1:2,0:0:0:0:
265,266,15769,2,0,B|241:326|241:326|266:399,1,119.999990615845,2|8,1:2|1:2,0:0:0:0:
512,188,16151,2,0,B|529:135|529:135|505:75,1,119.999990615845,0|8,1:2|1:2,0:0:0:0:
439,40,16438,1,0,1:2:0:0:
439,40,16533,5,0,1:2:0:0:
449,140,16724,1,8,1:2:0:0:
229,243,16915,1,0,1:2:0:0:
260,115,17106,1,8,1:2:0:0:
260,115,17202,1,0,1:2:0:0:
260,115,17297,2,0,L|391:97,1,119.999990615845,0|8,1:2|1:2,0:0:0:0:
110,226,17680,2,0,L|241:244,1,119.999990615845,0|8,1:2|1:2,0:0:0:0:
1,72,18062,5,0,1:2:0:0:
47,183,18253,5,8,1:2:0:0:
47,183,18348,1,0,1:2:0:0:
47,183,18444,1,0,1:2:0:0:
13,303,18635,5,8,1:2:0:0:
13,303,18731,1,0,1:2:0:0:
13,303,18826,1,0,1:2:0:0:
13,303,18922,1,0,0:0:0:0:
13,303,19017,1,8,1:2:0:0:
168,214,19208,6,0,L|88:230,1,59.9999953079226,0|0,1:2|1:2,0:0:0:0:
1,72,19399,2,0,L|81:88,1,59.9999953079226,10|2,1:2|1:2,0:0:0:0:
247,16,19590,6,0,P|253:94|256:153,1,119.999990615845,4|8,1:2|1:2,0:0:0:0:
290,344,19973,2,0,P|293:284|298:224,1,119.999990615845,2|8,1:2|1:2,0:0:0:0:
339,152,20259,1,0,1:2:0:0:
371,142,20355,2,0,L|447:151,1,59.9999953079226,2|0,1:2|1:2,0:0:0:0:
451,237,20546,2,0,L|391:244,1,59.9999953079226,10|0,1:2|1:2,0:0:0:0:
194,308,20737,2,0,L|134:300,1,59.9999953079226,2|0,1:2|1:2,0:0:0:0:
103,150,20928,2,0,L|162:142,1,59.9999953079226,10|0,1:2|1:2,0:0:0:0:
60,227,21119,6,0,P|20:176|115:60,1,239.99998123169,2|0,1:2|1:2,0:0:0:0:
191,42,21597,1,0,1:2:0:0:
193,75,21692,2,0,L|194:172,1,59.9999953079226,10|0,1:2|1:2,0:0:0:0:
229,221,21883,2,0,P|288:206|287:125,1,119.999990615845,2|8,1:2|1:2,0:0:0:0:
60,227,22266,2,0,P|116:239|133:293,1,119.999990615845,0|10,1:2|1:2,0:0:0:0:
120,372,22552,1,0,1:2:0:0:
120,372,22648,5,2,1:2:0:0:
354,321,22839,1,8,1:2:0:0:
182,183,23030,1,0,1:2:0:0:
219,305,23221,1,8,1:2:0:0:
219,305,23317,1,0,1:2:0:0:
219,305,23412,2,0,L|286:284,1,59.9999953079226,0|0,1:2|1:2,0:0:0:0:
417,165,23603,2,0,B|293:131|288:221|142:171,1,239.99998123169,10|8,1:2|1:2,0:0:0:0:
100,181,24081,1,2,1:2:0:0:
100,181,24176,1,2,1:2:0:0:
507,185,24559,5,10,1:2:0:0:
445,233,24750,5,10,1:2:0:0:
369,230,24941,5,10,1:2:0:0:
302,193,25132,5,8,1:2:0:0:
240,142,25323,5,8,0:2:0:0:
162,126,25418,1,8,0:2:0:0:
87,143,25514,1,8,0:2:0:0:
45,209,25610,1,0,0:2:0:0:
55,285,25705,2,0,P|135:255|148:148,1,199.999990463257,4|0,1:2|1:2,0:0:0:0:
0,28,26278,5,8,0:2:0:0:
141,5,26469,1,2,1:2:0:0:
157,88,26661,1,10,0:2:0:0:
157,88,26756,1,2,0:2:0:0:
157,88,26852,1,2,1:2:0:0:
7,114,27043,1,10,0:2:0:0:
77,64,27234,5,2,1:2:0:0:
77,64,27425,2,0,L|87:145,1,49.9999976158143,8|0,0:2|0:2,0:0:0:0:
173,282,27616,5,0,1:2:0:0:
173,282,27807,2,0,L|183:201,1,49.9999976158143,8|0,0:2|0:2,0:0:0:0:
288,47,27998,5,0,1:2:0:0:
288,47,28189,2,0,L|298:128,1,49.9999976158143,8|0,0:2|0:2,0:0:0:0:
399,299,28380,6,0,B|407:271|407:271|402:233,1,49.9999976158143,2|0,1:2|0:0,0:0:0:0:
326,241,28571,2,0,B|318:265|318:265|321:290,1,49.9999976158143,8|2,0:2|0:2,0:0:0:0:
437,374,28762,6,0,P|403:334|264:362,1,199.999990463257,2|0,1:2|1:2,0:0:0:0:
473,207,29336,1,10,0:2:0:0:
286,60,29527,1,2,1:2:0:0:
248,158,29718,2,0,L|318:147,1,49.9999976158143,10|2,0:2|0:2,0:0:0:0:
371,140,29909,1,2,1:2:0:0:
173,171,30100,1,10,0:2:0:0:
286,60,30291,5,2,1:2:0:0:
286,60,30482,2,0,P|282:98|274:141,1,49.9999976158143,8|0,0:2|0:2,0:0:0:0:
143,168,30673,5,0,1:2:0:0:
143,168,30864,2,0,P|113:192|78:217,1,49.9999976158143,8|0,0:2|0:2,0:0:0:0:
372,90,31055,5,0,1:2:0:0:
372,90,31246,2,0,P|358:125|340:165,1,49.9999976158143,8|0,0:2|0:0,0:0:0:0:
182,252,31438,6,0,P|147:268|106:284,1,49.9999976158143,2|2,1:2|0:2,0:0:0:0:
429,158,31629,2,0,P|416:179|403:200,1,49.9999976158143,10|2,0:2|0:2,0:0:0:0:
321,26,31820,6,0,P|288:124|318:251,1,199.999990463257,2|0,1:2|1:2,0:0:0:0:
66,147,32393,1,10,0:2:0:0:
91,272,32584,1,2,1:2:0:0:
217,247,32775,2,0,L|201:168,1,49.9999976158143,10|0,0:2|0:2,0:0:0:0:
192,126,32966,1,2,1:2:0:0:
192,126,33157,1,10,0:2:0:0:
296,31,33348,6,0,P|322:72|318:121,1,99.9999952316285,2|2,1:2|0:2,0:0:0:0:
308,159,33635,1,2,0:2:0:0:
308,159,33731,2,0,L|405:147,1,49.9999976158143,8|0,1:2|0:2,0:0:0:0:
168,41,33922,2,0,L|265:53,1,49.9999976158143,10|0,0:2|0:2,0:0:0:0:
35,186,34113,2,0,L|169:177,1,99.9999952316285,2|8,1:2|0:2,0:0:0:0:
308,159,34495,1,2,1:2:0:0:
308,159,34686,1,10,0:2:0:0:
447,292,34877,6,0,P|472:215|366:180,1,199.999990463257,2|0,1:2|1:2,0:0:0:0:
508,39,35450,1,10,0:2:0:0:
293,107,35641,1,2,1:2:0:0:
348,52,35832,1,10,0:2:0:0:
348,52,35928,1,0,0:2:0:0:
348,52,36024,1,2,1:2:0:0:
382,228,36215,1,8,0:2:0:0:
256,213,36406,6,0,L|324:221,1,49.9999976158143,2|0,1:2|0:2,0:0:0:0:
168,306,36597,5,8,0:2:0:0:
194,303,36692,1,0,0:2:0:0:
224,300,36788,2,0,L|276:293,1,49.9999976158143,0|0,1:2|0:2,0:0:0:0:
69,163,36979,5,8,0:2:0:0:
116,166,37075,1,0,0:2:0:0:
161,169,37170,2,0,L|232:176,1,49.9999976158143,0|0,1:2|0:2,0:0:0:0:
8,363,37361,5,8,0:2:0:0:
81,357,37457,1,0,0:2:0:0:
156,349,37552,2,0,P|187:290|131:241,1,149.999992847443,4|0,1:2|0:0,0:0:0:0:
133,241,37934,6,0,L|268:226,1,109.999998111725,4|0,1:2|0:0,0:0:0:0:
52,250,38317,1,0,1:2:0:0:
327,218,38508,2,0,L|335:148,1,54.9999990558624,10|2,0:2|0:2,0:0:0:0:
343,84,38699,5,2,1:2:0:0:
211,216,38890,1,10,0:2:0:0:
356,352,39081,1,2,1:2:0:0:
479,207,39272,1,10,0:2:0:0:
285,149,39463,5,2,1:2:0:0:
285,149,39654,2,0,L|292:234,1,54.9999990558624,8|0,0:2|0:2,0:0:0:0:
459,294,39845,5,0,1:2:0:0:
459,294,40036,2,0,L|466:209,1,54.9999990558624,8|0,0:2|0:2,0:0:0:0:
273,305,40228,5,0,1:2:0:0:
273,305,40419,2,0,L|358:298,1,54.9999990558624,8|0,0:2|0:2,0:0:0:0:
426,143,40610,6,0,L|341:136,1,54.9999990558624,2|2,1:2|0:2,0:0:0:0:
234,235,40801,2,0,L|179:239,1,54.9999990558624,10|2,0:2|0:2,0:0:0:0:
92,44,40992,6,0,P|164:39|190:168,1,219.99999622345,2|0,1:2|1:2,0:0:0:0:
338,16,41565,1,10,0:2:0:0:
298,175,41756,1,2,1:2:0:0:
491,133,41947,1,10,0:2:0:0:
450,121,42043,1,2,0:2:0:0:
409,110,42138,2,0,P|384:158|395:230,1,109.999998111725,2|10,1:2|0:2,0:0:0:0:
503,23,42520,5,2,1:2:0:0:
503,23,42711,2,0,L|410:38,1,54.9999990558624,8|0,0:2|0:2,0:0:0:0:
372,127,42903,5,0,1:2:0:0:
372,127,43094,2,0,L|279:142,1,54.9999990558624,8|0,0:2|0:2,0:0:0:0:
217,235,43285,5,0,1:2:0:0:
217,235,43476,2,0,L|124:250,1,54.9999990558624,8|0,0:2|0:2,0:0:0:0:
55,350,43667,6,0,L|-38:365,1,54.9999990558624,2|2,1:2|0:2,0:0:0:0:
279,237,43858,2,0,L|186:252,1,54.9999990558624,10|2,0:2|0:2,0:0:0:0:
0,114,44049,6,0,P|-16:187|100:206,1,219.99999622345,2|0,1:2|1:2,0:0:0:0:
0,1,44622,1,10,0:2:0:0:
141,142,44813,2,0,L|152:63,1,54.9999990558624,2|0,1:2|0:2,0:0:0:0:
163,10,45004,1,10,0:2:0:0:
319,223,45196,2,0,L|308:144,1,54.9999990558624,2|0,1:2|0:2,0:0:0:0:
297,91,45387,1,10,0:2:0:0:
428,217,45578,6,0,P|440:135|441:92,1,109.999998111725,2|10,1:2|0:2,0:0:0:0:
395,6,45864,1,2,0:2:0:0:
376,10,45960,2,0,L|383:89,1,54.9999990558624,2|0,1:2|0:2,0:0:0:0:
510,175,46151,2,0,L|513:119,1,54.9999990558624,10|0,0:2|0:2,0:0:0:0:
334,134,46342,2,0,P|254:155|226:217,1,109.999998111725,2|8,1:2|0:2,0:0:0:0:
142,327,46724,1,2,1:2:0:0:
142,327,46915,1,10,0:2:0:0:
21,156,47106,6,0,B|136:135|118:185|263:171,1,219.99999622345,2|0,1:2|1:2,0:0:0:0:
24,232,47680,1,10,0:2:0:0:
214,98,47871,1,2,1:2:0:0:
117,54,48062,1,10,0:2:0:0:
117,54,48157,1,0,0:2:0:0:
117,54,48253,1,2,1:2:0:0:
133,281,48444,2,0,L|143:211,1,54.9999990558624,10|0,0:2|0:2,0:0:0:0:
184,5,48635,5,12,1:2:0:0:
150,75,49017,5,4,1:2:0:0:
165,155,49399,5,4,1:2:0:0:
209,217,49782,5,8,1:2:0:0:
230,288,49877,1,8,0:2:0:0:
190,357,49973,1,8,0:2:0:0:
114,367,50068,1,8,0:2:0:0:
62,315,50164,2,0,P|128:258|227:256,1,179.999985923768,4|0,1:2|0:2,0:0:0:0:
500,86,50928,5,10,0:2:0:0:
422,70,51119,1,0,1:2:0:0:
350,99,51310,1,0,1:2:0:0:
281,141,51501,1,2,0:2:0:0:
207,125,51692,2,0,L|215:18,2,79.9999961853028,0|0|0,1:2|1:2|1:2,0:0:0:0:
509,384,52457,2,0,L|503:304,1,79.9999961853028,8|0,0:2|1:2,0:0:0:0:
415,203,52839,1,2,1:2:0:0:
415,203,53030,1,8,0:2:0:0:
314,202,53221,6,0,P|271:215|270:332,1,159.999992370606,2|0,1:2|1:2,0:0:0:0:
87,142,53794,2,0,P|130:155|131:272,1,159.999992370606,2|0,0:2|1:2,0:0:0:0:
236,65,54368,2,0,L|229:145,1,79.9999961853028,0|0,1:2|1:2,0:0:0:0:
182,5,54750,1,8,0:2:0:0:
343,129,54941,6,0,P|384:133|426:130,1,79.9999961853028,2|0,1:2|1:2,0:0:0:0:
499,115,55323,1,2,1:2:0:0:
298,203,55514,1,10,0:2:0:0:
273,274,55705,1,0,1:2:0:0:
310,346,55896,1,2,1:2:0:0:
431,280,56087,5,8,0:2:0:0:
431,280,56183,1,8,0:2:0:0:
431,280,56278,2,0,P|365:270|265:274,1,159.999992370606,2|0,1:2|1:2,0:0:0:0:
18,122,57043,2,0,L|120:109,1,79.9999961853028,10|0,0:2|1:2,0:0:0:0:
240,95,57425,1,2,1:2:0:0:
240,95,57616,1,2,0:2:0:0:
124,29,57807,6,0,L|143:214,1,159.999992370606,2|0,1:2|0:2,0:0:0:0:
311,144,58380,2,0,L|292:329,1,159.999992370606,2|0,0:2|1:2,0:0:0:0:
140,188,58954,2,0,L|151:280,1,79.9999961853028,2|8,1:2|0:2,0:0:0:0:
392,105,59336,5,4,1:2:0:0:
392,105,59527,1,0,0:2:0:0:
169,55,59718,5,0,1:2:0:0:
169,55,59909,1,0,0:2:0:0:
119,278,60100,5,0,1:2:0:0:
119,278,60291,1,0,0:2:0:0:
342,328,60482,5,2,1:2:0:0:
256,192,60673,1,2,0:2:0:0:
119,278,60864,6,0,P|120:326|128:377,1,79.9999961853028,2|0,1:2|0:2,0:0:0:0:
169,55,61246,2,0,P|122:56|71:64,1,79.9999961853028,4|0,1:2|0:2,0:0:0:0:
392,105,61629,2,0,P|392:58|384:7,1,79.9999961853028,2|2,1:2|1:2,0:0:0:0:
342,328,62011,1,8,0:2:0:0:
148,170,62202,1,8,0:2:0:0:
288,75,62393,5,12,1:2:0:0:
129,40,62680,5,8,1:2:0:0:
252,260,62966,5,8,1:2:0:0:
435,194,63253,5,8,1:2:0:0:
288,75,63539,6,0,L|286:141,1,39.9999980926514,8|0,1:2|0:2,0:0:0:0:
288,189,63731,2,0,P|343:207|388:58,1,254.999980058671,8|0,1:2|0:2,0:0:0:0:
377,56,65450,6,0,L|386:159,1,74.9999992847443,4|0,1:2|0:2,0:0:0:0:
392,207,65641,1,8,0:2:0:0:
133,56,65832,6,0,L|124:159,1,74.9999992847443,0|0,1:2|0:0,0:0:0:0:
113,248,66023,1,10,0:2:0:0:
268,0,66215,5,2,1:2:0:0:
224,124,66406,1,8,0:2:0:0:
280,234,66597,1,2,1:2:0:0:
222,384,66788,2,0,L|210:287,1,74.9999992847443,10|0,0:2|0:2,0:0:0:0:
341,137,66979,6,0,P|420:144|459:212,1,149.999998569489,0|8,1:2|0:2,0:0:0:0:
461,272,67266,1,2,1:2:0:0:
461,272,67361,1,0,1:2:0:0:
239,159,67552,1,10,0:2:0:0:
388,30,67743,2,0,L|372:190,1,149.999998569489,2|8,1:2|0:2,0:0:0:0:
96,357,68125,2,0,L|84:198,1,149.999998569489,2|8,1:2|0:2,0:0:0:0:
262,22,68508,6,0,P|217:134|98:91,1,254.999992704392,2|2,1:2|0:2,0:0:0:0:
94,57,68890,2,0,L|223:69,1,84.9999975681305,0|2,1:2|1:2,0:0:0:0:
328,250,69081,6,0,P|440:205|397:86,1,254.999992704392,10|2,0:2|0:2,0:0:0:0:
338,90,69463,2,0,L|325:205,1,74.9999992847443,10|0,0:2|0:2,0:0:0:0:
305,338,69654,1,2,1:2:0:0:
457,222,69845,1,10,0:2:0:0:
128,149,70036,1,2,1:2:0:0:
128,149,70227,6,0,B|167:167|167:167|149:262,1,99.9999952316285,10|2,0:2|0:2,0:0:0:0:
28,311,70418,2,0,B|-11:293|-11:293|7:198,1,99.9999952316285,2|0,1:2|0:2,0:0:0:0:
211,320,70610,2,0,L|356:347,1,94.9999929332736,10|0,0:2|0:2,0:0:0:0:
457,222,70801,6,0,B|477:171|477:171|464:119,1,94.9999929332736,2|0,1:2|1:2,0:0:0:0:
268,109,70992,2,0,B|248:160|248:160|260:211,1,94.9999929332736,10|0,0:2|1:2,0:0:0:0:
371,112,71183,5,10,1:2:0:0:
344,39,71278,1,8,0:2:0:0:
277,7,71374,1,8,0:2:0:0:
204,37,71469,1,8,0:2:0:0:
173,117,71565,6,0,P|237:125|336:102,1,84.9999975681305,4|0,1:2|0:2,0:0:0:0:
371,112,71756,1,8,0:2:0:0:
128,288,71947,6,0,P|192:280|291:303,1,84.9999975681305,0|0,1:2|0:0,0:0:0:0:
363,301,72138,1,10,0:2:0:0:
4,193,72329,5,2,1:2:0:0:
153,127,72520,1,8,0:2:0:0:
336,269,72711,1,2,1:2:0:0:
493,126,72903,2,0,L|378:142,1,84.9999975681305,10|0,0:2|0:2,0:0:0:0:
254,193,73094,6,0,P|333:136|306:40,1,169.999995136261,0|8,1:2|0:2,0:0:0:0:
284,16,73381,1,2,1:2:0:0:
284,16,73476,1,0,1:2:0:0:
224,270,73667,1,10,0:2:0:0:
40,101,73858,2,0,L|208:122,1,169.999995136261,2|8,0:2|0:2,0:0:0:0:
22,278,74240,1,2,1:2:0:0:
176,193,74431,1,10,0:2:0:0:
355,330,74622,1,2,1:2:0:0:
494,137,74813,5,10,0:2:0:0:
488,210,74909,1,2,0:2:0:0:
482,286,75004,2,0,L|474:183,1,94.9999929332736,2|0,1:2|0:2,0:0:0:0:
511,0,75196,2,0,L|503:94,1,94.9999929332736,10|0,0:2|0:2,0:0:0:0:
373,220,75387,6,0,P|314:219|241:161,1,94.9999929332736,2|2,1:2|0:2,0:0:0:0:
113,134,75578,2,0,P|160:132|204:149,1,94.9999929332736,10|2,0:2|0:2,0:0:0:0:
214,358,75769,2,0,L|226:264,1,94.9999929332736,2|2,1:2|1:2,0:0:0:0:
267,66,75960,5,10,0:2:0:0:
267,66,76055,1,0,0:2:0:0:
267,66,76151,1,2,1:2:0:0:
179,39,76342,5,12,0:2:0:0:
110,85,76533,5,0,1:2:0:0:
106,180,76724,5,12,0:2:0:0:
106,180,76820,1,0,0:2:0:0:
106,180,76915,1,2,1:2:0:0:
163,241,77106,5,12,0:2:0:0:
152,325,77297,5,8,0:2:0:0:
202,268,77393,1,8,0:2:0:0:
277,259,77489,1,8,0:2:0:0:
342,296,77584,1,8,0:2:0:0:
420,289,77680,6,0,L|424:200,1,74.9999992847443,4|0,1:2|0:2,0:0:0:0:
429,138,77871,1,8,0:2:0:0:
223,16,78062,6,0,L|228:105,1,74.9999992847443,0|0,1:2|0:0,0:0:0:0:
235,260,78253,1,10,0:2:0:0:
20,83,78444,5,2,1:2:0:0:
170,227,78635,1,8,0:2:0:0:
318,82,78826,1,2,1:2:0:0:
139,0,79017,2,0,L|149:97,1,74.9999992847443,10|0,0:2|0:2,0:0:0:0:
170,227,79208,6,0,P|241:229|283:170,1,149.999998569489,0|8,1:2|0:2,0:0:0:0:
295,95,79495,1,2,1:2:0:0:
295,95,79590,1,0,1:2:0:0:
326,310,79782,1,10,0:2:0:0:
512,187,79973,2,0,B|430:170|428:205|318:191,1,149.999998569489,2|8,1:2|0:2,0:0:0:0:
0,216,80355,2,0,B|82:199|84:234|194:220,1,149.999998569489,2|8,1:2|0:2,0:0:0:0:
342,290,80737,6,0,P|316:359|165:322,1,254.999992704392,2|2,1:2|0:2,0:0:0:0:
161,255,81119,2,0,L|261:241,1,84.9999975681305,0|2,1:2|1:2,0:0:0:0:
391,168,81310,6,0,P|365:99|214:136,1,254.999992704392,10|2,0:2|0:2,0:0:0:0:
291,226,81692,2,0,L|302:128,1,74.9999992847443,10|0,0:2|0:2,0:0:0:0:
313,33,81883,1,2,1:2:0:0:
412,326,82075,1,10,0:2:0:0:
503,205,82266,5,2,1:2:0:0:
391,168,82457,2,0,L|403:257,1,74.9999992847443,10|2,0:2|0:2,0:0:0:0:
412,326,82648,5,2,1:2:0:0:
299,359,82839,2,0,L|310:273,1,69.9999945259097,10|0,0:2|0:2,0:0:0:0:
322,209,83030,5,2,1:2:0:0:
221,158,83221,2,0,L|232:239,1,69.9999945259097,10|0,0:2|1:2,0:0:0:0:
239,303,83412,6,0,L|334:284,1,69.9999945259097,10|8,1:2|0:2,0:0:0:0:
503,205,83603,2,0,L|408:186,1,69.9999945259097,8|8,0:2|0:2,0:0:0:0:
126,107,83794,6,0,L|135:233,1,74.9999992847443,4|0,1:2|0:2,0:0:0:0:
139,273,83985,1,8,0:2:0:0:
152,35,84176,6,0,L|143:161,1,74.9999992847443,0|0,1:2|0:0,0:0:0:0:
135,295,84367,1,8,0:0:0:0:
240,1,84559,5,2,1:2:0:0:
335,214,84750,1,8,0:2:0:0:
134,320,84941,1,2,1:2:0:0:
25,113,85132,2,0,L|144:87,1,74.9999992847443,10|0,0:2|0:2,0:0:0:0:
154,151,85323,6,0,P|225:139|249:70,1,149.999998569489,0|8,1:2|0:2,0:0:0:0:
240,1,85610,1,2,1:2:0:0:
240,1,85705,1,0,1:2:0:0:
62,183,85896,1,10,0:2:0:0:
304,268,86087,2,0,L|282:96,1,149.999998569489,2|8,0:2|0:2,0:0:0:0:
223,319,86469,1,2,1:2:0:0:
418,364,86661,1,10,0:2:0:0:
466,174,86852,1,2,1:2:0:0:
268,130,87043,5,10,0:2:0:0:
284,205,87138,1,2,0:2:0:0:
302,280,87234,2,0,B|351:294|351:294|422:267,1,94.9999929332736,2|0,1:2|0:2,0:0:0:0:
191,216,87425,2,0,B|149:200|149:200|100:214,1,94.9999929332736,10|0,0:2|0:2,0:0:0:0:
26,352,87616,6,0,P|49:303|34:244,1,94.9999929332736,2|2,1:2|0:2,0:0:0:0:
12,97,87807,2,0,P|8:143|30:185,1,94.9999929332736,10|2,0:2|0:2,0:0:0:0:
191,216,87998,2,0,L|320:206,1,94.9999929332736,2|2,1:2|1:2,0:0:0:0:
472,201,88189,5,10,0:2:0:0:
472,201,88285,1,0,0:2:0:0:
472,201,88380,2,0,L|462:311,1,94.9999929332736,2|0,1:2|0:0,0:0:0:0:
265,328,88571,5,8,0:0:0:0:
247,300,88667,1,2,0:2:0:0:
242,256,88762,1,0,1:2:0:0:
252,209,88858,1,0,0:2:0:0:
287,171,88954,1,12,0:2:0:0:
344,156,89049,1,0,0:2:0:0:
404,168,89145,2,0,L|486:208,1,74.9999992847443,2|0,1:2|0:0,0:0:0:0:
265,328,89336,2,0,L|156:316,1,74.9999992847443,8|8,0:2|0:2,0:0:0:0:
160,36,89527,5,8,0:2:0:0:
236,24,89623,1,8,0:2:0:0:
294,75,89718,1,8,0:2:0:0:
299,149,89814,1,8,0:2:0:0:
252,209,89909,2,0,L|137:192,2,89.9999929618838,4|8|0,1:2|0:2|1:2,0:0:0:0:
395,256,90451,6,0,P|398:223|399:198,1,44.9999964809419,8|0,0:2|0:0,0:0:0:0:
401,129,90631,1,2,1:2:0:0:
401,129,90722,1,0,0:0:0:0:
401,129,90812,1,8,0:2:0:0:
401,129,90902,1,0,0:0:0:0:
401,129,90993,2,0,L|502:122,1,89.9999929618838,2|8,1:2|0:2,0:0:0:0:
510,85,91264,1,8,0:2:0:0:
510,85,91354,5,0,1:2:0:0:
379,23,91535,2,0,L|395:127,1,89.9999929618838,8|0,0:2|1:2,0:0:0:0:
444,309,91896,1,8,0:2:0:0:
444,309,91987,1,0,0:0:0:0:
444,309,92077,1,0,1:2:0:0:
444,309,92168,1,0,1:2:0:0:
444,309,92258,2,0,P|444:240|440:191,2,89.9999929618838,8|0|8,0:2|1:2|0:2,0:0:0:0:
279,357,92800,5,2,1:2:0:0:
238,286,92981,2,0,L|246:168,1,89.9999929618838,8|0,0:2|1:2,0:0:0:0:
255,92,93342,1,8,0:2:0:0:
255,92,93433,1,0,0:0:0:0:
255,92,93523,1,0,1:2:0:0:
255,92,93613,1,0,0:0:0:0:
255,92,93704,1,8,0:2:0:0:
255,92,93794,1,0,0:0:0:0:
255,92,93884,2,0,P|188:94|149:96,1,89.9999929618838,0|8,1:2|0:2,0:0:0:0:
115,98,94155,1,8,0:2:0:0:
115,98,94246,5,2,1:2:0:0:
102,181,94427,1,8,0:2:0:0:
102,181,94517,1,0,0:0:0:0:
102,181,94607,1,0,1:2:0:0:
82,263,94788,1,8,0:2:0:0:
82,263,94878,1,0,0:0:0:0:
82,263,94968,1,0,1:2:0:0:
62,340,95149,2,0,L|135:328,1,44.9999964809419,10|0,0:2|0:0,0:0:0:0:
197,247,95330,2,0,L|152:239,1,44.9999964809419,2|0,1:2|0:0,0:0:0:0:
9,174,95511,1,8,0:2:0:0:
70,167,95601,1,8,0:2:0:0:
129,159,95692,6,0,P|136:260|132:273,2,89.9999929618838,4|8|0,1:2|0:2|1:2,0:0:0:0:
97,68,96234,1,8,0:2:0:0:
217,161,96415,1,0,1:2:0:0:
217,161,96505,1,0,0:0:0:0:
217,161,96595,1,8,0:2:0:0:
217,161,96686,1,0,0:0:0:0:
217,161,96776,2,0,L|337:151,1,89.9999929618838,2|8,1:2|0:2,0:0:0:0:
347,152,97047,1,0,1:2:0:0:
347,152,97137,5,0,1:2:0:0:
252,257,97318,1,8,0:2:0:0:
252,257,97409,1,8,0:2:0:0:
252,257,97499,2,0,L|261:322,1,44.9999964809419,0|0,1:2|0:0,0:0:0:0:
359,357,97680,1,8,0:2:0:0:
359,357,97771,1,8,0:2:0:0:
359,357,97861,2,0,L|368:292,1,44.9999964809419,0|0,1:2|1:2,0:0:0:0:
423,234,98041,2,0,P|366:232|302:261,2,89.9999929618838,8|0|8,0:2|1:2|0:2,0:0:0:0:
247,254,98583,6,0,P|244:186|248:144,1,89.9999929618838,2|8,1:2|0:2,0:0:0:0:
256,123,98854,1,0,0:0:0:0:
256,123,98945,1,0,1:2:0:0:
155,196,99125,1,8,0:2:0:0:
155,196,99216,1,0,0:0:0:0:
155,196,99306,2,0,L|166:268,1,44.9999964809419,0|0,1:2|0:0,0:0:0:0:
232,332,99487,2,0,L|243:260,1,44.9999964809419,8|0,0:2|0:0,0:0:0:0:
326,192,99668,2,0,L|337:264,1,44.9999964809419,0|0,1:2|0:0,0:0:0:0:
406,339,99849,2,0,L|417:267,1,44.9999964809419,8|0,0:2|0:0,0:0:0:0:
483,103,100029,5,8,0:2:0:0:
442,122,100119,1,8,0:2:0:0:
415,157,100209,1,8,0:2:0:0:
407,201,100300,1,8,0:2:0:0:
420,244,100390,2,0,L|438:309,3,44.9999964809419,0|0|8|8,1:2|1:2|0:2|0:2,0:0:0:0:
252,320,100752,2,0,L|245:272,1,44.9999964809419,0|0,1:2|1:2,0:0:0:0:
326,192,100933,2,0,L|333:144,1,44.9999964809419,8|8,0:2|0:2,0:0:0:0:
208,48,101113,2,0,P|163:52|123:72,1,89.9999929618838,8|8,0:2|0:2,0:0:0:0:
98,101,101384,1,8,0:2:0:0:
98,101,101475,38,0,L|81:-32,1,99.9999952316285,4|8,1:2|0:2,0:0:0:0:
19,211,101836,1,2,1:2:0:0:
41,199,101926,1,0,0:0:0:0:
65,195,102016,1,8,0:2:0:0:
90,197,102107,1,2,0:2:0:0:
113,206,102198,1,0,1:2:0:0:
136,215,102288,1,2,0:2:0:0:
161,217,102378,1,8,0:2:0:0:
185,213,102468,1,2,0:2:0:0:
209,200,102559,1,0,1:2:0:0:
207,175,102649,1,0,0:0:0:0:
205,150,102739,1,8,0:2:0:0:
204,125,102830,1,2,0:2:0:0:
202,100,102921,1,0,1:2:0:0:
181,136,103011,1,0,0:0:0:0:
179,177,103101,1,8,0:2:0:0:
194,215,103192,1,2,0:2:0:0:
225,242,103282,1,0,1:2:0:0:
265,253,103372,1,2,0:2:0:0:
306,246,103463,1,8,0:2:0:0:
354,234,103553,1,0,0:0:0:0:
400,251,103643,1,0,1:2:0:0:
430,290,103734,1,2,0:2:0:0:
432,341,103824,2,0,B|352:326|352:326|313:351|313:351|231:338,1,199.999990463257,8|8,0:2|0:2,0:0:0:0:
0,301,104366,5,2,1:2:0:0:
43,322,104456,1,0,0:2:0:0:
91,310,104546,1,8,0:2:0:0:
118,269,104637,1,0,0:2:0:0:
113,221,104728,1,0,1:2:0:0:
91,177,104818,1,2,0:2:0:0:
103,129,104908,1,8,0:2:0:0:
144,102,104999,1,0,1:2:0:0:
192,107,105089,1,0,1:2:0:0:
227,141,105179,1,2,0:2:0:0:
273,159,105269,1,8,0:2:0:0:
323,159,105360,1,2,0:2:0:0:
369,140,105451,2,0,L|376:80,1,49.9999976158143,0|2,1:2|0:2,0:0:0:0:
278,5,105631,2,0,L|284:65,1,49.9999976158143,8|2,0:2|0:2,0:0:0:0:
280,270,105812,5,0,1:2:0:0:
296,243,105902,1,0,0:2:0:0:
301,213,105992,1,8,0:2:0:0:
293,183,106083,1,0,0:2:0:0:
273,159,106173,1,0,1:2:0:0:
246,144,106263,1,0,0:0:0:0:
215,142,106354,1,8,0:2:0:0:
186,153,106444,1,0,0:2:0:0:
164,175,106534,1,0,1:2:0:0:
153,198,106625,1,0,0:2:0:0:
152,225,106716,6,0,L|159:289,1,49.9999976158143,8|0,0:2|0:0,0:0:0:0:
393,219,106896,2,0,L|400:155,1,49.9999976158143,8|8,0:2|0:2,0:0:0:0:
241,51,107077,1,8,0:2:0:0:
245,109,107168,1,8,0:2:0:0:
248,166,107258,6,0,L|372:155,1,99.9999952316285,4|8,1:2|0:2,0:0:0:0:
32,48,107619,1,0,1:2:0:0:
78,65,107709,1,0,0:0:0:0:
112,101,107799,1,8,0:2:0:0:
126,148,107890,1,2,0:2:0:0:
118,197,107980,1,0,1:2:0:0:
96,241,108071,1,2,0:2:0:0:
101,290,108161,1,8,0:2:0:0:
131,329,108252,1,0,0:2:0:0:
178,347,108342,1,0,1:2:0:0:
227,343,108432,1,0,0:2:0:0:
277,340,108522,1,8,0:2:0:0:
327,337,108613,1,0,0:2:0:0:
377,333,108703,1,0,1:2:0:0:
397,288,108794,1,2,0:2:0:0:
385,241,108884,1,8,0:2:0:0:
347,211,108975,1,2,0:2:0:0:
296,217,109065,2,0,L|238:238,1,49.9999976158143,0|0,1:2|0:0,0:0:0:0:
157,133,109246,2,0,L|215:154,1,49.9999976158143,8|2,0:2|0:2,0:0:0:0:
338,102,109427,1,0,1:2:0:0:
338,102,109517,1,2,0:2:0:0:
338,102,109607,2,0,B|437:87|437:87|465:30|404:-9,1,199.999990463257,8|8,0:2|0:2,0:0:0:0:
312,185,110149,5,4,1:2:0:0:
349,179,110239,1,2,0:2:0:0:
386,173,110329,1,8,0:2:0:0:
423,167,110420,1,2,0:2:0:0:
460,161,110510,1,0,1:2:0:0:
450,210,110601,1,2,0:2:0:0:
441,259,110691,1,8,0:2:0:0:
432,308,110782,1,2,0:2:0:0:
423,357,110872,2,0,L|358:339,1,49.9999976158143,0|2,1:2|0:2,0:0:0:0:
198,300,111053,2,0,L|263:281,1,49.9999976158143,8|2,0:2|0:2,0:0:0:0:
360,198,111234,2,0,L|294:179,3,49.9999976158143,0|0|8|0,1:2|0:2|0:2|0:2,0:0:0:0:
96,154,111619,5,0,0:0:0:0:
153,171,111713,1,8,0:2:0:0:
198,142,111808,2,0,L|191:67,1,49.9999976158143,8|0,0:2|0:2,0:0:0:0:
423,31,111998,5,2,0:2:0:0:
373,14,112092,1,0,0:2:0:0:
321,43,112188,2,0,L|328:118,1,49.9999976158143,8|0,0:2|0:2,0:0:0:0:
452,240,112378,5,8,0:2:0:0:
402,219,112473,1,8,0:2:0:0:
337,213,112568,1,8,0:2:0:0:
268,235,112663,1,8,0:2:0:0:
204,276,112758,1,8,0:2:0:0:
130,287,112853,1,8,0:2:0:0:
52,270,112948,1,8,0:2:0:0:
0,207,113043,1,0,0:2:0:0:
9,124,113149,6,0,P|90:114|149:187,1,169.999995136261,12|0,0:2|0:0,0:0:0:0:
160,304,113445,6,0,L|193:126,1,169.999995136261,12|0,0:2|0:0,0:0:0:0:
261,44,113741,6,0,L|292:225,1,169.999995136261,12|0,0:2|0:0,0:0:0:0:
333,311,114037,6,0,P|387:214|351:141,1,169.999995136261,12|0,0:2|0:0,0:0:0:0:
171,38,114333,6,0,L|277:25,1,84.9999975681305,8|0,0:2|0:0,0:0:0:0:
512,0,114530,1,8,0:2:0:0:
8,191,128639,5,0,0:0:0:0:
8,191,128739,1,0,0:0:0:0:
8,191,128838,1,0,0:2:0:0:
8,191,128937,1,0,0:0:0:0:
8,191,129037,2,0,P|49:195|82:192,1,59.9999953079226,4|0,1:2|0:0,0:0:0:0:
142,171,129434,2,0,P|183:166|216:170,1,59.9999953079226,2|0,1:2|0:0,0:0:0:0:
271,195,129831,1,2,1:2:0:0:
333,239,130030,1,2,0:2:0:0:
407,253,130229,1,2,1:2:0:0:
478,215,130427,1,2,0:2:0:0:
492,140,130626,2,0,L|481:58,2,59.9999953079226,2|0|0,1:2|0:2|1:2,0:0:0:0:
478,215,131222,1,2,0:2:0:0:
404,193,131421,2,0,P|401:133|402:127,1,59.9999953079226,2|0,1:2|0:0,0:0:0:0:
342,32,131818,2,0,P|343:61|338:91,1,59.9999953079226,0|0,1:2|0:2,0:0:0:0:
281,159,132216,6,0,P|222:145|223:86,1,119.999990615845,2|2,1:2|1:2,0:0:0:0:
77,85,132812,2,0,P|132:75|140:19,1,119.999990615845,2|2,0:2|0:2,0:0:0:0:
164,151,133408,2,0,L|159:225,2,59.9999953079226,2|2|0,1:2|0:2|1:2,0:0:0:0:
58,250,134004,5,2,0:2:0:0:
135,235,134202,1,2,1:2:0:0:
152,312,134401,1,2,0:2:0:0:
77,332,134600,1,2,1:2:0:0:
77,332,134798,1,2,0:2:0:0:
212,259,134997,2,0,P|263:253|283:252,1,59.9999953079226,2|0,1:2|0:2,0:0:0:0:
0,124,135394,6,0,L|37:125,1,37.4999996423721,2|0,1:2|0:2,0:0:0:0:
114,185,135593,1,0,0:2:0:0:
139,183,135692,1,0,0:2:0:0:
168,182,135792,2,0,L|224:178,1,37.4999996423721,2|0,1:2|0:2,0:0:0:0:
330,102,135990,1,0,0:2:0:0:
298,100,136090,1,0,0:2:0:0:
263,97,136189,2,0,L|218:93,1,37.4999996423721,2|0,1:2|0:0,0:0:0:0:
333,183,136388,2,0,L|378:179,1,37.4999996423721,2|2,0:2|0:2,0:0:0:0:
446,106,136586,2,0,L|435:171,1,37.4999996423721,2|0,1:2|0:0,0:0:0:0:
450,255,136785,2,0,L|439:190,1,37.4999996423721,2|2,0:2|0:2,0:0:0:0:
364,101,136984,6,0,L|372:49,1,37.4999996423721,2|0,1:2|0:2,0:0:0:0:
271,186,137182,1,0,0:2:0:0:
268,150,137282,1,0,0:2:0:0:
265,109,137381,2,0,L|261:55,1,37.4999996423721,2|0,1:2|0:2,0:0:0:0:
268,217,137580,2,0,L|266:273,1,37.4999996423721,0|0,0:2|0:2,0:0:0:0:
87,165,137778,2,0,L|148:162,3,37.4999996423721,2|0|0|0,1:2|0:2|1:2|0:2,0:0:0:0:
165,284,138176,2,0,L|160:339,1,37.4999996423721,2|0,1:2|0:2,0:0:0:0:
81,344,138374,2,0,L|76:289,1,37.4999996423721,2|0,1:2|0:2,0:0:0:0:
63,203,138573,5,0,1:2:0:0:
140,181,138764,6,0,L|132:257,1,49.9999976158143,2|2,1:2|0:2,0:0:0:0:
216,178,138955,5,2,1:2:0:0:
283,216,139146,5,2,1:2:0:0:
335,280,139337,5,2,1:2:0:0:
413,295,139528,5,2,1:2:0:0:
481,258,139719,5,2,1:2:0:0:
496,183,139910,6,0,L|488:125,1,49.9999976158143,2|0,1:2|0:2,0:0:0:0:
421,33,140101,6,0,L|360:31,1,49.9999976158143,10|8,0:2|0:2,0:0:0:0:
222,104,140292,5,8,0:2:0:0:
255,108,140388,2,0,L|304:109,1,49.9999976158143,8|8,0:2|0:2,0:0:0:0:
418,180,140579,5,8,0:2:0:0:
385,182,140674,2,0,L|310:192,1,49.9999976158143,8|8,0:2|0:2,0:0:0:0:
45,193,140865,5,10,1:2:0:0:
45,193,141057,5,8,0:2:0:0:
45,193,141248,5,8,0:2:0:0:
0,128,141343,1,8,0:2:0:0:
24,55,141439,1,8,0:2:0:0:
99,35,141534,1,8,0:2:0:0:
161,86,141630,6,0,L|152:189,1,74.9999992847443,4|0,1:2|0:2,0:0:0:0:
147,239,141821,1,8,0:2:0:0:
378,56,142012,6,0,L|387:159,1,74.9999992847443,0|0,1:2|0:0,0:0:0:0:
398,248,142203,1,10,0:2:0:0:
243,0,142395,5,2,1:2:0:0:
310,145,142586,1,8,0:2:0:0:
176,243,142777,1,2,1:2:0:0:
289,384,142968,2,0,L|301:287,1,74.9999992847443,10|0,0:2|0:2,0:0:0:0:
170,137,143159,6,0,P|91:144|52:212,1,149.999998569489,0|8,1:2|0:2,0:0:0:0:
50,272,143446,1,2,1:2:0:0:
50,272,143541,1,0,1:2:0:0:
272,159,143732,1,10,0:2:0:0:
123,30,143923,2,0,L|139:190,1,149.999998569489,2|8,1:2|0:2,0:0:0:0:
415,357,144305,2,0,L|427:198,1,149.999998569489,2|8,1:2|0:2,0:0:0:0:
249,22,144688,6,0,P|294:134|413:91,1,254.999992704392,2|2,1:2|0:2,0:0:0:0:
417,57,145070,2,0,L|288:69,1,84.9999975681305,0|2,1:2|1:2,0:0:0:0:
183,250,145261,6,0,P|71:205|114:86,1,254.999992704392,10|2,0:2|0:2,0:0:0:0:
173,90,145643,2,0,L|186:205,1,74.9999992847443,10|0,0:2|0:2,0:0:0:0:
206,338,145834,1,2,1:2:0:0:
54,222,146025,1,10,0:2:0:0:
383,149,146216,1,2,1:2:0:0:
383,149,146407,6,0,B|344:167|344:167|362:262,1,99.9999952316285,10|2,0:2|0:2,0:0:0:0:
474,384,146598,2,0,B|516:359|516:359|495:271,1,99.9999952316285,2|0,1:2|0:2,0:0:0:0:
206,338,146790,2,0,L|61:365,1,94.9999929332736,10|0,0:2|0:2,0:0:0:0:
10,216,146981,6,0,B|-10:165|-10:165|3:113,1,94.9999929332736,2|0,1:2|1:2,0:0:0:0:
253,105,147172,2,0,B|273:156|273:156|261:207,1,94.9999929332736,10|0,0:2|1:2,0:0:0:0:
140,112,147363,5,10,1:2:0:0:
167,39,147458,1,8,0:2:0:0:
234,7,147554,1,8,0:2:0:0:
307,37,147649,1,8,0:2:0:0:
338,117,147745,6,0,P|274:125|175:102,1,84.9999975681305,4|0,1:2|0:2,0:0:0:0:
63,88,147936,1,8,0:2:0:0:
383,288,148127,6,0,P|319:280|220:303,1,84.9999975681305,0|0,1:2|0:0,0:0:0:0:
41,327,148318,1,10,0:2:0:0:
507,193,148509,5,2,1:2:0:0:
358,127,148700,1,8,0:2:0:0:
175,269,148891,1,2,1:2:0:0:
18,126,149083,2,0,L|133:142,1,84.9999975681305,10|0,0:2|0:2,0:0:0:0:
257,193,149274,6,0,P|178:136|205:40,1,169.999995136261,0|8,1:2|0:2,0:0:0:0:
227,16,149561,1,2,1:2:0:0:
227,16,149656,1,0,1:2:0:0:
287,270,149847,1,10,0:2:0:0:
471,101,150038,2,0,L|303:122,1,169.999995136261,2|8,0:2|0:2,0:0:0:0:
489,278,150420,1,2,1:2:0:0:
301,165,150611,1,10,0:2:0:0:
147,356,150802,1,2,1:2:0:0:
17,137,150993,5,10,0:2:0:0:
23,210,151089,1,2,0:2:0:0:
29,286,151184,2,0,L|37:183,1,94.9999929332736,2|0,1:2|0:2,0:0:0:0:
0,0,151376,2,0,L|8:94,1,94.9999929332736,10|0,0:2|0:2,0:0:0:0:
138,220,151567,6,0,P|197:219|270:161,1,94.9999929332736,2|2,1:2|0:2,0:0:0:0:
421,130,151758,2,0,P|374:128|330:145,1,94.9999929332736,10|2,0:2|0:2,0:0:0:0:
312,377,151949,2,0,L|293:282,1,94.9999929332736,2|2,1:2|1:2,0:0:0:0:
244,66,152140,5,10,0:2:0:0:
244,66,152235,1,0,0:2:0:0:
244,66,152331,1,2,1:2:0:0:
332,39,152522,5,12,0:2:0:0:
401,85,152713,5,0,1:2:0:0:
405,180,152904,5,12,0:2:0:0:
405,180,153000,1,0,0:2:0:0:
405,180,153095,1,10,1:2:0:0:
372,172,153190,1,8,0:2:0:0:
320,176,153286,1,8,0:2:0:0:
276,211,153381,1,8,0:2:0:0:
234,279,153477,1,4,1:2:0:0:
165,320,153573,1,0,0:0:0:0:
86,304,153668,1,0,0:0:0:0:
36,244,153764,1,0,0:2:0:0:
36,169,153859,6,0,L|247:191,1,159.999992370606,4|8,1:2|0:2,0:0:0:0:
512,63,154241,2,0,L|352:46,1,159.999992370606,2|8,1:2|0:2,0:0:0:0:
273,34,154527,1,2,0:2:0:0:
273,34,154623,2,0,L|279:133,1,79.9999961853028,2|0,1:2|0:2,0:0:0:0:
279,352,154815,2,0,L|285:248,1,79.9999961853028,10|0,0:2|0:2,0:0:0:0:
203,174,155006,2,0,L|107:164,1,79.9999961853028,2|0,1:2|0:2,0:0:0:0:
369,217,155197,2,0,L|465:207,1,79.9999961853028,10|0,0:2|0:2,0:0:0:0:
142,272,155388,6,0,P|43:216|150:69,1,319.999984741211,2|2,1:2|1:2,0:0:0:0:
229,67,155865,1,0,0:2:0:0:
229,67,155961,2,0,L|241:165,1,79.9999961853028,10|0,0:2|0:2,0:0:0:0:
162,0,156152,1,2,1:2:0:0:
312,116,156343,1,10,0:2:0:0:
176,260,156534,1,2,1:2:0:0:
37,125,156725,1,10,0:2:0:0:
150,79,156916,6,0,L|137:192,1,79.9999961853028,2|0,1:2|0:0,0:0:0:0:
100,284,157108,1,8,0:2:0:0:
100,284,157203,1,2,0:2:0:0:
100,284,157299,6,0,P|157:273|199:277,1,69.9999945259097,2|0,1:2|0:2,0:0:0:0:
242,324,157490,2,0,P|299:335|341:331,1,69.9999945259097,10|0,0:2|0:2,0:0:0:0:
416,220,157681,6,0,L|436:123,1,69.9999945259097,2|0,1:2|0:2,0:0:0:0:
435,316,157872,2,0,L|455:413,1,69.9999945259097,10|0,0:2|0:2,0:0:0:0:
328,227,158063,6,0,B|292:213|292:213|224:226,1,69.9999945259097,2|0,1:2|0:2,0:0:0:0:
100,284,158254,2,0,B|130:289|130:289|166:275,1,69.9999945259097,10|0,0:2|0:2,0:0:0:0:
263,12,158445,5,10,0:2:0:0:
263,12,158827,5,10,0:2:0:0:
96,80,159018,1,8,0:2:0:0:
96,80,159114,1,8,0:2:0:0:
96,80,159209,1,2,1:2:0:0:
155,245,159401,1,10,0:2:0:0:
305,183,159592,5,12,0:2:0:0:
255,383,159783,1,8,0:2:0:0:
483,208,159974,6,0,L|278:196,1,159.999992370606,6|8,1:2|0:2,0:0:0:0:
0,316,160356,2,0,L|205:328,1,159.999992370606,2|8,1:2|0:2,0:0:0:0:
240,328,160643,1,2,0:2:0:0:
248,320,160738,2,0,L|251:207,1,79.9999961853028,2|0,1:2|0:2,0:0:0:0:
144,57,160929,2,0,L|147:170,1,79.9999961853028,10|0,0:2|0:2,0:0:0:0:
321,142,161120,2,0,L|208:139,1,79.9999961853028,2|0,1:2|0:2,0:0:0:0:
58,246,161311,2,0,L|171:243,1,79.9999961853028,10|0,0:2|0:2,0:0:0:0:
450,234,161502,6,0,B|283:183|350:278|121:257,1,319.999984741211,2|2,1:2|1:2,0:0:0:0:
58,246,161980,1,0,0:2:0:0:
27,225,162076,2,0,L|32:142,1,79.9999961853028,10|0,0:2|0:2,0:0:0:0:
138,345,162267,1,2,1:2:0:0:
279,203,162458,1,8,0:2:0:0:
159,85,162649,1,2,1:2:0:0:
27,225,162840,1,8,0:2:0:0:
27,225,162936,1,2,0:2:0:0:
27,225,163031,6,0,L|32:142,1,79.9999961853028,2|0,1:2|0:2,0:0:0:0:
232,310,163222,1,10,0:2:0:0:
195,320,163318,1,2,0:2:0:0:
152,309,163413,6,0,L|146:233,1,74.9999992847443,2|0,1:2|0:2,0:0:0:0:
286,130,163604,2,0,L|280:206,1,74.9999992847443,10|0,0:2|0:2,0:0:0:0:
120,63,163795,6,0,L|220:53,1,74.9999992847443,2|0,1:2|0:0,0:0:0:0:
406,30,163987,2,0,L|396:114,1,74.9999992847443,8|2,0:2|0:2,0:0:0:0:
394,296,164178,6,0,L|294:286,1,74.9999992847443,2|0,1:2|0:2,0:0:0:0:
146,234,164370,2,0,L|156:150,1,74.9999992847443,10|0,0:2|0:2,0:0:0:0:
194,55,164560,5,2,1:2:0:0:
242,34,164655,1,2,0:2:0:0:
292,49,164751,1,10,0:2:0:0:
320,92,164846,1,10,0:2:0:0:
333,142,164942,1,2,1:2:0:0:
343,185,165037,1,2,1:2:0:0:
379,211,165133,1,2,1:2:0:0:
423,218,165229,1,2,1:2:0:0:
465,205,165324,5,10,0:2:0:0:
430,175,165420,1,10,0:2:0:0:
385,172,165515,1,10,0:2:0:0:
343,185,165611,1,10,0:2:0:0:
310,225,165706,5,10,0:2:0:0:
262,268,165802,5,10,0:2:0:0:
187,259,165897,5,10,0:2:0:0:
164,183,165993,5,10,0:2:0:0:
213,113,166088,6,0,L|223:246,1,74.9999992847443,4|0,1:2|0:2,0:0:0:0:
132,367,166280,2,0,L|142:239,1,74.9999992847443,10|0,0:2|0:2,0:0:0:0:
345,230,166471,2,0,P|431:266|456:344,1,149.999998569489,2|8,1:2|0:2,0:0:0:0:
507,384,166757,1,2,0:2:0:0:
507,384,166853,6,0,L|503:282,1,74.9999992847443,2|0,1:2|0:2,0:0:0:0:
410,86,167044,2,0,L|406:188,1,74.9999992847443,10|0,0:2|0:2,0:0:0:0:
271,316,167235,2,0,P|215:243|258:184,1,149.999998569489,2|10,1:2|0:2,0:0:0:0:
308,173,167522,1,0,0:2:0:0:
308,173,167617,6,0,L|151:155,1,149.999998569489,2|8,1:2|0:2,0:0:0:0:
59,144,167904,1,2,0:2:0:0:
33,169,167999,2,0,L|47:258,1,74.9999992847443,2|0,1:2|0:2,0:0:0:0:
135,361,168190,2,0,L|149:272,1,74.9999992847443,10|0,0:2|0:2,0:0:0:0:
185,59,168381,1,2,1:2:0:0:
108,209,168572,1,8,0:2:0:0:
244,313,168764,1,2,1:2:0:0:
307,171,168955,1,10,0:2:0:0:
307,171,169050,1,0,0:2:0:0:
307,171,169146,6,0,L|186:159,1,74.9999992847443,2|0,1:2|0:0,0:0:0:0:
353,28,169337,1,8,0:2:0:0:
353,28,169432,1,2,0:2:0:0:
353,28,169528,6,0,L|232:40,1,74.9999992847443,2|0,1:2|0:2,0:0:0:0:
465,171,169720,1,10,0:2:0:0:
465,171,169815,1,0,0:2:0:0:
465,171,169911,6,0,L|344:159,1,74.9999992847443,2|0,1:2|0:0,0:0:0:0:
304,189,170101,2,0,L|183:177,1,74.9999992847443,8|2,0:2|0:2,0:0:0:0:
42,141,170292,6,0,L|163:129,1,74.9999992847443,2|0,1:2|0:2,0:0:0:0:
217,277,170483,2,0,L|316:267,1,74.9999992847443,10|0,0:2|0:2,0:0:0:0:
486,186,170674,5,2,1:2:0:0:
410,164,170865,1,8,0:2:0:0:
258,205,171057,5,4,1:2:0:0:
328,174,171248,1,8,0:2:0:0:
328,174,171343,1,2,0:2:0:0:
328,174,171439,1,4,1:2:0:0:
217,277,171630,5,8,0:2:0:0:
166,335,171821,5,4,1:2:0:0:
88,334,171916,1,2,0:2:0:0:
33,281,172012,1,10,0:2:0:0:
29,206,172108,1,2,0:2:0:0:
77,149,172203,6,0,L|259:127,1,149.999998569489,4|10,1:2|0:2,0:0:0:0:
346,352,172585,2,0,L|528:330,1,149.999998569489,2|8,1:2|0:2,0:0:0:0:
503,257,172872,1,2,0:2:0:0:
503,257,172967,2,0,L|515:162,1,74.9999992847443,2|0,1:2|0:2,0:0:0:0:
356,120,173158,2,0,L|365:194,1,74.9999992847443,10|0,0:2|0:2,0:0:0:0:
215,314,173350,2,0,L|227:219,1,74.9999992847443,2|0,1:2|0:2,0:0:0:0:
68,177,173541,2,0,L|77:251,1,74.9999992847443,10|0,0:2|0:2,0:0:0:0:
0,384,173732,6,0,P|37:304|-10:74,1,299.999997138977,2|2,1:2|1:2,0:0:0:0:
12,25,174209,1,0,0:2:0:0:
12,25,174305,2,0,L|152:50,1,74.9999992847443,10|0,0:2|0:2,0:0:0:0:
218,66,174496,1,2,1:2:0:0:
80,141,174687,1,8,0:2:0:0:
312,290,174878,1,2,1:2:0:0:
282,142,175069,1,10,0:2:0:0:
148,336,175260,5,2,1:2:0:0:
183,268,175451,1,8,0:2:0:0:
183,268,175547,1,2,0:2:0:0:
183,268,175643,1,2,1:2:0:0:
146,181,175834,5,10,0:2:0:0:
146,181,175929,1,0,0:2:0:0:
146,181,176025,2,0,L|155:81,1,74.9999992847443,2|0,1:2|0:0,0:0:0:0:
96,257,176216,2,0,L|105:357,1,74.9999992847443,10|2,0:2|0:2,0:0:0:0:
310,175,176407,2,0,L|319:75,1,74.9999992847443,2|2,1:2|0:2,0:0:0:0:
260,251,176598,2,0,L|269:351,1,74.9999992847443,10|0,0:2|0:2,0:0:0:0:
468,336,176789,6,0,P|488:250|454:185,1,149.999998569489,2|10,1:2|0:2,0:0:0:0:
438,170,177076,1,2,0:2:0:0:
438,170,177171,1,2,1:2:0:0:
332,303,177362,1,10,0:2:0:0:
339,328,177458,1,2,0:2:0:0:
347,358,177553,1,10,1:2:0:0:
367,324,177649,1,10,0:2:0:0:
370,269,177744,1,10,0:2:0:0:
337,210,177840,1,10,0:2:0:0:
267,193,177936,2,0,P|173:211|128:82,1,224.999997854233,14|0,0:2|0:0,0:0:0:0:
99,86,178318,6,0,L|87:205,2,109.999998111725,4|8|0,1:2|0:2|1:2,0:0:0:0:
229,305,178891,1,0,0:2:0:0:
229,305,178987,1,2,0:2:0:0:
229,305,179082,1,0,1:2:0:0:
169,177,179273,2,0,L|158:271,1,54.9999990558624,8|0,0:2|0:0,0:0:0:0:
149,324,179464,1,0,1:2:0:0:
43,181,179655,5,8,0:2:0:0:
91,172,179751,1,2,0:2:0:0:
138,165,179846,2,0,L|133:229,1,54.9999990558624,0|0,1:2|0:0,0:0:0:0:
59,371,180037,2,0,L|70:250,1,109.999998111725,8|0,0:2|1:2,0:0:0:0:
41,95,180324,1,0,0:0:0:0:
41,95,180420,2,0,L|105:100,1,54.9999990558624,8|2,0:2|0:2,0:0:0:0:
247,174,180611,2,0,L|126:163,2,109.999998111725,0|8|0,1:2|0:2|1:2,0:0:0:0:
403,189,181184,1,8,0:2:0:0:
198,278,181375,6,0,B|312:266|312:312|463:325,2,219.99999622345,4|0|0,1:2|1:2|1:2,0:0:0:0:
323,205,182330,1,8,0:2:0:0:
135,142,182522,1,0,1:2:0:0:
194,62,182713,1,8,0:2:0:0:
194,62,182808,1,0,0:2:0:0:
194,62,182904,2,0,L|200:215,1,109.999998111725,0|8,1:2|0:2,0:0:0:0:
47,294,183286,2,0,L|53:141,1,109.999998111725,0|8,1:2|0:2,0:0:0:0:
54,134,183572,1,2,0:2:0:0:
54,134,183668,1,0,1:2:0:0:
175,271,183859,5,8,0:2:0:0:
175,271,183955,1,2,0:2:0:0:
175,271,184050,1,0,1:2:0:0:
198,289,184146,1,2,1:2:0:0:
255,300,184241,1,0,1:2:0:0:
315,276,184337,1,2,1:2:0:0:
333,204,184432,6,0,L|313:64,2,109.999998111725,4|8|0,1:2|0:2|1:2,0:0:0:0:
444,101,185006,1,8,0:2:0:0:
247,24,185197,2,0,B|225:72|225:72|242:164,1,109.999998111725,0|8,1:2|0:2,0:0:0:0:
370,293,185579,1,0,1:2:0:0:
283,333,185770,2,0,L|296:259,1,54.9999990558624,8|2,0:2|0:2,0:0:0:0:
315,196,185961,5,0,1:2:0:0:
98,300,186152,1,8,0:2:0:0:
98,300,186248,1,0,0:0:0:0:
98,300,186343,1,0,1:2:0:0:
48,162,186534,5,8,0:2:0:0:
265,266,186725,1,0,1:2:0:0:
265,266,186821,1,0,0:0:0:0:
265,266,186916,1,8,0:2:0:0:
334,96,187108,5,0,1:2:0:0:
143,195,187299,2,0,L|134:124,1,54.9999990558624,8|2,0:2|0:2,0:0:0:0:
109,61,187490,6,0,P|182:60|227:116,1,109.999998111725,0|8,1:2|0:2,0:0:0:0:
443,234,187872,2,0,P|396:261|342:253,1,109.999998111725,0|8,1:2|0:2,0:0:0:0:
297,237,188158,1,0,0:0:0:0:
297,237,188254,2,0,L|288:163,1,54.9999990558624,0|0,1:2|0:0,0:0:0:0:
275,318,188445,2,0,L|266:392,1,54.9999990558624,8|0,0:2|0:0,0:0:0:0:
77,273,188636,2,0,L|151:265,1,54.9999990558624,0|0,1:2|0:0,0:0:0:0:
442,168,188827,5,8,0:2:0:0:
364,158,188923,1,2,0:2:0:0:
285,148,189018,2,0,B|247:193|247:193|309:370,1,224.999997854233,4|0,1:2|0:2,0:0:0:0:
434,266,189401,2,0,B|472:221|472:221|410:44,1,224.999997854233,4|0,1:2|0:2,0:0:0:0:
292,48,189783,6,0,L|302:157,1,74.9999992847443,4|0,1:2|0:2,0:0:0:0:
137,274,189974,1,8,0:2:0:0:
154,187,190069,1,8,0:2:0:0:
171,102,190165,2,0,L|184:21,1,74.9999992847443,0|0,1:2|0:2,0:0:0:0:
52,310,190356,6,0,L|40:235,1,74.9999992847443,8|0,0:2|0:0,0:0:0:0:
0,0,190547,1,12,1:2:0:0:
