osu file format v14

[General]
AudioFilename: audio.mp3
AudioLeadIn: 0
PreviewTime: 64377
Countdown: 0
SampleSet: Soft
StackLeniency: 0.7
Mode: 0
LetterboxInBreaks: 0
WidescreenStoryboard: 1

[Editor]
Bookmarks: 101644
DistanceSpacing: 1
BeatDivisor: 2
GridSize: 32
TimelineZoom: 1.299999

[Metadata]
Title:BLOODSHED
TitleUnicode:BLOODSHED
Artist:Akatsuki Records
ArtistUnicode:暁Records
Creator:Zelq
Version:Night Mare's Normal
Source:東方永夜抄 ~ Imperishable Night.
Tags:東方Project Touhou Stack 千年幻想郷 ~ History of the Moon Eirin Yagokoro Theme Comic Market 95 C95 Japanese Vocal Metal Rock ZUN LIMITED SINGLES season2 Night Mare -keitaro aidanbh123 Rolniczy Atalanta contagious Teach, Teach, Teach Me! Night_Mare Rolni
BeatmapID:1991638
BeatmapSetID:937624

[Difficulty]
HPDrainRate:4
CircleSize:3.1
OverallDifficulty:4
ApproachRate:5
SliderMultiplier:1.1
SliderTickRate:1

[Events]
//Background and Video events
0,0,"owowo.jpg",0,0
//Break Periods
//Storyboard Layer 0 (Background)
//Storyboard Layer 1 (Fail)
//Storyboard Layer 2 (Pass)
//Storyboard Layer 3 (Foreground)
//Storyboard Layer 4 (Overlay)
//Storyboard Sound Samples

[TimingPoints]
1247,382.165605095541,4,2,1,45,1,0
1247,-100,4,2,1,45,0,0
13476,-100,4,2,1,60,0,0
25705,-100,4,2,1,40,0,0
37934,-100,4,2,1,50,0,0
48635,-100,4,2,1,60,0,0
50164,-100,4,2,1,50,0,0
59336,-100,4,2,1,55,0,0
62393,-100,4,2,1,60,0,0
63922,-100,4,2,1,5,0,0
65450,-100,4,2,1,60,0,1
89909,361.44578313253,4,2,1,50,1,0
89909,-105.732484076433,4,2,1,50,0,0
111619,379.746835443038,4,2,1,45,1,0
111619,-100.636942675159,4,2,1,45,0,0
113149,394.736842105263,4,2,1,45,1,0
113149,-96.8152866242038,4,2,1,45,0,0
113445,-96.8152866242038,4,2,1,60,0,0
114333,-96.8152866242038,4,2,1,50,0,0
114727,-96.8152866242038,4,2,1,5,0,0
116322,397.350993377483,4,2,1,50,1,0
116322,-96.1783439490446,4,2,1,50,0,0
138573,382.165605095541,4,2,1,55,1,0
141630,-100,4,2,1,60,0,1
153859,-100,4,2,1,50,0,0
178318,-100,4,2,1,45,0,0
189018,-100,4,2,1,60,0,0

[Colours]
Combo1 : 196,230,214
Combo2 : 199,184,241
Combo3 : 255,170,170
Combo4 : 251,251,174

[HitObjects]
324,283,1247,6,0,P|324:337|297:384,1,110,2|2,0:2|0:2,0:0:0:0:
216,310,2011,2,0,L|102:279,1,110,2|2,0:2|0:2,0:0:0:0:
0,270,2775,2,0,P|26:222|26:168,1,110,2|0,0:2|0:0,0:0:0:0:
13,114,3348,1,0,0:2:0:0:
13,114,3539,2,0,P|60:140|114:140,1,110,2|0,0:2|0:2,0:0:0:0:
203,75,4304,5,2,0:2:0:0:
295,134,4686,1,2,0:2:0:0:
295,134,4877,2,0,P|308:74|323:27,1,110,2|2,0:2|0:2,0:0:0:0:
430,0,5641,1,2,0:2:0:0:
511,74,6024,5,2,0:2:0:0:
511,74,6215,2,0,P|494:126|482:180,1,110,2|2,0:2|0:2,0:0:0:0:
507,287,6979,1,2,0:2:0:0:
426,361,7361,6,0,P|372:361|325:334,1,110,0|2,1:2|1:2,0:0:0:0:
295,228,8125,2,0,P|248:200|194:200,1,110,2|2,1:2|1:2,0:0:0:0:
100,260,8890,2,0,P|100:206|73:158,1,110,2|0,1:2|1:2,0:0:0:0:
28,126,9463,1,2,0:2:0:0:
24,122,9654,2,0,P|75:110|130:93,1,110,2|2,1:2|1:2,0:0:0:0:
211,19,10418,5,2,1:2:0:0:
288,96,10801,1,2,1:2:0:0:
354,8,11183,2,0,B|387:15|409:8|409:8|428:27|456:34,1,110,2|2,1:2|1:2,0:0:0:0:
504,60,11756,1,0,0:2:0:0:
504,60,11947,1,2,1:2:0:0:
406,230,12711,5,2,0:2:0:0:
213,184,13476,5,4,1:2:0:0:
241,78,13858,1,2,1:2:0:0:
163,0,14240,2,0,P|108:0|61:26,1,110,2|2,1:2|1:2,0:0:0:0:
19,61,14813,1,10,1:2:0:0:
14,58,15004,2,0,P|42:105|42:159,1,110,2|0,1:2|1:2,0:0:0:0:
0,260,15769,2,0,P|0:314|26:361,1,110,2|0,1:2|1:2,0:0:0:0:
123,302,16533,5,0,1:2:0:0:
236,305,16915,2,0,P|236:250|209:204,2,110,0|0|0,1:2|1:2|1:2,0:0:0:0:
129,280,18062,5,0,1:2:0:0:
98,172,18444,2,0,P|124:124|171:97,1,110,0|0,1:2|1:2,0:0:0:0:
280,124,19208,1,0,1:2:0:0:
358,200,19590,5,4,1:2:0:0:
463,170,19973,1,2,1:2:0:0:
488,63,20355,2,0,P|435:48|381:34,1,110,2|2,1:2|1:2,0:0:0:0:
327,26,20928,1,10,1:2:0:0:
321,22,21119,2,0,P|263:34|214:51,1,110,2|0,1:2|1:2,0:0:0:0:
117,100,21883,2,0,P|117:45|90:-1,1,110,2|0,1:2|1:2,0:0:0:0:
19,83,22648,6,0,B|-2:160|68:168|42:261,1,165,2|8,1:2|1:2,0:0:0:0:
127,316,23603,2,0,P|154:268|154:215,1,110,10|8,1:2|1:2,0:0:0:0:
143,160,24176,1,2,1:2:0:0:
228,90,24559,2,0,L|281:104,1,55,10|10,1:2|1:2,0:0:0:0:
332,83,24941,2,0,L|385:97,1,55,10|8,1:2|1:2,0:0:0:0:
436,76,25323,2,0,L|450:129,1,55,8|8,0:2|0:2,0:0:0:0:
494,163,25705,6,0,P|493:218|466:263,1,110,4|0,1:2|1:2,0:0:0:0:
363,232,26469,1,2,1:2:0:0:
358,237,26661,2,0,P|356:291|383:338,1,110,10|10,0:2|0:2,0:0:0:0:
431,366,27234,2,0,P|376:377|319:382,1,110,2|0,1:2|1:2,0:0:0:0:
238,310,27998,1,0,1:2:0:0:
155,382,28380,1,2,1:2:0:0:
52,346,28762,6,0,B|23:321|17:279|17:279|26:257|52:247,1,110,2|0,1:2|1:2,0:0:0:0:
132,198,29527,2,0,L|120:134,1,55,0|10,0:0|0:0,0:0:0:0:
86,102,29909,2,0,L|97:38,1,55,0|10,0:0|0:0,0:0:0:0:
132,7,30291,2,0,P|187:-3|244:-8,1,110,2|0,1:2|1:2,0:0:0:0:
341,35,31055,1,0,1:2:0:0:
281,127,31438,1,2,1:2:0:0:
314,231,31820,6,0,P|359:259|413:259,1,110,2|0,1:2|1:2,0:0:0:0:
503,194,32584,2,0,L|514:130,1,55,2|10,1:2|0:2,0:0:0:0:
465,113,32966,2,0,L|476:49,1,55,2|10,1:2|0:2,0:0:0:0:
484,5,33348,1,2,1:2:0:0:
375,26,33731,2,0,P|367:80|355:134,1,110,8|2,1:2|1:2,0:0:0:0:
291,223,34495,1,2,1:2:0:0:
204,154,34877,6,0,B|160:137|141:187|94:163,1,110,2|0,1:2|1:2,0:0:0:0:
0,115,35641,1,2,1:2:0:0:
0,225,36024,1,2,1:2:0:0:
76,303,36406,2,0,P|127:313|178:295,1,110,2|0,1:2|1:2,0:0:0:0:
274,238,37170,1,0,1:2:0:0:
317,338,37552,1,4,1:2:0:0:
425,350,37934,6,0,P|451:301|450:249,1,110,4|0,1:2|1:2,0:0:0:0:
396,159,38699,1,2,1:2:0:0:
391,154,38890,2,0,P|392:98|419:54,1,110,10|10,0:2|0:2,0:0:0:0:
447,5,39463,2,0,P|390:11|337:14,1,110,2|0,1:2|1:2,0:0:0:0:
228,0,40227,1,0,1:2:0:0:
239,109,40610,1,2,1:2:0:0:
136,149,40992,6,0,B|99:163|64:155|64:155|28:185,1,110,2|0,1:2|1:2,0:0:0:0:
6,285,41756,1,2,1:2:0:0:
106,329,42138,2,0,L|159:314,1,55,2|10,1:2|0:2,0:0:0:0:
197,275,42520,2,0,P|195:329|222:376,1,110,2|0,1:2|1:2,0:0:0:0:
326,339,43285,1,0,1:2:0:0:
424,382,43667,1,2,1:2:0:0:
512,316,44049,6,0,P|505:261|501:206,1,110,2|0,1:2|1:2,0:0:0:0:
509,96,44813,2,0,L|445:85,1,55,2|10,1:2|0:2,0:0:0:0:
406,112,45195,2,0,L|342:101,1,55,2|10,1:2|0:2,0:0:0:0:
298,93,45577,1,2,1:2:0:0:
191,122,45960,2,0,P|162:167|162:221,1,110,2|2,1:2|1:2,0:0:0:0:
235,303,46724,1,2,1:2:0:0:
152,376,47106,6,0,P|97:376|51:347,1,110,2|0,1:2|1:2,0:0:0:0:
14,306,47680,1,10,0:2:0:0:
10,300,47871,2,0,P|3:245|-1:190,1,110,2|2,1:2|1:2,0:0:0:0:
54,95,48635,5,12,1:2:0:0:
161,76,49017,1,4,1:2:0:0:
269,57,49399,1,4,1:2:0:0:
377,38,49782,2,0,L|431:47,1,55,8|8,1:2|0:2,0:0:0:0:
484,33,50164,6,0,P|460:82|467:136,1,110,4|0,1:2|0:2,0:0:0:0:
512,236,50928,1,10,0:2:0:0:
404,259,51310,1,0,1:2:0:0:
399,263,51501,2,0,L|344:253,1,55,2|0,0:2|1:2,0:0:0:0:
296,226,51883,2,0,P|307:307|266:377,1,165,0|8,1:2|0:2,0:0:0:0:
162,340,52839,1,2,1:2:0:0:
52,339,53221,6,0,P|38:259|75:188,2,165,2|2|0,1:2|0:2|1:2,0:0:0:0:
162,340,54750,1,8,0:2:0:0:
163,334,54941,2,0,L|191:171,1,165,2|10,1:2|0:2,0:0:0:0:
211,62,55896,1,2,1:2:0:0:
303,120,56278,6,0,P|357:125|405:100,1,110,2|0,1:2|1:2,0:0:0:0:
472,13,57043,1,10,0:2:0:0:
502,118,57425,2,0,L|511:172,1,55,2|2,1:2|0:2,0:0:0:0:
476,214,57807,2,0,P|488:273|495:322,1,110,2|0,1:2|0:2,0:0:0:0:
404,384,58571,1,8,0:2:0:0:
309,327,58954,1,2,1:2:0:0:
212,380,59336,5,4,1:2:0:0:
117,323,59718,2,0,P|110:269|134:220,1,110,0|0,1:2|1:2,0:0:0:0:
195,126,60482,1,2,1:2:0:0:
124,41,60864,5,2,1:2:0:0:
21,80,61246,2,0,P|5:131|21:183,1,110,4|2,1:2|1:2,0:0:0:0:
133,220,62011,1,8,0:2:0:0:
133,220,62202,1,8,0:2:0:0:
256,192,62393,12,0,63922,0:0:0:0:
491,25,65450,5,4,1:2:0:0:
462,130,65832,1,0,1:2:0:0:
356,157,66215,2,0,P|301:157|254:131,1,110,2|2,1:2|1:2,0:0:0:0:
221,86,66788,1,10,0:2:0:0:
217,90,66979,2,0,P|209:144|197:198,1,110,0|0,1:2|1:2,0:0:0:0:
106,257,67743,2,0,P|113:311|125:365,1,110,2|2,1:2|1:2,0:0:0:0:
232,384,68508,5,2,1:2:0:0:
287,291,68890,1,0,1:2:0:0:
292,287,69081,2,0,P|347:287|394:313,1,110,10|10,0:2|0:2,0:0:0:0:
476,384,69845,1,10,0:2:0:0:
509,280,70227,5,10,0:2:0:0:
512,275,70418,2,0,L|497:221,1,55,2|10,1:2|0:2,0:0:0:0:
468,175,70801,2,0,L|484:113,1,55,2|10,1:2|0:2,0:0:0:0:
497,69,71183,1,10,1:2:0:0:
387,73,71565,5,4,1:2:0:0:
286,28,71947,1,0,1:2:0:0:
243,129,72329,2,0,P|188:129|141:103,1,110,2|2,1:2|1:2,0:0:0:0:
107,61,72903,1,10,0:2:0:0:
103,57,73094,2,0,P|48:52|0:74,1,110,0|0,1:2|1:2,0:0:0:0:
55,169,73858,2,0,P|58:222|37:271,1,110,2|2,0:2|1:2,0:0:0:0:
0,375,74622,6,0,L|54:384,1,55,2|10,1:2|0:2,0:0:0:0:
104,362,75004,2,0,L|158:371,1,55,2|10,1:2|0:2,0:0:0:0:
212,384,75387,2,0,L|338:361,1,110,2|2,1:2|1:2,0:0:0:0:
429,349,76151,2,0,P|429:294|403:247,1,110,2|0,1:2|1:2,0:0:0:0:
309,189,76915,1,2,1:2:0:0:
395,121,77297,2,0,L|449:130,1,55,8|8,0:2|0:2,0:0:0:0:
503,139,77680,5,4,1:2:0:0:
510,29,78062,1,0,1:2:0:0:
404,0,78444,2,0,P|349:6|296:19,1,110,2|2,1:2|1:2,0:0:0:0:
258,60,79017,1,10,0:2:0:0:
253,65,79208,2,0,P|198:58|145:45,1,110,0|0,1:2|1:2,0:0:0:0:
43,13,79973,2,0,P|16:60|16:115,1,110,2|2,1:2|1:2,0:0:0:0:
76,206,80737,5,2,1:2:0:0:
181,171,81119,1,0,1:2:0:0:
185,167,81310,2,0,P|239:162|288:185,1,110,10|10,0:2|0:2,0:0:0:0:
373,255,82075,1,10,0:2:0:0:
476,221,82457,5,10,0:2:0:0:
480,217,82648,2,0,L|489:162,1,55,2|10,1:2|0:2,0:0:0:0:
461,115,83030,2,0,L|470:60,1,55,2|10,1:2|0:2,0:0:0:0:
479,6,83412,1,10,1:2:0:0:
370,0,83794,5,4,1:2:0:0:
351,108,84176,1,0,1:2:0:0:
247,145,84559,2,0,P|223:194|228:248,1,110,2|2,1:2|1:2,0:0:0:0:
257,293,85132,1,10,0:2:0:0:
257,293,85323,2,0,P|202:282|152:301,1,110,0|0,1:2|1:2,0:0:0:0:
48,338,86087,2,0,P|21:292|20:237,1,110,2|2,0:2|1:2,0:0:0:0:
50,130,86852,6,0,L|113:118,1,55,2|10,1:2|0:2,0:0:0:0:
142,80,87234,2,0,L|205:68,1,55,2|10,1:2|0:2,0:0:0:0:
244,44,87616,2,0,L|352:63,1,110,2|2,1:2|1:2,0:0:0:0:
461,75,88380,6,0,P|438:124|443:178,1,110,2|0,1:2|1:2,0:0:0:0:
476,223,88954,1,12,0:2:0:0:
476,223,89145,2,0,P|421:230|367:242,1,110,2|8,1:2|0:2,0:0:0:0:
289,322,89909,6,0,L|184:322,1,104.036145725879,4|0,1:2|1:2,0:0:0:0:
81,322,90631,1,2,1:2:0:0:
8,249,90993,1,2,1:2:0:0:
81,176,91354,2,0,L|81:71,1,104.036145725879,0|0,1:2|1:2,0:0:0:0:
154,0,92077,1,0,1:2:0:0:
160,0,92258,2,0,L|265:0,1,104.036145725879,8|8,0:2|0:2,0:0:0:0:
304,31,92800,6,0,L|409:31,1,104.036145725879,2|0,1:2|1:2,0:0:0:0:
512,31,93523,1,0,1:2:0:0:
512,134,93884,1,0,1:2:0:0:
439,206,94246,2,0,L|334:206,1,104.036145725879,2|0,1:2|1:2,0:0:0:0:
261,134,94969,2,0,L|156:134,1,104.036145725879,0|2,1:2|1:2,0:0:0:0:
83,206,95692,6,0,L|83:311,1,104.036145725879,4|0,1:2|1:2,0:0:0:0:
156,382,96415,1,0,1:2:0:0:
259,382,96776,1,2,1:2:0:0:
331,309,97137,2,0,L|436:309,1,104.036145725879,0|0,1:2|1:2,0:0:0:0:
507,236,97860,1,0,1:2:0:0:
507,230,98041,2,0,L|507:125,1,104.036145725879,8|8,0:2|0:2,0:0:0:0:
507,73,98583,6,0,L|402:73,1,104.036145725879,2|0,1:2|1:2,0:0:0:0:
298,73,99306,1,0,1:2:0:0:
226,146,99668,1,0,1:2:0:0:
298,219,100029,6,0,L|298:271,1,52.0180728629394,8|8,0:2|0:2,0:0:0:0:
338,304,100390,2,0,L|338:356,1,52.0180728629394,0|8,1:2|0:2,0:0:0:0:
294,384,100752,2,0,L|189:384,1,104.036145725879,0|8,1:2|0:2,0:0:0:0:
85,384,101475,6,0,B|56:355|56:355|56:291,1,104.036145725879,4|2,1:2|1:2,0:0:0:0:
56,187,102198,1,0,1:2:0:0:
129,113,102559,1,0,1:2:0:0:
129,8,102921,2,0,B|169:8|169:8|193:16|193:16|233:16,1,104.036145725879,0|0,1:2|1:2,0:0:0:0:
335,16,103643,1,0,1:2:0:0:
335,22,103824,2,0,B|335:86|335:86|363:114,1,104.036145725879,8|8,0:2|0:2,0:0:0:0:
400,151,104366,6,0,B|452:151|452:151|452:203,1,104.036145725879,2|0,1:2|1:2,0:0:0:0:
452,307,105089,1,0,1:2:0:0:
378,380,105451,1,0,1:2:0:0:
274,380,105812,2,0,B|274:332|274:332|282:324|282:324|282:276,1,104.036145725879,0|0,1:2|1:2,0:0:0:0:
282,175,106535,1,0,1:2:0:0:
208,101,106896,2,0,L|148:101,1,52.0180728629394,8|8,0:2|0:2,0:0:0:0:
118,63,107258,6,0,B|38:63|38:63|38:87,1,104.036145725879,4|0,1:2|1:2,0:0:0:0:
38,191,107981,1,0,1:2:0:0:
111,264,108342,1,0,1:2:0:0:
111,368,108704,2,0,B|151:368|151:368|175:360|175:360|215:360,1,104.036145725879,0|0,1:2|1:2,0:0:0:0:
317,360,109427,1,0,1:2:0:0:
323,360,109607,2,0,B|347:360|347:360|347:280,1,104.036145725879,8|8,0:2|0:2,0:0:0:0:
383,243,110149,6,0,B|383:195|383:195|375:187|375:187|375:139,1,104.036145725879,4|0,1:2|1:2,0:0:0:0:
375,38,110872,1,0,1:2:0:0:
479,38,111234,1,0,1:2:0:0:
479,148,111619,6,0,L|479:202,1,54.6519001856234,0|8,0:0|0:2,0:0:0:0:
505,250,111998,2,0,L|505:304,1,54.6519001856234,2|8,0:2|0:2,0:0:0:0:
466,343,112378,2,0,B|450:351|450:351|406:351|406:351|374:327|374:327|330:327|330:327|298:343,1,163.95570055687,8|8,0:2|0:2,0:0:0:0:
256,192,113149,12,0,114727,0:0:0:0:
20,26,116322,5,4,1:2:0:0:
49,136,116719,1,2,0:2:0:0:
158,165,117116,2,0,P|214:165|263:136,1,114.370860002564,2|2,0:2|0:2,0:0:0:0:
353,66,117911,2,0,P|365:121|382:176,1,114.370860002564,2|0,0:2|0:0,0:0:0:0:
478,238,118706,2,0,P|465:293|448:348,1,114.370860002564,2|2,0:2|0:2,0:0:0:0:
340,384,119500,5,2,0:2:0:0:
259,302,119898,1,2,0:2:0:0:
254,297,120096,2,0,P|205:268|148:268,1,114.370860002564,2|2,0:2|0:2,0:0:0:0:
43,313,120891,1,2,0:2:0:0:
12,204,121288,5,2,0:2:0:0:
10,198,121487,2,0,P|2:141|0:84,1,114.370860002564,2|2,0:2|0:2,0:0:0:0:
77,0,122282,1,2,0:2:0:0:
176,55,122679,5,4,1:2:0:0:
137,162,123076,1,2,0:2:0:0:
236,217,123474,2,0,P|292:217|341:188,1,114.370860002564,2|2,0:2|0:2,0:0:0:0:
407,94,124269,2,0,P|463:93|512:121,1,114.370860002564,2|0,0:2|0:0,0:0:0:0:
512,236,125063,2,0,P|500:291|482:346,1,114.370860002564,2|2,0:2|0:2,0:0:0:0:
369,365,125858,5,2,0:2:0:0:
288,284,126255,1,2,0:2:0:0:
182,328,126653,2,0,L|167:383,2,57.1854300012819,2|2|2,0:2|0:2|0:2,0:0:0:0:
102,246,127447,1,2,0:2:0:0:
234,120,128242,1,2,0:2:0:0:
386,245,129037,5,4,1:2:0:0:
443,146,129434,1,2,1:2:0:0:
340,94,129831,2,0,P|283:93|234:121,1,114.370860002564,2|2,1:2|1:2,0:0:0:0:
215,234,130626,2,0,P|160:249|105:234,1,114.370860002564,2|0,1:2|1:2,0:0:0:0:
18,160,131421,2,0,P|5:215|-1:272,1,114.370860002564,2|0,1:2|0:0,0:0:0:0:
49,374,132216,5,2,1:2:0:0:
163,381,132613,1,2,1:2:0:0:
163,381,132812,2,0,P|220:381|269:352,1,114.370860002564,2|2,0:2|0:2,0:0:0:0:
352,275,133606,1,2,0:2:0:0:
452,329,134004,1,2,0:2:0:0:
452,329,134202,2,0,P|480:279|479:222,1,114.370860002564,2|2,1:2|1:2,0:0:0:0:
442,115,134997,1,2,1:2:0:0:
447,0,135394,5,2,1:2:0:0:
332,0,135792,1,2,1:2:0:0:
267,94,136189,2,0,P|218:122|161:122,1,114.370860002564,2|2,1:2|1:2,0:0:0:0:
114,89,136785,1,2,0:2:0:0:
114,89,136984,2,0,P|114:145|85:194,1,114.370860002564,2|2,1:2|1:2,0:0:0:0:
0,270,137778,2,0,P|0:326|28:375,1,114.370860002564,2|2,1:2|1:2,0:0:0:0:
143,371,138573,6,0,L|197:380,1,55,0|2,1:2|1:2,0:0:0:0:
237,343,138955,2,0,L|291:352,1,55,2|2,1:2|1:2,0:0:0:0:
337,383,139337,2,0,L|445:363,1,110,2|2,1:2|1:2,0:0:0:0:
512,277,140101,2,0,B|505:241|505:241|484:212|484:212|477:175,1,110,10|8,0:2|0:2,0:0:0:0:
457,66,140865,1,10,1:2:0:0:
352,35,141248,2,0,L|297:44,1,55,8|8,0:2|0:2,0:0:0:0:
242,54,141630,5,4,1:2:0:0:
272,160,142012,1,0,1:2:0:0:
175,211,142394,2,0,P|120:212|72:186,1,110,2|2,1:2|1:2,0:0:0:0:
36,145,142967,1,10,0:2:0:0:
31,141,143158,2,0,P|28:196|21:250,1,110,0|0,1:2|1:2,0:0:0:0:
51,356,143923,2,0,P|99:381|153:380,1,110,2|2,1:2|1:2,0:0:0:0:
256,340,144687,5,2,1:2:0:0:
205,242,145069,1,0,1:2:0:0:
201,237,145260,2,0,P|199:182|224:134,1,110,10|10,0:2|0:2,0:0:0:0:
305,60,146025,1,10,0:2:0:0:
410,91,146407,5,10,0:2:0:0:
410,91,146598,2,0,L|424:144,1,55,2|10,1:2|0:2,0:0:0:0:
468,177,146980,2,0,L|449:246,1,55,2|10,1:2|0:2,0:0:0:0:
441,275,147362,1,10,1:2:0:0:
451,384,147744,5,4,1:2:0:0:
340,384,148127,1,0,1:2:0:0:
262,306,148509,2,0,P|213:281|159:283,1,110,2|2,1:2|1:2,0:0:0:0:
110,308,149082,1,10,0:2:0:0:
106,313,149273,2,0,P|51:310|5:281,1,110,0|0,1:2|1:2,0:0:0:0:
6,171,150037,2,0,P|13:116|16:61,1,110,2|2,0:2|1:2,0:0:0:0:
112,8,150802,6,0,L|166:-1,1,55,2|10,1:2|0:2,0:0:0:0:
210,30,151184,2,0,L|264:20,1,55,2|10,1:2|0:2,0:0:0:0:
315,0,151566,2,0,L|423:19,1,110,2|2,1:2|1:2,0:0:0:0:
512,84,152330,6,0,P|518:138|497:188,1,110,2|0,1:2|1:2,0:0:0:0:
441,183,152904,1,12,0:2:0:0:
436,179,153095,2,0,P|380:181|325:188,1,110,10|4,1:2|1:2,0:0:0:0:
219,213,153859,5,4,1:2:0:0:
231,103,154241,1,2,1:2:0:0:
145,33,154623,2,0,P|90:32|42:58,1,110,2|2,1:2|1:2,0:0:0:0:
40,112,155197,1,10,0:2:0:0:
44,117,155388,2,0,P|42:173|35:228,1,110,2|2,1:2|1:2,0:0:0:0:
0,331,156152,2,0,P|48:356|102:355,1,110,2|2,1:2|1:2,0:0:0:0:
207,321,156917,6,0,L|216:266,1,55,2|8,1:2|0:2,0:0:0:0:
177,227,157299,2,0,L|167:172,1,55,2|10,1:2|0:2,0:0:0:0:
216,148,157681,2,0,L|235:39,1,110,2|2,1:2|1:2,0:0:0:0:
338,0,158445,5,10,0:2:0:0:
358,109,158827,1,10,0:2:0:0:
313,209,159209,1,2,1:2:0:0:
332,318,159592,1,12,0:2:0:0:
440,337,159974,5,6,1:2:0:0:
512,254,160356,1,2,1:2:0:0:
434,176,160738,2,0,P|426:122|446:71,1,110,2|2,1:2|1:2,0:0:0:0:
482,29,161311,1,10,0:2:0:0:
487,25,161502,2,0,P|431:27|376:34,1,110,2|2,1:2|1:2,0:0:0:0:
277,80,162267,2,0,P|221:78|166:71,1,110,2|2,1:2|1:2,0:0:0:0:
59,90,163031,6,0,L|68:144,1,55,2|10,1:2|0:2,0:0:0:0:
105,184,163413,2,0,L|95:238,1,55,2|10,1:2|0:2,0:0:0:0:
55,275,163795,2,0,L|74:383,1,110,2|2,1:2|1:2,0:0:0:0:
184,381,164560,6,0,B|223:373|223:373|243:354|243:354|284:347,1,110,2|2,1:2|1:2,0:0:0:0:
338,337,165133,1,2,1:2:0:0:
344,336,165324,2,0,B|383:329|383:329|408:339|408:339|450:333,1,110,10|10,0:2|0:2,0:0:0:0:
512,242,166088,5,4,1:2:0:0:
492,132,166471,1,2,1:2:0:0:
383,113,166853,2,0,P|328:113|281:140,1,110,2|2,1:2|1:2,0:0:0:0:
253,188,167426,1,10,0:2:0:0:
248,192,167617,2,0,P|194:200|143:182,1,110,2|2,1:2|1:2,0:0:0:0:
118,74,168381,2,0,P|153:32|204:12,1,110,2|2,1:2|1:2,0:0:0:0:
313,25,169146,6,0,L|367:34,1,55,2|8,1:2|0:2,0:0:0:0:
420,21,169528,2,0,L|451:66,1,55,2|10,1:2|0:2,0:0:0:0:
504,82,169910,2,0,L|484:190,1,110,2|2,1:2|1:2,0:0:0:0:
487,300,170674,5,2,1:2:0:0:
378,320,171056,1,4,1:2:0:0:
278,275,171438,1,4,1:2:0:0:
169,294,171821,1,4,1:2:0:0:
105,383,172203,5,4,1:2:0:0:
28,303,172585,1,2,1:2:0:0:
63,198,172967,2,0,P|61:142|54:87,1,110,2|2,1:2|1:2,0:0:0:0:
30,39,173541,1,10,0:2:0:0:
30,39,173732,2,0,P|81:57|135:49,1,110,2|2,1:2|1:2,0:0:0:0:
234,0,174496,2,0,P|287:-8|339:10,1,110,2|2,1:2|1:2,0:0:0:0:
431,70,175260,6,0,L|421:124,1,55,2|8,1:2|0:2,0:0:0:0:
436,177,175643,2,0,L|390:208,1,55,2|10,1:2|0:2,0:0:0:0:
372,260,176025,2,0,L|263:240,1,110,2|2,1:2|1:2,0:0:0:0:
248,131,176789,6,0,B|210:105|210:105|147:116,1,110,2|2,1:2|1:2,0:0:0:0:
94,126,177362,1,10,0:2:0:0:
88,127,177553,2,0,B|24:138|24:138|0:175,1,110,10|14,1:2|0:2,0:0:0:0:
0,286,178318,6,0,B|0:350|0:350|32:382,1,110,4|0,1:2|1:2,0:0:0:0:
87,382,178891,1,0,0:2:0:0:
93,382,179082,2,0,B|132:382|132:382|155:367|155:367|197:366,1,110,0|0,1:2|1:2,0:0:0:0:
276,288,179846,2,0,B|319:289|319:289|342:303|342:303|381:303,1,110,0|0,1:2|1:2,0:0:0:0:
437,303,180420,1,8,0:2:0:0:
443,303,180611,2,0,B|497:303|497:303|497:248,1,110,0|0,1:2|1:2,0:0:0:0:
497,137,181375,6,0,B|464:104|464:104|400:104,1,110,4|0,1:2|1:2,0:0:0:0:
361,143,181948,1,8,0:2:0:0:
356,148,182139,2,0,L|246:148,1,110,0|0,1:2|1:2,0:0:0:0:
168,225,182904,2,0,B|84:225|84:225|84:199,1,110,0|0,1:2|1:2,0:0:0:0:
84,144,183477,1,8,0:2:0:0:
84,34,183859,2,0,B|132:34|132:34|148:26|148:26|196:26,1,110,8|0,0:2|1:2,0:0:0:0:
240,0,184432,6,0,L|350:0,1,110,4|0,1:2|1:2,0:0:0:0:
405,0,185006,1,8,0:2:0:0:
411,0,185197,2,0,B|437:0|437:0|437:84,1,110,0|0,1:2|1:2,0:0:0:0:
437,193,185961,2,0,B|437:237|437:237|453:257|453:257|453:297,1,110,0|0,1:2|1:2,0:0:0:0:
453,352,186534,1,8,0:2:0:0:
453,358,186725,2,0,L|343:358,1,110,0|0,1:2|1:2,0:0:0:0:
265,280,187490,6,0,B|217:280|217:280|201:288|201:288|153:288,1,110,0|0,1:2|1:2,0:0:0:0:
101,288,188063,1,8,0:2:0:0:
95,288,188254,2,0,B|41:288|41:288|41:233,1,110,0|0,1:2|1:2,0:0:0:0:
41,122,189018,5,4,1:2:0:0:
151,122,189401,1,4,1:2:0:0:
228,44,189783,1,4,1:2:0:0:
338,44,190166,1,0,1:2:0:0:
338,153,190547,5,12,1:2:0:0:
