osu file format v14

[General]
AudioFilename: audio.mp3
AudioLeadIn: 0
PreviewTime: 115817
Countdown: 0
SampleSet: Normal
StackLeniency: 0.2
Mode: 0
LetterboxInBreaks: 0
WidescreenStoryboard: 0

[Editor]
Bookmarks: 13417,26217,39017,51817,64617,89417,90217,96617,103017,112617,115817,128617,141417,154217,179817,192617,205417,217417,231017
DistanceSpacing: 1.8
BeatDivisor: 4
GridSize: 16
TimelineZoom: 3.399999

[Metadata]
Title:Abracadabra
TitleUnicode:アブラカダブラ
Artist:Akatsuki Records
ArtistUnicode:暁Records
Creator:-Rik-
Version:Spark
Source:東方
Tags:akatsuki records abracadabra marisa spark stack vocal japanese touhou
BeatmapID:2048377
BeatmapSetID:978825

[Difficulty]
HPDrainRate:4
CircleSize:4
OverallDifficulty:9
ApproachRate:9.3
SliderMultiplier:2.2
SliderTickRate:1

[Events]
//Background and Video events
0,0,"marisa.jpg",0,0
//Break Periods
2,90417,96063
//Storyboard Layer 0 (Background)
//Storyboard Layer 1 (Fail)
//Storyboard Layer 2 (Pass)
//Storyboard Layer 3 (Foreground)
//Storyboard Sound Samples

[TimingPoints]
617,400,4,1,0,40,1,0
13417,-113.636363636364,4,1,0,40,0,0
26217,-101.010101010101,4,1,0,40,0,0
51817,-129.87012987013,4,1,0,40,0,0
63017,-101.010101010101,4,1,0,40,0,0
64617,-101.010101010101,4,1,0,40,0,1
90217,-101.010101010101,4,1,0,40,0,0
103017,-129.87012987013,4,1,0,40,0,0
115817,-101.010101010101,4,1,0,40,0,0
141417,-90.0900900900901,4,1,0,40,0,0
154217,-75.187969924812,4,1,0,40,0,1
179817,-60.2409638554217,4,1,0,40,0,1
205417,-227.272727272727,4,1,0,40,0,0
229217,-454.545454545455,4,1,0,40,0,0

[HitObjects]
420,34,617,5,0,0:0:0:0:
295,65,1017,1,0,0:0:0:0:
478,129,1417,1,0,0:0:0:0:
244,142,1817,1,0,0:0:0:0:
68,34,2217,5,0,0:0:0:0:
193,65,2617,1,0,0:0:0:0:
10,129,3017,5,0,0:0:0:0:
131,183,3217,1,0,0:0:0:0:
256,141,3417,1,0,0:0:0:0:
382,180,3617,1,0,0:0:0:0:
256,325,3817,5,0,0:0:0:0:
383,314,4217,1,0,0:0:0:0:
214,220,4617,1,0,0:0:0:0:
447,248,5017,1,0,0:0:0:0:
315,277,5217,1,0,0:0:0:0:
177,112,5417,5,0,0:0:0:0:
190,243,5817,1,0,0:0:0:0:
43,308,6217,5,0,0:0:0:0:
56,177,6617,1,0,0:0:0:0:
0,0,7017,5,0,0:0:0:0:
43,139,7217,1,0,0:0:0:0:
129,0,7417,5,0,0:0:0:0:
134,145,7617,1,0,0:0:0:0:
255,26,7817,5,0,0:0:0:0:
222,167,8017,1,0,0:0:0:0:
128,276,8217,1,0,0:0:0:0:
269,309,8417,1,0,0:0:0:0:
512,195,8617,5,0,0:0:0:0:
371,228,8817,1,0,0:0:0:0:
469,73,9017,5,0,0:0:0:0:
340,141,9217,1,0,0:0:0:0:
187,0,9417,5,0,0:0:0:0:
231,130,9617,1,0,0:0:0:0:
82,223,9817,1,0,0:0:0:0:
126,93,10017,1,0,0:0:0:0:
138,341,10217,5,0,0:0:0:0:
198,348,10317,1,0,0:0:0:0:
258,355,10417,1,0,0:0:0:0:
318,362,10517,1,0,0:0:0:0:
332,270,10617,5,0,0:0:0:0:
392,263,10717,1,0,0:0:0:0:
452,256,10817,1,0,0:0:0:0:
512,249,10917,1,0,0:0:0:0:
478,146,11017,6,0,L|451:144,7,27.5,0|0|0|0|0|0|0|0,2:0|2:0|2:0|2:0|2:0|2:0|2:0|2:0,2:0:0:0:
352,62,11417,2,0,L|324:64,7,27.5,0|0|0|0|0|0|0|0,2:0|2:0|2:0|2:0|2:0|2:0|2:0|2:0,2:0:0:0:
289,199,11817,5,0,0:0:0:0:
289,199,12217,1,0,0:0:0:0:
127,117,12617,5,0,0:0:0:0:
127,117,13017,1,0,0:0:0:0:
4,234,13417,5,0,0:0:0:0:
44,318,13617,1,0,0:0:0:0:
112,257,13817,1,0,0:0:0:0:
152,341,14017,1,0,0:0:0:0:
300,234,14217,5,0,0:0:0:0:
260,318,14417,1,0,0:0:0:0:
192,257,14617,1,0,0:0:0:0:
152,341,14817,5,0,0:0:0:0:
152,341,14917,1,0,0:0:0:0:
203,241,15017,5,0,0:0:0:0:
243,157,15217,1,0,0:0:0:0:
311,218,15417,1,0,0:0:0:0:
351,134,15617,1,0,0:0:0:0:
318,310,15817,5,0,0:0:0:0:
353,119,16017,5,0,0:0:0:0:
390,156,16117,1,0,0:0:0:0:
404,207,16217,1,0,0:0:0:0:
465,339,16417,1,0,0:0:0:0:
475,317,16517,1,0,0:0:0:0:
510,197,16617,5,0,0:0:0:0:
406,222,16817,1,0,0:0:0:0:
258,142,17017,1,0,0:0:0:0:
304,264,17217,1,0,0:0:0:0:
6,197,17417,5,0,0:0:0:0:
110,222,17617,1,0,0:0:0:0:
258,142,17817,1,0,0:0:0:0:
212,264,18017,5,0,0:0:0:0:
212,264,18117,1,0,0:0:0:0:
251,171,18217,1,0,0:0:0:0:
13,174,18417,5,0,0:0:0:0:
117,199,18617,1,0,0:0:0:0:
265,119,18817,1,0,0:0:0:0:
443,125,19017,5,0,0:0:0:0:
320,237,19217,1,0,0:0:0:0:
364,164,19317,1,0,0:0:0:0:
357,77,19417,1,0,0:0:0:0:
451,235,19617,5,0,0:0:0:0:
451,235,19717,1,0,0:0:0:0:
494,105,19817,5,0,0:0:0:0:
357,77,20017,1,0,0:0:0:0:
227,136,20217,1,0,0:0:0:0:
87,144,20417,1,0,0:0:0:0:
12,44,20617,5,0,0:0:0:0:
149,16,20817,1,0,0:0:0:0:
279,75,21017,1,0,0:0:0:0:
414,24,21217,5,0,0:0:0:0:
414,24,21317,1,0,0:0:0:0:
477,153,21417,5,0,0:0:0:0:
340,125,21617,1,0,0:0:0:0:
210,184,21817,1,0,0:0:0:0:
75,138,22017,1,0,0:0:0:0:
36,384,22217,5,0,0:0:0:0:
122,216,22417,1,0,0:0:0:0:
124,264,22517,1,0,0:0:0:0:
150,304,22617,1,0,0:0:0:0:
246,384,22817,5,0,0:0:0:0:
246,384,22917,1,0,0:0:0:0:
324,267,23017,5,0,0:0:0:0:
319,251,23217,1,0,0:0:0:0:
405,356,23417,5,0,0:0:0:0:
400,372,23617,1,0,0:0:0:0:
512,266,23817,5,0,0:0:0:0:
507,250,24017,1,0,0:0:0:0:
406,138,24217,1,0,0:0:0:0:
408,153,24417,1,0,0:0:0:0:
408,153,24517,1,0,0:0:0:0:
320,54,24617,5,0,0:0:0:0:
512,384,25017,5,0,0:0:0:0:
87,260,25417,5,0,0:0:0:0:
512,6,25817,5,0,0:0:0:0:
487,32,26017,5,0,0:0:0:0:
487,55,26117,1,0,0:0:0:0:
512,179,26217,6,0,L|507:233,1,54.4499998338318
424,351,26417,2,0,L|419:296,1,54.4499998338318
324,186,26617,2,0,L|314:294,1,108.899999667664
126,70,27017,6,0,L|130:124,1,54.4499998338318
214,242,27217,2,0,L|218:187,1,54.4499998338318
314,77,27417,2,0,L|323:185,1,108.899999667664
249,341,27717,1,0,0:0:0:0:
235,357,27817,6,0,L|239:302,1,54.4499998338318
323,185,28017,2,0,L|327:239,1,54.4499998338318
423,350,28217,2,0,L|432:241,1,108.899999667664
459,30,28617,6,0,P|468:78|421:91,1,108.899999667664
309,72,28917,1,0,0:0:0:0:
281,77,29017,2,0,P|256:86|236:104,1,54.4499998338318
245,218,29217,1,0,0:0:0:0:
276,230,29317,1,0,0:0:0:0:
298,231,29417,6,0,P|315:210|322:184,1,54.4499998338318
104,185,29617,2,0,P|111:211|129:232,1,54.4499998338318
75,82,29817,2,0,L|66:191,1,108.899999667664
211,331,30217,6,0,P|190:348|164:355,1,54.4499998338318
166,138,30417,2,0,P|191:145|212:162,1,54.4499998338318
62,108,30617,2,0,L|171:99,1,108.899999667664
327,223,30917,1,0,0:0:0:0:
332,246,31017,6,0,P|305:239|278:244,1,54.4499998338318
309,383,31217,2,0,L|305:329,1,54.4499998338318
383,193,31417,2,0,L|379:247,1,54.4499998338318
475,384,31617,2,0,L|471:330,1,54.4499998338318
506,120,31817,6,0,L|453:106,1,54.4499998338318
382,157,32017,1,0,0:0:0:0:
371,171,32117,1,0,0:0:0:0:
249,119,32217,6,0,L|301:105,1,54.4499998338318
365,34,32417,1,0,0:0:0:0:
376,48,32517,1,0,0:0:0:0:
375,237,32617,6,0,L|361:184,1,54.4499998338318
248,305,32817,2,0,L|248:250,1,54.4499998338318
97,317,33017,2,0,L|126:212,1,108.899999667664
0,111,33417,6,0,L|13:163,1,54.4499998338318
139,36,33617,2,0,L|138:90,1,54.4499998338318
296,27,33817,2,0,L|266:131,1,108.899999667664
374,275,34117,1,0,0:0:0:0:
389,289,34217,6,0,L|374:236,1,54.4499998338318
496,182,34417,2,0,L|510:129,1,54.4499998338318
325,131,34617,2,0,L|295:26,1,108.899999667664
509,287,35017,6,0,L|456:300,1,54.4499998338318
385,250,35217,1,0,0:0:0:0:
374,236,35317,1,0,0:0:0:0:
252,288,35417,6,0,L|304:301,1,54.4499998338318
368,373,35617,1,0,0:0:0:0:
379,359,35717,1,0,0:0:0:0:
204,383,35817,6,0,P|213:329|197:277,1,108.899999667664
111,337,36117,1,0,0:0:0:0:
47,237,36217,2,0,P|38:183|54:130,1,108.899999667664
141,190,36517,1,0,0:0:0:0:
257,220,36617,6,0,P|270:141|246:63,1,163.349999501495
157,15,37017,2,0,P|148:41|145:68,1,54.4499998338318
138,182,37217,1,0,0:0:0:0:
140,190,37317,1,0,0:0:0:0:
127,228,37417,6,0,B|207:211|207:211|296:237,1,163.349999501495
407,147,37817,2,0,B|327:164|327:164|238:138,1,163.349999501495
172,75,38217,2,0,B|252:58|252:58|341:84,1,163.349999501495
411,118,38617,5,0,0:0:0:0:
447,184,38717,1,0,0:0:0:0:
498,128,38817,1,0,0:0:0:0:
466,58,38917,1,0,0:0:0:0:
434,260,39017,1,0,0:0:0:0:
434,264,40617,5,0,0:0:0:0:
492,371,41017,1,0,0:0:0:0:
317,228,41417,1,0,0:0:0:0:
499,166,41817,1,0,0:0:0:0:
146,281,42217,5,0,0:0:0:0:
146,281,43817,5,0,0:0:0:0:
88,174,44217,1,0,0:0:0:0:
263,317,44617,1,0,0:0:0:0:
81,379,45017,1,0,0:0:0:0:
434,264,45417,5,0,0:0:0:0:
369,166,47017,5,0,0:0:0:0:
427,59,47417,1,0,0:0:0:0:
252,202,47817,1,0,0:0:0:0:
434,264,48217,1,0,0:0:0:0:
81,149,48617,5,0,0:0:0:0:
217,129,49417,5,0,0:0:0:0:
369,166,50217,5,0,0:0:0:0:
427,59,50617,1,0,0:0:0:0:
252,202,51017,1,0,0:0:0:0:
434,264,51417,1,0,0:0:0:0:
81,149,51817,5,0,0:0:0:0:
61,226,52017,1,0,0:0:0:0:
155,111,52217,5,0,0:0:0:0:
155,201,52417,1,0,0:0:0:0:
241,79,52617,5,0,0:0:0:0:
267,178,52817,1,0,0:0:0:0:
322,35,53017,5,0,0:0:0:0:
381,138,53217,1,0,0:0:0:0:
389,154,53317,1,0,0:0:0:0:
457,88,53417,5,0,0:0:0:0:
465,235,53617,1,0,0:0:0:0:
309,384,53817,5,0,0:0:0:0:
317,237,54017,1,0,0:0:0:0:
504,162,54217,5,0,0:0:0:0:
512,309,54417,1,0,0:0:0:0:
257,300,54617,5,0,0:0:0:0:
341,304,54717,1,0,0:0:0:0:
425,308,54817,1,0,0:0:0:0:
171,360,55017,6,0,L|130:371,1,42.3499991599274,0|0,0:0|2:0,0:0:0:0:
44,319,55217,1,0,0:0:0:0:
177,202,55417,1,0,0:0:0:0:
0,156,55617,1,0,0:0:0:0:
128,282,55817,1,0,0:0:0:0:
305,236,56017,1,0,0:0:0:0:
482,282,56217,1,0,0:0:0:0:
302,209,56417,1,0,0:0:0:0:
285,196,56517,1,0,0:0:0:0:
262,105,56617,5,0,0:0:0:0:
332,309,56817,1,0,0:0:0:0:
176,179,57017,5,0,0:0:0:0:
296,0,57217,1,0,0:0:0:0:
421,196,57417,5,0,0:0:0:0:
301,17,57617,1,0,0:0:0:0:
289,270,57817,5,0,0:0:0:0:
293,186,57917,1,0,0:0:0:0:
297,102,58017,1,0,0:0:0:0:
47,161,58217,6,0,L|88:171,1,42.3499991599274,0|0,0:0|2:0,0:0:0:0:
189,260,58417,1,0,0:0:0:0:
146,84,58617,1,0,0:0:0:0:
42,71,58817,1,0,0:0:0:0:
244,120,59017,1,0,0:0:0:0:
446,71,59217,1,0,0:0:0:0:
340,75,59417,1,0,0:0:0:0:
297,251,59617,1,0,0:0:0:0:
292,270,59717,1,0,0:0:0:0:
355,382,59817,5,0,0:0:0:0:
385,181,60017,1,0,0:0:0:0:
511,296,60217,1,0,0:0:0:0:
481,95,60417,1,0,0:0:0:0:
274,114,60617,5,0,0:0:0:0:
240,345,60817,1,0,0:0:0:0:
40,375,61017,1,0,0:0:0:0:
0,109,61217,1,0,0:0:0:0:
175,258,61417,5,0,0:0:0:0:
0,293,61617,1,0,0:0:0:0:
279,221,61817,5,0,0:0:0:0:
74,207,62017,1,0,0:0:0:0:
418,81,62217,5,0,0:0:0:0:
185,125,62417,1,0,0:0:0:0:
279,221,62617,1,0,0:0:0:0:
505,68,62817,1,0,0:0:0:0:
353,17,63017,5,0,0:0:0:0:
287,21,63117,1,0,0:0:0:0:
221,25,63217,1,0,0:0:0:0:
155,29,63317,1,0,0:0:0:0:
84,118,63417,5,0,0:0:0:0:
150,122,63517,1,0,0:0:0:0:
216,126,63617,1,0,0:0:0:0:
282,130,63717,1,0,0:0:0:0:
400,172,63817,6,0,L|426:178,7,27.2249999169159,0|0|0|0|0|0|0|0,0:0|2:0|0:0|0:0|0:0|0:0|0:0|0:0,0:0:0:0:
338,252,64217,6,0,L|311:258,7,27.2249999169159,0|0|0|0|0|0|0|0,0:0|2:0|0:0|0:0|0:0|0:0|0:0|0:0,0:0:0:0:
188,250,64617,6,0,P|160:250|134:243,1,54.4499998338318,0|0,0:0|2:0,0:0:0:0:
20,368,64817,2,0,P|47:368|73:361,1,54.4499998338318,0|0,0:0|2:0,0:0:0:0:
53,179,65017,2,0,P|33:229|39:282,1,108.899999667664
148,334,65417,1,0,0:0:0:0:
337,281,65617,1,0,0:0:0:0:
262,265,65717,1,0,0:0:0:0:
188,250,65817,1,0,0:0:0:0:
389,205,66017,1,0,0:0:0:0:
198,119,66217,6,0,L|304:140,1,108.899999667664
495,183,66617,2,0,L|388:204,1,108.899999667664
262,50,67017,1,0,0:0:0:0:
481,78,67217,1,0,0:0:0:0:
406,94,67317,1,0,0:0:0:0:
332,109,67417,1,0,0:0:0:0:
512,164,67617,1,0,0:0:0:0:
301,189,67817,6,0,P|301:216|308:243,1,54.4499998338318,0|0,0:0|2:0,0:0:0:0:
497,306,68017,2,0,P|497:279|491:253,1,54.4499998338318,0|0,0:0|2:0,0:0:0:0:
248,312,68217,2,0,P|298:331|351:325,1,108.899999667664
251,123,68617,5,0,0:0:0:0:
23,72,68817,1,0,0:0:0:0:
98,88,68917,1,0,0:0:0:0:
172,103,69017,1,0,0:0:0:0:
0,161,69217,1,0,0:0:0:0:
213,311,69417,6,0,L|191:204,1,108.899999667664
149,14,69817,2,0,L|127:120,1,108.899999667664
60,298,70217,1,0,0:0:0:0:
282,348,70417,1,0,0:0:0:0:
207,332,70517,1,0,0:0:0:0:
133,317,70617,1,0,0:0:0:0:
328,269,70817,1,0,0:0:0:0:
507,381,71017,6,0,P|504:326|512:272,1,108.899999667664
382,90,71417,2,0,P|390:144|388:199,1,108.899999667664
478,34,71817,1,0,0:0:0:0:
306,152,72017,1,0,0:0:0:0:
140,24,72217,1,0,0:0:0:0:
0,84,72417,1,0,0:0:0:0:
74,99,72517,1,0,0:0:0:0:
149,115,72617,1,0,0:0:0:0:
0,215,72817,1,0,0:0:0:0:
85,6,73017,6,0,L|106:112,1,108.899999667664
161,261,73417,6,0,P|184:247|204:228,1,54.4499998338318,0|0,0:0|2:0,0:0:0:0:
134,368,73617,2,0,P|110:354|90:335,1,54.4499998338318,0|0,0:0|2:0,0:0:0:0:
17,258,73817,1,0,0:0:0:0:
240,340,74017,1,0,0:0:0:0:
247,196,74217,6,0,P|223:209|203:228,1,54.4499998338318,0|0,0:0|2:0,0:0:0:0:
274,89,74417,2,0,P|297:102|317:121,1,54.4499998338318,0|0,0:0|2:0,0:0:0:0:
391,199,74617,1,0,0:0:0:0:
168,117,74817,1,0,0:0:0:0:
314,306,75017,5,0,0:0:0:0:
512,174,75217,1,0,0:0:0:0:
438,189,75317,1,0,0:0:0:0:
363,205,75417,1,0,0:0:0:0:
500,82,75617,1,0,0:0:0:0:
491,368,75817,6,0,L|512:261,1,108.899999667664
341,98,76217,2,0,L|362:204,1,108.899999667664
346,285,76517,1,0,0:0:0:0:
319,368,76617,2,0,P|295:354|275:335,1,54.4499998338318,0|0,0:0|2:0,0:0:0:0:
202,262,76817,1,0,0:0:0:0:
202,277,76917,1,0,0:0:0:0:
76,383,77017,5,0,0:0:0:0:
12,261,77217,1,0,0:0:0:0:
12,246,77317,1,0,0:0:0:0:
179,109,77417,6,0,P|151:109|125:102,1,54.4499998338318,0|0,0:0|2:0,0:0:0:0:
11,227,77617,2,0,P|38:227|64:220,1,54.4499998338318,0|0,0:0|2:0,0:0:0:0:
44,38,77817,2,0,P|24:88|30:141,1,108.899999667664
150,192,78217,1,0,0:0:0:0:
281,24,78417,1,0,0:0:0:0:
203,63,78517,1,0,0:0:0:0:
125,102,78617,1,0,0:0:0:0:
370,47,78817,1,0,0:0:0:0:
318,295,79017,6,0,L|297:188,1,108.899999667664
504,26,79417,2,0,L|483:133,1,108.899999667664
485,312,79817,1,0,0:0:0:0:
348,96,80017,1,0,0:0:0:0:
396,168,80117,1,0,0:0:0:0:
444,241,80217,1,0,0:0:0:0:
257,95,80417,1,0,0:0:0:0:
26,20,80617,6,0,L|78:32,1,54.4499998338318,0|0,0:0|2:0,0:0:0:0:
257,95,80817,2,0,L|204:107,1,54.4499998338318,0|0,0:0|2:0,0:0:0:0:
14,173,81017,2,0,L|119:198,1,108.899999667664,0|0,0:0|2:0,0:0:0:0:
349,123,81417,6,0,L|296:135,1,54.4499998338318,0|0,0:0|2:0,0:0:0:0:
119,198,81617,2,0,L|171:210,1,54.4499998338318,0|0,0:0|2:0,0:0:0:0:
362,276,81817,2,0,L|256:301,1,108.899999667664,0|0,0:0|2:0,0:0:0:0:
54,361,82117,1,0,0:0:0:0:
41,362,82217,6,0,P|48:308|47:253,1,108.899999667664
215,139,82617,1,0,0:0:0:0:
400,222,82817,1,0,0:0:0:0:
446,41,83017,6,0,L|433:93,1,54.4499998338318,0|0,0:0|2:0,0:0:0:0:
512,232,83217,2,0,L|500:180,1,54.4499998338318,0|0,0:0|2:0,0:0:0:0:
400,222,83417,1,0,0:0:0:0:
434,302,83517,1,0,0:0:0:0:
468,382,83617,1,0,0:0:0:0:
301,158,83817,6,0,L|313:210,1,54.4499998338318,0|0,0:0|2:0,0:0:0:0:
234,349,84017,2,0,L|246:296,1,54.4499998338318,0|0,0:0|2:0,0:0:0:0:
98,157,84217,2,0,L|123:262,1,108.899999667664,0|0,0:0|2:0,0:0:0:0:
240,102,84617,6,0,L|187:114,1,54.4499998338318,0|0,0:0|2:0,0:0:0:0:
49,35,84817,2,0,L|101:47,1,54.4499998338318,0|0,0:0|2:0,0:0:0:0:
329,33,85017,2,0,L|223:7,1,108.899999667664,0|0,0:0|2:0,0:0:0:0:
43,209,85417,6,0,P|47:159|97:156,1,108.899999667664
276,179,85817,2,0,P|249:179|223:187,1,54.4499998338318,0|0,0:0|2:0,0:0:0:0:
86,312,86017,2,0,P|109:298|128:279,1,54.4499998338318,0|0,0:0|2:0,0:0:0:0:
178,107,86217,1,0,0:0:0:0:
218,278,86417,1,0,0:0:0:0:
224,293,86517,1,0,0:0:0:0:
327,365,86617,6,0,P|340:341|347:315,1,54.4499998338318,0|0,0:0|2:0,0:0:0:0:
464,228,86817,2,0,P|450:204|443:178,1,54.4499998338318,0|0,0:0|2:0,0:0:0:0:
333,17,87017,5,0,0:0:0:0:
316,181,87217,1,0,0:0:0:0:
476,46,87417,1,0,0:0:0:0:
505,232,87617,1,0,0:0:0:0:
208,185,87817,5,0,0:0:0:0:
422,151,88017,1,0,0:0:0:0:
299,64,88217,1,0,0:0:0:0:
53,24,88417,1,0,0:0:0:0:
42,315,88617,5,0,0:0:0:0:
68,243,88717,1,0,0:0:0:0:
60,167,88817,1,0,0:0:0:0:
18,103,88917,1,0,0:0:0:0:
77,157,89017,5,0,0:0:0:0:
149,183,89117,1,0,0:0:0:0:
225,175,89217,1,0,0:0:0:0:
289,133,89317,1,0,0:0:0:0:
381,80,89417,6,0,L|415:100,7,27.2249999169159
492,181,89817,6,0,L|458:201,7,27.2249999169159
392,292,90217,1,0,0:0:0:0:
392,292,96617,5,0,0:0:0:0:
392,292,96817,1,0,0:0:0:0:
392,292,97017,1,0,0:0:0:0:
392,292,97217,1,0,0:0:0:0:
392,292,97317,1,0,0:0:0:0:
512,320,97417,6,0,L|494:268,1,54.4499998338318
512,112,97617,2,0,L|495:164,1,54.4499998338318
431,218,97817,1,0,0:0:0:0:
431,218,97917,1,0,0:0:0:0:
360,163,98017,2,0,L|342:111,1,54.4499998338318
261,19,98217,5,0,0:0:0:0:
261,19,98417,1,0,0:0:0:0:
261,19,98617,1,0,0:0:0:0:
261,19,98817,1,0,0:0:0:0:
261,19,98917,1,0,0:0:0:0:
192,124,99017,6,0,L|174:175,1,54.4499998338318
13,123,99217,2,0,L|31:175,1,54.4499998338318
110,240,99417,1,0,0:0:0:0:
110,240,99517,1,0,0:0:0:0:
110,384,99617,2,0,L|110:329,1,54.4499998338318
256,371,99817,5,0,0:0:0:0:
256,371,100017,1,0,0:0:0:0:
256,371,100217,1,0,0:0:0:0:
256,371,100417,1,0,0:0:0:0:
256,371,100517,1,0,0:0:0:0:
402,384,100617,6,0,L|401:329,1,54.4499998338318
498,123,100817,2,0,L|481:175,1,54.4499998338318
320,124,101017,2,0,L|337:175,1,54.4499998338318
402,240,101217,1,0,0:0:0:0:
402,240,101317,1,0,0:0:0:0:
256,203,101417,5,0,0:0:0:0:
256,203,101617,1,0,0:0:0:0:
256,203,101817,1,0,0:0:0:0:
256,203,102017,1,0,0:0:0:0:
256,203,102117,1,0,0:0:0:0:
192,124,102217,6,0,L|184:150,3,27.2249999169159
320,124,102417,2,0,L|327:150,3,27.2249999169159
256,0,102617,2,0,L|256:27,7,27.2249999169159
256,203,103017,5,0,0:0:0:0:
124,67,103217,1,0,0:0:0:0:
0,217,103417,2,0,L|84:206,1,84.6999983198548
282,233,103817,5,0,0:0:0:0:
150,97,104017,1,0,0:0:0:0:
26,247,104217,2,0,L|110:236,1,84.6999983198548
307,263,104617,5,0,0:0:0:0:
175,127,104817,1,0,0:0:0:0:
51,277,105017,2,0,L|135:266,1,84.6999983198548
325,342,105417,6,0,L|330:300,1,42.3499991599274
359,188,105617,1,0,0:0:0:0:
364,214,105717,1,0,0:0:0:0:
432,286,105817,1,0,0:0:0:0:
342,98,106017,1,0,0:0:0:0:
369,243,106217,5,0,0:0:0:0:
475,366,106417,1,0,0:0:0:0:
512,154,106617,2,0,P|489:189|474:229,1,84.6999983198548
330,349,107017,5,0,0:0:0:0:
167,360,107217,1,0,0:0:0:0:
291,184,107417,2,0,P|281:225|263:263,1,84.6999983198548
60,330,107817,6,0,L|71:246,1,84.6999983198548
173,94,108217,2,0,L|184:178,1,84.6999983198548
0,62,108617,5,0,0:0:0:0:
193,13,108817,1,0,0:0:0:0:
171,76,108917,1,0,0:0:0:0:
177,141,109017,2,0,P|206:109|243:89,1,84.6999983198548
297,306,109417,5,0,0:0:0:0:
271,192,109617,1,0,0:0:0:0:
283,10,109817,2,0,P|314:38|334:75,1,84.6999983198548
402,286,110217,5,0,0:0:0:0:
456,182,110417,1,0,0:0:0:0:
492,3,110617,2,0,P|454:22|425:52,1,84.6999983198548
371,204,111017,5,0,0:0:0:0:
248,125,111217,1,0,0:0:0:0:
193,301,111417,1,0,0:0:0:0:
328,139,111617,1,0,0:0:0:0:
353,361,111817,5,0,0:0:0:0:
118,262,112017,1,0,0:0:0:0:
182,221,112117,1,0,0:0:0:0:
255,241,112217,1,0,0:0:0:0:
108,348,112417,1,0,0:0:0:0:
59,136,112617,5,0,0:0:0:0:
205,329,113017,1,0,0:0:0:0:
217,11,113417,1,0,0:0:0:0:
108,255,113817,1,0,0:0:0:0:
398,281,114217,6,0,P|337:275|297:322,1,127.049997479782
202,348,114617,2,0,P|214:286|249:234,1,127.049997479782
384,177,115017,2,0,P|321:165|261:136,1,127.049997479782
180,148,115417,1,0,0:0:0:0:
406,14,115617,1,0,0:0:0:0:
441,3,115717,1,0,0:0:0:0:
486,14,115817,6,0,L|512:119,1,108.899999667664
410,219,116217,2,0,L|383:324,1,108.899999667664
512,80,116617,6,0,L|510:188,1,108.899999667664
385,258,117017,2,0,L|332:353,1,108.899999667664
257,384,117317,1,0,0:0:0:0:
179,353,117417,6,0,L|127:258,1,108.899999667664
1,188,117817,2,0,L|0:80,1,108.899999667664
37,278,118217,1,0,0:0:0:0:
106,120,118417,1,0,0:0:0:0:
101,139,118517,1,0,0:0:0:0:
35,13,118617,5,0,0:0:0:0:
190,118,118817,1,0,0:0:0:0:
195,137,118917,1,0,0:0:0:0:
261,11,119017,5,0,0:0:0:0:
389,65,119217,1,0,0:0:0:0:
512,0,119417,1,0,0:0:0:0:
388,95,119617,1,0,0:0:0:0:
261,139,119817,5,0,0:0:0:0:
384,204,120017,1,0,0:0:0:0:
512,150,120217,1,0,0:0:0:0:
385,234,120417,1,0,0:0:0:0:
377,246,120517,1,0,0:0:0:0:
503,353,120617,5,0,0:0:0:0:
375,299,120817,1,0,0:0:0:0:
252,364,121017,1,0,0:0:0:0:
111,210,121217,1,0,0:0:0:0:
41,359,121417,6,0,P|62:342|79:321,1,54.4499998338318
190,255,121617,2,0,P|200:229|204:203,1,54.4499998338318
7,278,121817,1,0,0:0:0:0:
85,119,122017,1,0,0:0:0:0:
81,138,122117,1,0,0:0:0:0:
217,211,122217,5,0,0:0:0:0:
89,101,122417,1,0,0:0:0:0:
44,318,122617,1,0,0:0:0:0:
99,219,122817,1,0,0:0:0:0:
270,128,123017,5,0,0:0:0:0:
325,227,123217,1,0,0:0:0:0:
467,210,123417,5,0,0:0:0:0:
395,338,123617,1,0,0:0:0:0:
388,361,123717,1,0,0:0:0:0:
320,213,123817,5,0,0:0:0:0:
438,89,124017,1,0,0:0:0:0:
451,197,124217,5,0,0:0:0:0:
356,24,124417,1,0,0:0:0:0:
61,197,124617,5,0,0:0:0:0:
156,24,124817,1,0,0:0:0:0:
170,7,124917,1,0,0:0:0:0:
230,149,125017,5,0,0:0:0:0:
170,41,125217,1,0,0:0:0:0:
156,24,125317,1,0,0:0:0:0:
96,166,125417,5,0,0:0:0:0:
58,81,125617,1,0,0:0:0:0:
171,237,125817,5,0,0:0:0:0:
182,116,126017,1,0,0:0:0:0:
0,327,126217,6,0,B|49:316|49:316|107:316,1,108.899999667664
278,226,126617,2,0,B|229:237|229:237|170:237,1,108.899999667664
195,327,126917,1,0,0:0:0:0:
305,312,127017,2,0,P|363:259|359:180,1,163.349999501495
268,133,127417,2,0,P|329:83|408:91,1,163.349999501495
470,192,127817,6,0,B|499:192|518:178|518:178|524:126|513:66,1,163.349999501495
367,24,128217,5,0,0:0:0:0:
292,40,128317,1,0,0:0:0:0:
333,104,128417,1,0,0:0:0:0:
408,91,128517,1,0,0:0:0:0:
219,7,128617,1,0,0:0:0:0:
219,7,130217,5,0,0:0:0:0:
201,54,130617,1,0,0:0:0:0:
204,107,131017,1,0,0:0:0:0:
192,162,131417,1,0,0:0:0:0:
440,309,131817,1,0,0:0:0:0:
219,7,133417,5,0,0:0:0:0:
201,54,133817,1,0,0:0:0:0:
204,107,134217,1,0,0:0:0:0:
192,162,134617,1,0,0:0:0:0:
440,309,135017,1,0,0:0:0:0:
440,309,136617,5,0,0:0:0:0:
291,231,137017,1,0,0:0:0:0:
143,310,137417,1,0,0:0:0:0:
17,200,137817,1,0,0:0:0:0:
507,49,138217,5,0,0:0:0:0:
488,101,139017,5,0,0:0:0:0:
394,178,139417,1,0,0:0:0:0:
346,302,139817,1,0,0:0:0:0:
274,150,140217,1,0,0:0:0:0:
207,277,140617,1,0,0:0:0:0:
113,153,141017,1,0,0:0:0:0:
115,174,141417,6,0,P|103:115|114:55,1,122.100002980957
116,211,141817,2,0,P|89:157|83:97,1,122.100002980957
126,247,142217,2,0,P|85:201|65:144,1,122.100002980957
144,278,142617,2,0,P|94:245|59:195,1,122.100002980957
56,274,142917,1,0,0:0:0:0:
48,359,143017,6,0,P|108:355|163:329,1,122.100002980957
227,236,143417,2,0,P|166:232|111:206,1,122.100002980957
312,308,143817,2,0,P|369:288|416:249,1,122.100002980957
499,130,144217,6,0,P|470:139|446:159,1,61.0500014904786
512,214,144417,1,0,0:0:0:0:
410,75,144617,6,0,P|366:116|344:173,1,122.100002980957
271,29,145017,1,0,0:0:0:0:
236,186,145217,1,0,0:0:0:0:
93,10,145417,6,0,P|137:50|159:107,1,122.100002980957
139,248,145817,1,0,0:0:0:0:
18,154,146017,1,0,0:0:0:0:
12,224,146117,1,0,0:0:0:0:
41,288,146217,6,0,P|38:228|63:173,1,122.100002980957
245,318,146617,2,0,P|194:351|134:358,1,122.100002980957
185,129,147017,2,0,P|238:156|274:205,1,122.100002980957,0|0,2:0|0:0,0:0:0:0:
324,366,147417,1,0,0:0:0:0:
328,277,147517,1,0,0:0:0:0:
367,197,147617,1,0,0:0:0:0:
371,38,147817,5,0,0:0:0:0:
410,157,148017,1,0,0:0:0:0:
281,53,148217,5,0,0:0:0:0:
287,196,148417,1,0,0:0:0:0:
190,46,148617,5,0,0:0:0:0:
153,205,148817,1,0,0:0:0:0:
104,17,149017,5,0,0:0:0:0:
15,182,149217,1,0,0:0:0:0:
9,207,149317,1,0,0:0:0:0:
39,357,149417,5,0,0:0:0:0:
0,238,149617,1,0,0:0:0:0:
129,342,149817,5,0,0:0:0:0:
123,199,150017,1,0,0:0:0:0:
220,349,150217,5,0,0:0:0:0:
257,190,150417,1,0,0:0:0:0:
305,384,150617,5,0,0:0:0:0:
341,313,150717,1,0,0:0:0:0:
376,242,150817,1,0,0:0:0:0:
512,384,151017,5,0,0:0:0:0:
415,174,151217,1,0,0:0:0:0:
246,277,151417,5,0,0:0:0:0:
343,69,151617,1,0,0:0:0:0:
233,117,151817,1,0,0:0:0:0:
463,110,152017,1,0,0:0:0:0:
501,0,152217,5,0,0:0:0:0:
305,153,152417,1,0,0:0:0:0:
106,4,152617,5,0,0:0:0:0:
111,77,152717,1,0,0:0:0:0:
116,150,152817,1,0,0:0:0:0:
121,223,152917,1,0,0:0:0:0:
53,320,153017,5,0,0:0:0:0:
126,315,153117,1,0,0:0:0:0:
199,310,153217,1,0,0:0:0:0:
272,305,153317,1,0,0:0:0:0:
376,328,153417,6,0,L|378:358,3,30.5250007452393
434,258,153617,2,0,L|432:228,3,30.5250007452393
505,331,153817,6,0,L|507:361,7,30.5250007452393
509,214,154217,6,0,P|468:156|398:148,1,146.299993972626
244,205,154617,2,0,P|299:159|307:88,1,146.299993972626
351,262,155017,5,0,0:0:0:0:
222,116,155217,1,0,0:0:0:0:
159,178,155317,1,0,0:0:0:0:
176,263,155417,1,0,0:0:0:0:
134,89,155617,1,0,0:0:0:0:
126,340,155817,5,0,0:0:0:0:
248,204,156017,1,0,0:0:0:0:
70,153,156217,5,0,0:0:0:0:
107,330,156417,1,0,0:0:0:0:
5,87,156617,1,0,0:0:0:0:
89,64,156717,1,0,0:0:0:0:
156,119,156817,1,0,0:0:0:0:
195,275,157017,6,0,P|172:246|162:211,1,73.149996986313
247,207,157217,1,0,0:0:0:0:
189,366,157417,5,0,0:0:0:0:
288,100,157617,1,0,0:0:0:0:
312,321,157817,2,0,P|304:250|248:206,1,146.299993972626
407,381,158217,5,0,0:0:0:0:
401,145,158417,1,0,0:0:0:0:
450,217,158517,1,0,0:0:0:0:
453,304,158617,1,0,0:0:0:0:
491,133,158817,1,0,0:0:0:0:
329,257,159017,5,0,0:0:0:0:
436,65,159217,1,0,0:0:0:0:
485,249,159417,1,0,0:0:0:0:
328,39,159617,1,0,0:0:0:0:
409,304,159817,1,0,0:0:0:0:
508,2,160017,5,0,0:0:0:0:
479,85,160117,1,0,0:0:0:0:
393,102,160217,2,0,P|395:65|406:30,1,73.149996986313
291,167,160417,2,0,P|302:201|304:238,1,73.149996986313
133,353,160617,6,0,P|142:281|190:228,1,146.299993972626
290,340,161017,2,0,P|230:358|237:296,1,146.299993972626,0|0,3:0|0:0,0:0:0:0:
206,143,161417,5,0,0:0:0:0:
209,365,161617,1,0,0:0:0:0:
59,204,161817,1,0,0:0:0:0:
118,320,162017,1,0,0:0:0:0:
129,336,162117,1,0,0:0:0:0:
149,214,162217,5,0,0:0:0:0:
20,375,162417,1,0,0:0:0:0:
127,99,162617,1,0,0:0:0:0:
256,260,162817,1,0,0:0:0:0:
361,0,163017,5,0,0:0:0:0:
183,203,163217,1,0,0:0:0:0:
256,232,163317,1,0,0:0:0:0:
339,221,163417,2,0,P|336:257|325:292,1,73.149996986313
441,156,163617,2,0,P|429:121|427:84,1,73.149996986313
304,0,163817,6,0,P|298:72|276:142,1,146.299993972626
141,44,164217,2,0,P|166:101|210:57,1,146.299993972626,0|0,3:0|0:0,0:0:0:0:
124,226,164617,5,0,0:0:0:0:
50,33,164817,1,0,0:0:0:0:
80,115,164917,1,0,0:0:0:0:
165,133,165017,1,0,0:0:0:0:
15,207,165217,1,0,0:0:0:0:
0,216,165317,1,0,0:0:0:0:
44,318,165417,5,0,0:0:0:0:
216,211,165617,1,0,0:0:0:0:
452,304,165817,1,0,0:0:0:0:
154,304,166017,5,0,0:0:0:0:
241,300,166117,1,0,0:0:0:0:
303,238,166217,1,0,0:0:0:0:
458,318,166417,5,0,0:0:0:0:
371,314,166517,1,0,0:0:0:0:
309,252,166617,1,0,0:0:0:0:
308,164,166717,1,0,0:0:0:0:
389,196,166817,1,0,0:0:0:0:
395,108,166917,1,0,0:0:0:0:
446,14,167017,5,0,0:0:0:0:
498,150,167217,1,0,0:0:0:0:
273,59,167417,5,0,0:0:0:0:
213,215,167617,1,0,0:0:0:0:
150,22,167817,2,0,P|147:58|136:93,1,73.149996986313
22,187,168017,2,0,P|25:150|36:115,1,73.149996986313
113,240,168217,2,0,P|121:275|119:312,1,73.149996986313
35,302,168417,1,0,0:0:0:0:
37,283,168517,1,0,0:0:0:0:
113,161,168617,5,0,0:0:0:0:
62,384,168817,1,0,0:0:0:0:
221,143,169017,5,0,0:0:0:0:
229,371,169217,1,0,0:0:0:0:
157,92,169417,5,0,0:0:0:0:
385,83,169617,1,0,0:0:0:0:
409,81,169717,1,0,0:0:0:0:
268,0,169817,5,0,0:0:0:0:
357,205,170017,1,0,0:0:0:0:
439,78,170217,6,0,P|451:149|448:222,1,146.299993972626
492,378,170617,2,0,P|466:315|397:319,1,146.299993972626
252,338,170917,1,0,0:0:0:0:
259,372,171017,1,0,0:0:0:0:
81,341,171217,5,0,0:0:0:0:
133,270,171317,1,0,0:0:0:0:
216,244,171417,1,0,0:0:0:0:
43,258,171617,1,0,0:0:0:0:
280,113,171817,6,0,L|162:25,1,146.299993972626
44,5,172217,2,0,B|66:76|66:76|123:119,1,146.299993972626
392,125,172617,2,0,B|371:56|371:56|312:12,1,146.299993972626
198,165,173017,5,0,0:0:0:0:
440,29,173217,1,0,0:0:0:0:
461,20,173317,1,0,0:0:0:0:
398,144,173417,5,0,0:0:0:0:
311,11,173617,1,0,0:0:0:0:
291,237,173817,5,0,0:0:0:0:
421,37,174017,1,0,0:0:0:0:
489,209,174217,2,0,P|500:174|503:137,1,73.149996986313
393,205,174417,2,0,P|400:240|416:273,1,73.149996986313
503,362,174617,2,0,P|472:342|437:329,1,73.149996986313
328,338,174817,1,0,0:0:0:0:
156,336,175017,6,0,P|221:306|252:234,1,146.299993972626
132,47,175417,1,0,0:0:0:0:
65,187,175617,1,0,0:0:0:0:
62,209,175717,1,0,0:0:0:0:
25,74,175817,5,0,0:0:0:0:
151,230,176017,1,0,0:0:0:0:
239,18,176217,1,0,0:0:0:0:
240,120,176317,1,0,0:0:0:0:
280,213,176417,1,0,0:0:0:0:
512,304,176617,6,0,P|439:296|366:300,1,146.299993972626
299,380,177017,1,0,0:0:0:0:
389,195,177217,1,0,0:0:0:0:
454,323,177417,1,0,0:0:0:0:
402,60,177617,1,0,0:0:0:0:
267,290,177817,1,0,0:0:0:0:
485,135,178017,1,0,0:0:0:0:
354,352,178217,5,0,0:0:0:0:
363,279,178317,1,0,0:0:0:0:
335,211,178417,1,0,0:0:0:0:
268,181,178517,1,0,0:0:0:0:
163,204,178617,5,0,0:0:0:0:
190,135,178717,1,0,0:0:0:0:
181,62,178817,1,0,0:0:0:0:
124,16,178917,1,0,0:0:0:0:
2,104,179017,5,0,0:0:0:0:
74,101,179117,1,0,0:0:0:0:
140,134,179217,1,0,0:0:0:0:
163,204,179317,1,0,0:0:0:0:
208,347,179417,6,0,P|213:310|227:277,1,73.149996986313
77,259,179617,2,0,P|72:223|58:190,1,73.149996986313
124,16,179817,6,0,P|160:43|204:53,1,91.3000013234711
171,152,180017,2,0,P|215:157|259:144,1,91.3000013234711
415,30,180217,6,0,P|397:71|364:102,1,91.3000013234711
448,177,180417,1,0,0:0:0:0:
448,177,180517,1,0,0:0:0:0:
448,177,180617,6,0,P|411:204|367:214,1,91.3000013234711
194,279,180817,2,0,P|238:273|282:286,1,91.3000013234711
482,293,181017,2,0,P|437:287|393:300,1,91.3000013234711
375,333,181217,1,0,0:0:0:0:
375,333,181317,1,0,0:0:0:0:
231,377,181417,6,0,L|140:364,1,91.3000013234711
4,271,181617,2,0,L|94:258,1,91.3000013234711
232,168,181817,2,0,L|322:155,1,91.3000013234711
459,62,182017,2,0,L|368:49,1,91.3000013234711
123,44,182217,6,0,L|214:57,1,91.3000013234711
339,169,182417,2,0,L|248:181,1,91.3000013234711
94,258,182617,1,0,0:0:0:0:
103,186,182717,1,0,0:0:0:0:
112,114,182817,1,0,0:0:0:0:
121,42,182917,1,0,0:0:0:0:
0,109,183017,6,0,B|18:131|18:131|170:103,1,182.600002646942
196,116,183317,1,0,0:0:0:0:
468,36,183417,6,0,P|426:18|380:20,1,91.3000013234711
352,189,183617,2,0,P|387:161|408:121,1,91.3000013234711
248,178,183817,2,0,P|254:223|278:262,1,91.3000013234711
308,94,184017,2,0,P|266:76|220:78,1,91.3000013234711
322,359,184217,2,0,P|357:331|378:291,1,91.3000013234711
408,121,184417,1,0,0:0:0:0:
408,121,184517,1,0,0:0:0:0:
408,121,184617,6,0,P|428:161|464:188,1,91.3000013234711
482,366,184817,2,0,P|484:320|466:278,1,91.3000013234711
323,197,185017,2,0,P|277:194|235:212,1,91.3000013234711
265,381,185217,2,0,P|289:342|296:298,1,91.3000013234711
0,45,185417,6,0,P|7:135|7:227,1,182.600002646942
0,260,185717,1,0,0:0:0:0:
210,121,185817,2,0,P|202:211|202:303,1,182.600002646942
210,336,186117,1,0,0:0:0:0:
379,264,186217,6,0,P|358:223|322:196,1,91.3000013234711
111,286,186417,2,0,P|131:245|167:218,1,91.3000013234711
314,98,186617,2,0,P|275:73|230:67,1,91.3000013234711
91,250,186817,2,0,P|88:204|106:162,1,91.3000013234711
373,98,187017,6,0,P|297:47|208:29,1,182.600002646942
71,25,187317,1,0,0:0:0:0:
82,31,187417,2,0,P|115:61|132:103,1,91.3000013234711
104,254,187617,2,0,P|94:209|66:173,1,91.3000013234711
44,340,187817,6,0,P|85:357|131:355,1,91.3000013234711
160,186,188017,2,0,P|124:213|103:253,1,91.3000013234711
235,363,188217,2,0,P|228:318|204:279,1,91.3000013234711
41,355,188417,2,0,P|82:372|128:370,1,91.3000013234711
204,279,188617,6,0,P|242:255|287:249,1,91.3000013234711
387,311,188817,2,0,P|427:290|455:254,1,91.3000013234711
505,90,189017,5,0,0:0:0:0:
458,146,189117,1,0,0:0:0:0:
385,148,189217,1,0,0:0:0:0:
327,102,189317,1,0,0:0:0:0:
237,15,189417,6,0,P|278:-2|324:0,1,91.3000013234711
419,63,189617,1,0,0:0:0:0:
220,31,189817,2,0,P|264:25|307:39,1,91.3000013234711
383,124,190017,1,0,0:0:0:0:
448,367,190217,6,0,B|432:352|432:352|417:284,1,91.3000013234711
291,216,190417,2,0,B|277:284|277:284|261:299,1,91.3000013234711
30,267,190617,6,0,B|15:199|15:199|0:184,1,91.3000013234711
186,252,190817,2,0,B|170:267|170:267|155:334,1,91.3000013234711
119,172,191017,6,0,P|205:149|276:201,1,182.600002646942
287,231,191317,1,0,0:0:0:0:
351,125,191417,2,0,P|374:163|382:208,1,91.3000013234711
396,296,191617,1,0,0:0:0:0:
398,316,191717,1,0,0:0:0:0:
451,95,191817,6,0,P|390:29|301:32,1,182.600002646942
279,52,192117,1,0,0:0:0:0:
187,202,192217,5,0,0:0:0:0:
194,130,192317,1,0,0:0:0:0:
97,54,192417,1,0,0:0:0:0:
104,126,192517,1,0,0:0:0:0:
11,283,192617,6,0,L|28:101,1,182.600002646942
205,384,193017,2,0,L|187:202,1,182.600002646942
199,40,193417,6,0,P|170:75|133:102,1,91.3000013234711
340,165,193617,2,0,P|303:137|274:102,1,91.3000013234711
440,0,193817,2,0,P|403:27|374:62,1,91.3000013234711
472,194,194017,2,0,P|478:148|474:103,1,91.3000013234711
370,271,194217,6,0,P|363:316|367:361,1,91.3000013234711
512,366,194417,2,0,P|516:320|509:275,1,91.3000013234711
340,165,194617,2,0,P|304:193|277:230,1,91.3000013234711
195,384,194817,2,0,P|190:338|197:293,1,91.3000013234711
262,85,195017,6,0,P|266:130|259:175,1,91.3000013234711
167,302,195217,2,0,P|129:328|87:345,1,91.3000013234711
11,241,195417,5,0,0:0:0:0:
16,168,195517,1,0,0:0:0:0:
102,100,195617,1,0,0:0:0:0:
97,27,195717,1,0,0:0:0:0:
129,191,195817,6,0,B|161:181|200:189|200:189|259:215|322:200,1,182.600002646942
339,217,196117,1,0,0:0:0:0:
496,87,196217,2,0,B|464:76|425:84|425:84|366:110|303:95,1,182.600002646942
288,114,196517,1,0,0:0:0:0:
336,383,196617,6,0,P|366:349|375:305,1,91.3000013234711
465,179,196817,2,0,P|462:224|483:265,1,91.3000013234711
323,206,197017,2,0,P|332:162|318:120,1,91.3000013234711
447,0,197217,2,0,P|423:36|421:82,1,91.3000013234711
483,265,197417,6,0,P|458:227|418:206,1,91.3000013234711
255,162,197617,2,0,P|214:141|190:103,1,91.3000013234711
27,265,197817,2,0,P|51:227|91:206,1,91.3000013234711
255,162,198017,2,0,P|295:141|319:103,1,91.3000013234711
58,0,198217,6,0,P|56:45|77:84,1,91.3000013234711
176,233,198417,2,0,P|177:187|156:148,1,91.3000013234711
109,294,198617,1,0,0:0:0:0:
195,324,198717,1,0,0:0:0:0:
263,263,198817,1,0,0:0:0:0:
246,173,198917,1,0,0:0:0:0:
282,354,199017,6,0,B|314:370|346:354|346:354|402:338|460:352,1,182.600002646942
491,373,199317,1,0,0:0:0:0:
507,223,199417,6,0,B|475:239|443:223|443:223|387:207|328:221,1,182.600002646942
298,242,199717,1,0,0:0:0:0:
219,105,199817,6,0,P|264:106|308:118,1,91.3000013234711
485,33,200017,2,0,P|439:33|394:43,1,91.3000013234711
133,35,200217,2,0,P|172:12|216:0,1,91.3000013234711
310,33,200417,1,0,0:0:0:0:
320,42,200517,1,0,0:0:0:0:
399,133,200617,6,0,P|444:135|489:147,1,91.3000013234711
338,269,200817,2,0,P|383:259|429:259,1,91.3000013234711
186,249,201017,2,0,P|140:250|96:262,1,91.3000013234711
161,373,201217,2,0,P|206:373|251:383,1,91.3000013234711
274,155,201417,6,0,P|228:150|185:136,1,91.3000013234711
20,83,201617,2,0,P|40:123|69:158,1,91.3000013234711
170,241,201817,1,0,0:0:0:0:
186,249,201917,1,0,0:0:0:0:
274,155,202017,1,0,0:0:0:0:
258,163,202117,1,0,0:0:0:0:
122,88,202217,6,0,P|157:59|197:38,1,91.3000013234711
325,5,202417,2,0,P|369:-2|415:0,1,91.3000013234711
192,177,202617,6,0,P|237:179|282:171,1,91.3000013234711
409,138,202818,2,0,P|449:117|484:88,1,91.3000013234711
329,365,203017,6,0,P|361:280|353:190,1,182.600002646942
337,162,203317,1,0,0:0:0:0:
509,262,203417,6,0,P|476:177|484:87,1,182.600002646942
497,57,203717,1,0,0:0:0:0:
354,14,203817,5,0,0:0:0:0:
288,63,203917,1,0,0:0:0:0:
206,72,204017,1,0,0:0:0:0:
128,44,204117,1,0,0:0:0:0:
32,0,204217,5,0,0:0:0:0:
43,80,204317,1,0,0:0:0:0:
95,145,204417,1,0,0:0:0:0:
170,179,204517,1,0,0:0:0:0:
249,279,204617,5,0,0:0:0:0:
261,187,204717,1,0,0:0:0:0:
321,112,204817,1,0,0:0:0:0:
407,73,204917,1,0,0:0:0:0:
512,102,205017,6,0,L|507:124,15,22.8250003308678
480,225,205417,5,4,0:0:0:0:
481,249,205617,1,0,0:0:0:0:
490,280,205817,2,0,P|441:290|384:318,1,96.8000029541017
356,334,206417,1,0,0:0:0:0:
322,368,206617,1,0,0:0:0:0:
208,368,206817,6,0,B|224:336|224:312|224:312|248:280|281:264|281:264|288:232|281:204,1,193.600005908203
274,192,208017,5,0,0:0:0:0:
248,160,208217,1,0,0:0:0:0:
236,93,208417,1,0,0:0:0:0:
170,2,208617,5,0,0:0:0:0:
151,85,208817,1,0,0:0:0:0:
104,165,209017,2,0,P|100:117|74:76,1,96.8000029541017
4,154,209617,1,0,0:0:0:0:
36,255,209817,1,0,0:0:0:0:
71,371,210017,6,0,B|88:350|86:324|86:324|126:294|120:240,1,145.200004431152
124,226,211217,5,0,0:0:0:0:
137,207,211417,1,0,0:0:0:0:
186,151,211617,1,0,0:0:0:0:
226,272,211817,5,0,0:0:0:0:
268,190,212017,1,0,0:0:0:0:
275,110,212217,2,0,P|271:158|282:204,1,96.8000029541017
336,303,212817,1,0,0:0:0:0:
382,217,213017,1,0,0:0:0:0:
354,84,213217,6,0,P|345:62|331:43,2,48.4000014770508
433,140,213817,1,0,0:0:0:0:
445,162,214017,1,0,0:0:0:0:
490,262,214217,5,0,0:0:0:0:
486,295,214417,1,0,0:0:0:0:
410,384,214617,1,0,0:0:0:0:
402,354,214817,1,0,0:0:0:0:
281,228,215017,5,0,0:0:0:0:
258,190,215217,1,0,0:0:0:0:
220,166,215417,2,0,P|200:209|197:257,1,96.8000029541017
208,299,216017,1,0,0:0:0:0:
127,303,216217,1,0,0:0:0:0:
45,332,216417,2,0,B|19:270|83:232|83:232|13:203|29:135,1,242.000007385254
36,112,218217,5,0,0:0:0:0:
109,152,218417,1,0,0:0:0:0:
267,144,218617,1,0,0:0:0:0:
268,131,219017,5,0,0:0:0:0:
192,173,219217,1,0,0:0:0:0:
271,229,219417,1,0,0:0:0:0:
328,70,219617,6,0,P|260:49|197:80,1,145.200004431152
347,91,220817,5,0,0:0:0:0:
357,119,221017,1,0,0:0:0:0:
359,144,221217,1,0,0:0:0:0:
446,34,221417,5,0,0:0:0:0:
448,53,221617,1,0,0:0:0:0:
474,84,221817,2,0,L|483:179,1,96.8000029541017
428,255,222417,1,0,0:0:0:0:
431,285,222617,1,0,0:0:0:0:
306,341,222817,6,0,L|322:182,1,145.200004431152
320,196,224017,5,0,0:0:0:0:
318,176,224217,1,0,0:0:0:0:
322,142,224417,1,0,0:0:0:0:
234,42,224617,1,0,0:0:0:0:
234,68,224817,1,0,0:0:0:0:
151,188,225017,6,0,L|141:91,1,96.8000029541017
56,20,225617,1,0,0:0:0:0:
59,42,225817,1,0,0:0:0:0:
25,133,226017,6,0,L|21:182,1,48.4000014770508
26,208,226417,1,0,0:0:0:0:
51,250,226617,1,0,0:0:0:0:
81,338,226817,1,0,0:0:0:0:
112,323,227017,5,0,0:0:0:0:
183,235,227217,1,0,0:0:0:0:
204,94,227417,1,0,0:0:0:0:
311,199,227617,1,0,0:0:0:0:
304,168,227817,5,0,0:0:0:0:
277,246,228017,1,0,0:0:0:0:
280,336,228217,1,0,0:0:0:0:
287,349,228617,5,0,0:0:0:0:
345,282,228817,1,0,0:0:0:0:
456,231,229017,1,0,0:0:0:0:
499,107,229217,6,0,B|460:92|460:92|434:114|434:114|401:108|401:108|375:104|350:115|350:115|328:172,1,217.800006646729
