osu file format v14

[General]
AudioFilename: audio.mp3
AudioLeadIn: 0
PreviewTime: 41797
Countdown: 0
SampleSet: Soft
StackLeniency: 0.7
Mode: 2
LetterboxInBreaks: 0
WidescreenStoryboard: 1

[Editor]
DistanceSpacing: 0.7
BeatDivisor: 4
GridSize: 8
TimelineZoom: 2.4

[Metadata]
Title:Koi no Yukue (TV Size)
TitleUnicode:恋ノ行方 (TV Size)
Artist:Akase Akari
ArtistUnicode:あかせあかり
Creator:Kagari
Version:Platter
Source:その着せ替え人形は恋をする
Tags:着せ恋 My Dress-Up Darling Sono Kisekae Ningyou wa Koi wo Suru Sono Bisque Doll wa Koi wo Suru J-pop Jpop pop Anime Japanese Ending ed NA.ZU.NA 喜多川海夢 Kitagawa Marin 五条新菜 Gojou Wakana
BeatmapID:3481989
BeatmapSetID:1703767

[Difficulty]
HPDrainRate:5
CircleSize:4
OverallDifficulty:8
ApproachRate:8
SliderMultiplier:2.2
SliderTickRate:1

[Events]
//Background and Video events
0,0,"gojomarin.jpg",0,0
Video,185,"ed.mp4"
//Break Periods
//Storyboard Layer 0 (Background)
//Storyboard Layer 1 (Fail)
//Storyboard Layer 2 (Pass)
//Storyboard Layer 3 (Foreground)
//Storyboard Layer 4 (Overlay)
//Storyboard Sound Samples

[TimingPoints]
-310,428.571428571429,4,2,1,45,1,0
1404,-100,4,2,1,60,0,0
15118,-100,4,2,1,55,0,0
28832,-100,4,2,1,60,0,0
42547,-100,4,2,1,70,0,1
55832,-100,4,2,1,70,0,0
56261,-100,4,2,1,70,0,1
75118,-100,4,2,1,65,0,0
88297,-100,4,2,1,60,0,0
88404,-100,4,2,1,55,0,0
88511,-100,4,2,1,50,0,0
88618,-100,4,2,1,45,0,0
88832,-100,4,2,1,35,0,0

[Colours]
Combo1 : 246,163,209
Combo2 : 255,190,194
Combo3 : 49,101,149

[HitObjects]
112,112,1404,6,0,L|224:112,1,110,4|0,3:1|0:0,0:0:0:0:
328,112,1832,2,0,L|328:224,1,110,8|0,0:0|0:0,0:0:0:0:
128,120,2261,1,2,0:0:0:0:
40,136,2475,1,0,3:0:0:0:
128,152,2690,1,8,0:0:0:0:
328,248,2904,6,0,P|392:168|328:88,1,220,2|0,3:2|3:0,0:0:0:0:
224,112,3547,1,8,0:0:0:0:
120,96,3761,1,0,3:0:0:0:
288,136,3975,1,2,3:2:0:0:
288,96,4190,1,0,3:0:0:0:
400,216,4404,1,8,0:0:0:0:
400,160,4618,1,0,3:0:0:0:
200,224,4832,5,2,3:2:0:0:
96,224,5047,1,0,0:0:0:0:
200,160,5261,1,8,0:0:0:0:
96,160,5475,1,0,0:0:0:0:
296,96,5690,1,2,0:0:0:0:
184,96,5904,1,0,3:0:0:0:
184,72,6118,1,8,0:0:0:0:
384,88,6332,6,0,L|480:144,3,110,2|0|0|8,3:2|0:0|3:0|0:0,0:0:0:0:
280,232,7190,2,0,L|184:176,2,110,2|0|0,3:2|0:0|3:0,0:0:0:0:
80,208,7832,2,0,L|80:96,1,110,8|8,0:0|0:0,0:0:0:0:
400,112,8261,6,0,L|288:112,1,110,4|0,3:1|0:0,0:0:0:0:
184,112,8689,2,0,L|184:224,1,110,8|0,0:0|0:0,0:0:0:0:
384,120,9118,1,2,0:0:0:0:
472,136,9332,1,0,3:0:0:0:
384,152,9547,1,8,0:0:0:0:
184,248,9761,6,0,P|120:168|184:88,1,220,2|0,3:2|3:0,0:0:0:0:
288,112,10404,1,8,0:0:0:0:
392,96,10618,1,0,3:0:0:0:
224,136,10832,1,2,3:2:0:0:
224,96,11047,1,0,3:0:0:0:
112,216,11261,1,8,0:0:0:0:
112,160,11475,1,0,3:0:0:0:
312,216,11690,6,0,P|376:168|368:88,1,165,6|8,3:2|0:0,0:0:0:0:
312,88,12118,1,8,0:0:0:0:
112,88,12332,2,0,P|40:152|112:224,1,220,6|8,3:2|0:0,0:0:0:0:
400,104,12975,6,0,P|472:168|400:240,1,220,14|0,3:2|0:0,0:0:0:0:
200,168,13618,1,8,0:3:0:0:
312,168,13832,1,8,0:3:0:0:
112,208,14047,2,0,L|112:96,1,110,8|0,0:3|0:0,0:0:0:0:
312,80,14475,2,0,P|384:144|312:216,1,220,4|0,0:3|0:0,0:0:0:0:
112,176,15118,5,6,3:2:0:0:
112,136,15547,1,0,0:0:0:0:
312,128,15975,1,2,0:0:0:0:
208,112,16190,1,0,3:0:0:0:
312,176,16404,1,8,0:0:0:0:
112,192,16618,5,6,3:2:0:0:
232,192,17047,1,0,3:0:0:0:
336,192,17261,1,8,0:0:0:0:
136,192,17475,1,2,3:2:0:0:
312,152,17904,1,0,3:0:0:0:
112,168,18118,2,0,L|112:56,1,110,8|0,0:0|0:0,0:0:0:0:
312,88,18547,5,6,3:2:0:0:
416,120,18761,1,0,0:0:0:0:
312,160,18975,1,0,0:0:0:0:
416,176,19190,1,0,3:0:0:0:
216,192,19404,2,0,L|120:136,2,110,8|8|8,0:0|0:0|0:0,0:0:0:0:
416,200,20047,6,0,L|416:88,1,110,6|0,3:2|0:0,0:0:0:0:
312,160,20475,2,0,L|208:120,2,110,8|0|0,0:0|0:0|3:0,0:0:0:0:
112,88,21118,1,2,0:0:0:0:
216,88,21332,1,0,3:0:0:0:
112,192,21547,2,0,L|112:80,1,110,8|0,0:0|0:0,0:0:0:0:
400,176,21975,5,6,3:2:0:0:
400,136,22404,1,0,0:0:0:0:
200,128,22832,1,2,0:0:0:0:
304,112,23047,1,0,3:0:0:0:
200,176,23261,1,8,0:0:0:0:
400,192,23475,5,6,3:2:0:0:
280,192,23904,1,0,3:0:0:0:
176,192,24118,1,8,0:0:0:0:
376,192,24332,1,2,3:2:0:0:
200,152,24761,1,0,3:0:0:0:
400,168,24975,2,0,L|400:56,1,110,8|0,0:0|0:0,0:0:0:0:
200,88,25404,5,6,3:2:0:0:
96,120,25618,1,0,0:0:0:0:
200,160,25832,1,0,0:0:0:0:
96,176,26047,1,0,3:0:0:0:
296,192,26261,2,0,L|392:136,2,110,8|8|8,0:0|0:0|0:0,0:0:0:0:
96,200,26904,6,0,L|96:88,1,110,6|0,3:2|0:0,0:0:0:0:
192,96,27332,1,8,0:0:0:0:
288,96,27547,1,2,0:0:0:0:
192,160,27761,1,0,3:0:0:0:
392,192,27975,5,8,0:0:0:0:
496,192,28190,1,0,3:0:0:0:
496,144,28404,1,8,0:0:0:0:
392,96,28618,1,8,0:0:0:0:
104,272,28832,6,0,P|104:168|200:120,1,220,6|8,3:2|0:0,0:0:0:0:
312,120,29475,1,0,0:0:0:0:
112,192,29690,2,0,L|208:136,2,110,2|0|8,0:0|3:0|0:0,0:0:0:0:
312,216,30332,6,0,L|312:104,1,110,2|0,0:0|0:0,0:0:0:0:
208,200,30761,1,0,3:0:0:0:
208,128,30975,1,8,0:0:0:0:
408,232,31190,2,0,P|480:168|408:96,1,220,2|0,0:0|3:0,0:0:0:0:
208,136,31832,1,8,0:0:0:0:
208,96,32047,1,0,3:0:0:0:
408,272,32261,6,0,P|408:168|312:120,1,220,2|8,3:2|0:0,0:0:0:0:
200,120,32904,1,0,0:0:0:0:
400,192,33118,2,0,L|304:136,2,110,2|0|8,0:0|3:0|0:0,0:0:0:0:
200,216,33761,6,0,L|200:106,1,110,2|0,0:0|0:0,0:0:0:0:
304,200,34190,1,0,3:0:0:0:
304,128,34404,1,8,0:0:0:0:
104,232,34618,2,0,P|32:164|103:95,1,220,2|0,3:2|3:0,0:0:0:0:
304,136,35261,1,8,0:0:0:0:
304,72,35475,1,0,3:0:0:0:
104,248,35690,6,0,P|32:176|104:112,1,220,6|8,3:2|0:0,0:0:0:0:
304,184,36332,2,0,L|104:88,1,220,2|0,3:2|3:0,0:0:0:0:
192,64,36975,1,8,0:0:0:0:
104,48,37190,1,0,0:0:0:0:
304,64,37404,5,2,0:0:0:0:
392,104,37618,1,0,3:0:0:0:
304,144,37832,1,8,0:0:0:0:
104,215,38047,2,0,L|312:143,1,220,2|0,0:0|3:0,0:0:0:0:
112,112,38690,1,8,0:0:0:0:
112,80,38904,1,0,3:0:0:0:
392,176,39118,5,6,3:2:0:0:
480,160,39332,1,0,0:0:0:0:
392,128,39547,1,8,0:0:0:0:
192,112,39761,1,2,3:2:0:0:
192,184,39975,1,0,0:0:0:0:
393,111,40190,1,8,0:0:0:0:
192,88,40404,1,8,0:0:0:0:
392,240,40618,6,0,P|464:192|392:112,1,220,2|8,3:2|0:3,0:0:0:0:
192,112,41261,1,8,0:3:0:0:
392,104,41475,1,8,0:3:0:0:
192,216,41690,2,0,L|192:96,1,110,4|0,0:3|0:0,0:0:0:0:
88,224,42118,2,0,L|88:112,1,110
392,216,42547,6,0,P|376:112|280:64,1,220,4|8,3:1|0:0,0:0:0:0:
168,80,43190,1,0,0:0:0:0:
368,64,43404,1,2,0:0:0:0:
280,96,43618,1,0,3:0:0:0:
368,128,43832,1,8,0:0:0:0:
168,216,44047,6,0,P|96:144|168:80,1,220,2|0,3:2|3:0,0:0:0:0:
368,104,44690,1,2,1:3:0:0:
368,64,44904,1,0,0:0:0:0:
168,168,45118,1,2,3:2:0:0:
272,176,45332,1,8,3:1:0:0:
72,240,45547,2,0,L|72:128,1,110,8|0,1:0|0:0,0:0:0:0:
392,192,45975,6,0,L|296:136,1,110,2|0,3:2|0:0,0:0:0:0:
296,112,46404,1,8,0:0:0:0:
96,192,46618,2,0,L|192:136,1,110,2|0,0:0|0:0,0:0:0:0:
192,120,47047,1,0,3:0:0:0:
392,176,47261,6,0,L|296:120,2,110,8|0|2,0:0|0:0|0:0,0:0:0:0:
192,184,47904,2,0,L|288:128,2,110,0|8|2,3:0|0:0|0:0,0:0:0:0:
392,216,48547,2,0,L|392:104,1,110,0|0,0:0|3:0,0:0:0:0:
192,128,48975,2,0,L|88:88,1,110,8|0,0:0|0:0,0:0:0:0:
368,224,49404,6,0,P|440:160|368:88,1,220,4|8,3:1|0:0,0:0:0:0:
168,160,50047,1,2,0:0:0:0:
168,96,50261,1,0,0:0:0:0:
272,80,50475,1,0,3:0:0:0:
168,48,50690,1,8,0:0:0:0:
368,216,50904,6,0,P|440:144|368:80,1,220,2|0,3:2|3:0,0:0:0:0:
168,104,51547,1,2,1:3:0:0:
168,64,51761,1,0,0:0:0:0:
368,168,51975,1,2,3:2:0:0:
264,176,52190,1,8,3:1:0:0:
464,240,52404,2,0,L|464:128,1,110,8|0,1:0|0:0,0:0:0:0:
264,192,52832,5,2,3:2:0:0:
144,192,53047,1,0,0:0:0:0:
264,104,53261,1,8,0:0:0:0:
144,112,53475,1,0,0:0:0:0:
344,200,53690,1,2,0:0:0:0:
432,152,53904,1,0,3:0:0:0:
344,104,54118,1,8,0:0:0:0:
144,232,54332,6,0,P|152:128|248:80,1,220,2|0,3:2|3:0,0:0:0:0:
352,80,54975,1,8,0:0:0:0:
152,176,55190,2,0,L|56:120,2,110,2|0|0,0:0|0:0|3:0,0:0:0:0:
352,168,55832,1,8,0:0:0:0:
352,112,56047,1,0,0:0:0:0:
56,224,56261,6,0,L|56:112,1,110,4|0,3:1|0:0,0:0:0:0:
256,232,56690,2,0,L|360:192,1,110,8|0,0:0|0:0,0:0:0:0:
160,128,57118,2,0,L|56:88,2,110,2|0|8,0:0|3:0|0:0,0:0:0:0:
360,184,57761,6,0,L|360:72,1,110,2|0,3:2|0:0,0:0:0:0:
248,72,58190,1,0,3:0:0:0:
360,40,58404,1,8,0:0:0:0:
160,192,58618,2,0,L|160:80,1,110,2|0,3:2|0:0,0:0:0:0:
264,112,59047,1,8,3:1:0:0:
64,200,59261,2,0,L|64:88,1,110,8|0,1:0|0:0,0:0:0:0:
264,240,59690,6,0,L|368:200,1,110,2|0,3:2|0:0,0:0:0:0:
168,176,60118,1,8,0:0:0:0:
256,160,60332,1,0,0:0:0:0:
168,128,60547,1,2,0:0:0:0:
368,152,60761,2,0,L|368:40,1,110,0|8,3:0|0:0,0:0:0:0:
168,256,61190,6,0,L|168:144,1,110,2|0,3:2|0:0,0:0:0:0:
272,144,61618,1,0,3:0:0:0:
168,146,61832,1,8,0:0:0:0:
368,200,62047,2,0,L|368:80,1,110,2|0,0:0|0:0,0:0:0:0:
168,88,62475,1,0,3:0:0:0:
256,88,62690,1,8,0:0:0:0:
168,88,62904,1,0,0:0:0:0:
456,224,63118,6,0,L|456:112,1,110,4|0,3:1|0:0,0:0:0:0:
256,232,63547,2,0,L|152:192,1,110,8|0,0:0|0:0,0:0:0:0:
352,128,63975,2,0,L|456:88,2,110,2|0|8,0:0|3:0|0:0,0:0:0:0:
152,184,64618,6,0,L|152:72,1,110,2|0,3:2|0:0,0:0:0:0:
264,72,65047,1,0,3:0:0:0:
152,40,65261,1,8,0:0:0:0:
352,192,65475,2,0,L|352:80,1,110,2|0,0:0|0:0,0:0:0:0:
248,112,65904,1,8,3:1:0:0:
448,200,66118,2,0,L|448:88,1,110,8|0,1:0|0:0,0:0:0:0:
248,200,66547,6,0,L|144:160,3,110,2|0|8|0,3:2|0:0|0:0|0:0,0:0:0:0:
344,176,67404,1,2,0:0:0:0:
432,168,67618,1,0,3:0:0:0:
344,144,67832,1,8,0:0:0:0:
144,240,68047,6,0,P|80:184|144:88,1,220,2|0,3:2|3:0,0:0:0:0:
248,80,68690,1,8,0:0:0:0:
144,64,68904,1,0,0:0:0:0:
344,160,69118,2,0,L|240:120,2,110,2|0|8,0:0|3:0|0:0,0:0:0:0:
144,208,69761,6,0,L|144:88,1,110,2|0,3:2|0:0,0:0:0:0:
256,96,70190,1,0,3:0:0:0:
368,56,70404,1,8,0:0:0:0:
168,216,70618,2,0,P|96:144|168:80,1,220,2|0,3:2|3:0,0:0:0:0:
368,128,71261,1,8,0:0:0:0:
368,80,71475,1,0,0:0:0:0:
168,192,71690,6,0,L|80:120,2,110,2|0|8,0:0|3:0|0:0,0:0:0:0:
272,192,72332,2,0,L|360:120,2,110,2|0|0,3:2|0:0|3:0,0:0:0:0:
168,152,72975,1,8,0:0:0:0:
448,208,73190,6,0,L|448:96,1,110,8|0,3:0|0:0,0:0:0:0:
336,88,73618,1,8,0:3:0:0:
448,72,73832,1,8,0:3:0:0:
160,200,74047,2,0,L|160:80,1,110,4|0,0:3|3:0,0:0:0:0:
264,56,74475,1,2,3:2:0:0:
64,208,74690,1,8,0:0:0:0:
32,176,74797,1,8,0:0:0:0:
64,152,74904,1,8,0:0:0:0:
384,112,75118,6,0,L|384:224,1,110,4|0,3:1|0:0,0:0:0:0:
184,104,75547,2,0,L|184:216,1,110,8|0,0:0|0:0,0:0:0:0:
384,120,75975,1,2,0:0:0:0:
272,136,76190,1,0,3:0:0:0:
384,152,76404,1,8,0:0:0:0:
184,248,76618,6,0,P|120:168|184:88,1,220,2|0,3:2|3:0,0:0:0:0:
288,112,77261,1,8,0:0:0:0:
392,96,77475,1,0,3:0:0:0:
224,136,77689,1,2,3:2:0:0:
224,96,77904,1,0,3:0:0:0:
112,216,78118,1,8,0:0:0:0:
112,160,78332,1,0,3:0:0:0:
312,224,78547,5,2,3:2:0:0:
416,224,78761,1,0,0:0:0:0:
312,160,78975,1,8,0:0:0:0:
416,160,79190,1,0,0:0:0:0:
216,96,79404,1,2,0:0:0:0:
328,96,79618,1,0,3:0:0:0:
328,72,79832,1,8,0:0:0:0:
128,88,80047,6,0,L|32:144,3,110,2|0|0|8,3:2|0:0|3:0|0:0,0:0:0:0:
232,232,80904,2,0,L|328:176,2,110,2|0|0,3:2|0:0|3:0,0:0:0:0:
432,208,81547,2,0,L|432:96,1,110,8|8,0:0|0:0,0:0:0:0:
112,112,81975,6,0,L|112:224,1,110,4|0,3:1|0:0,0:0:0:0:
312,120,82404,2,0,L|312:232,1,110,8|0,0:0|0:0,0:0:0:0:
112,120,82832,1,2,0:0:0:0:
224,136,83047,1,0,3:0:0:0:
112,152,83261,1,8,0:0:0:0:
312,248,83475,6,0,P|376:168|312:88,1,220,2|0,3:2|3:0,0:0:0:0:
208,112,84118,1,8,0:0:0:0:
104,96,84332,1,0,3:0:0:0:
272,136,84546,1,2,3:2:0:0:
272,96,84761,1,0,3:0:0:0:
384,216,84975,1,8,0:0:0:0:
384,160,85189,1,0,3:0:0:0:
184,232,85404,6,0,P|120:184|128:104,1,165,6|8,3:2|0:0,0:0:0:0:
184,104,85832,1,8,0:0:0:0:
384,88,86047,2,0,P|456:152|384:224,1,220,6|8,3:2|0:0,0:0:0:0:
104,104,86690,6,0,P|32:168|104:240,1,220,6|0,3:2|0:0,0:0:0:0:
304,176,87332,1,8,0:3:0:0:
192,176,87547,1,8,0:3:0:0:
392,208,87761,2,0,L|392:96,1,110,8|0,0:3|0:0,0:0:0:0:
112,72,88190,2,0,P|40:136|112:208,1,220,4|0,0:3|0:0,0:0:0:0:
312,136,88832,5,6,0:0:0:0:
